osu file format v14

[General]
AudioFilename: audio.mp3
AudioLeadIn: 0
PreviewTime: -1
Countdown: 1
SampleSet: Normal
StackLeniency: 0.7
Mode: 0
LetterboxInBreaks: 0
WidescreenStoryboard: 0

[Editor]
DistanceSpacing: 0.8
BeatDivisor: 4
GridSize: 4
TimelineZoom: 1

[Metadata]
Title:I Love You
TitleUnicode:I Love You
Artist:OMFG
ArtistUnicode:OMFG
Creator:Future God
Version:Insane
Source:
Tags:
BeatmapID:1577638
BeatmapSetID:748929

[Difficulty]
HPDrainRate:5
CircleSize:5
OverallDifficulty:5
ApproachRate:5
SliderMultiplier:1.4
SliderTickRate:1

[Events]
//Background and Video events
0,0,"bgspace.png",0,0
//Break Periods
//Storyboard Layer 0 (Background)
//Storyboard Layer 1 (Fail)
//Storyboard Layer 2 (Pass)
//Storyboard Layer 3 (Foreground)
//Storyboard Sound Samples

[TimingPoints]
938,284.36018957346,4,1,0,100,1,0

[Colours]
Combo1 : 0,255,255
Combo2 : 255,0,128

[HitObjects]
224,200,2430,5,0,0:0:0:0:
257,192,4776,1,0,0:0:0:0:
254,190,5914,1,0,0:0:0:0:
154,142,6411,1,0,0:0:0:0:
204,121,6625,2,0,L|241:121,6,35
256,191,9113,1,0,0:0:0:0:
256,191,9397,1,0,0:0:0:0:
84,176,11103,1,0,0:0:0:0:
124,140,11174,1,0,0:0:0:0:
156,108,11246,1,0,0:0:0:0:
188,76,11317,1,0,0:0:0:0:
240,44,11388,1,0,0:0:0:0:
276,80,11459,1,0,0:0:0:0:
312,112,11530,1,0,0:0:0:0:
344,140,11601,1,0,0:0:0:0:
384,172,11672,1,0,0:0:0:0:
340,192,11743,1,4,0:0:0:0:
288,180,14018,1,0,0:0:0:0:
199,140,15298,1,0,0:0:0:0:
192,96,15653,1,0,0:0:0:0:
216,176,16009,5,0,0:0:0:0:
240,200,16080,1,0,0:0:0:0:
269,226,16151,1,0,0:0:0:0:
300,249,16222,1,0,0:0:0:0:
336,272,16293,1,0,0:0:0:0:
356,256,16364,1,0,0:0:0:0:
164,160,18639,1,0,0:0:0:0:
304,248,19279,1,0,0:0:0:0:
284,140,19919,1,0,0:0:0:0:
216,216,20416,1,0,0:0:0:0:
328,256,20772,1,0,0:0:0:0:
288,152,21056,1,0,0:0:0:0:
266,178,21269,5,0,0:0:0:0:
272,224,21625,1,0,0:0:0:0:
344,184,21909,1,0,0:0:0:0:
352,232,21980,1,0,0:0:0:0:
352,272,22051,1,0,0:0:0:0:
408,268,22122,1,0,0:0:0:0:
408,224,22193,1,0,0:0:0:0:
408,168,22265,1,0,0:0:0:0:
432,120,22336,1,0,0:0:0:0:
368,120,22407,1,0,0:0:0:0:
312,156,22478,1,0,0:0:0:0:
296,220,22549,1,0,0:0:0:0:
248,272,22762,5,0,0:0:0:0:
240,196,23047,1,0,0:0:0:0:
180,184,23402,1,0,0:0:0:0:
191,215,23686,1,0,0:0:0:0:
208,244,23757,1,0,0:0:0:0:
228,276,23828,1,0,0:0:0:0:
252,296,23900,1,0,0:0:0:0:
288,324,23971,1,0,0:0:0:0:
340,316,24042,1,0,0:0:0:0:
376,272,24113,1,0,0:0:0:0:
336,252,24184,1,0,0:0:0:0:
308,240,24255,1,0,0:0:0:0:
280,216,24539,1,0,0:0:0:0:
248,192,24682,1,0,0:0:0:0:
220,168,24824,1,0,0:0:0:0:
442,121,25250,2,0,L|484:119,7,35
456,76,25819,1,0,0:0:0:0:
420,52,26032,1,0,0:0:0:0:
412,76,26174,1,0,0:0:0:0:
396,56,26317,1,0,0:0:0:0:
340,104,26530,1,0,0:0:0:0:
352,148,26885,1,0,0:0:0:0:
352,200,27241,1,0,0:0:0:0:
304,244,27667,1,0,0:0:0:0:
308,208,28023,5,0,0:0:0:0:
268,200,28307,1,0,0:0:0:0:
232,188,28520,1,0,0:0:0:0:
192,176,28663,1,0,0:0:0:0:
156,144,28876,1,0,0:0:0:0:
128,112,29160,1,0,0:0:0:0:
136,56,29445,1,0,0:0:0:0:
168,48,29516,1,0,0:0:0:0:
196,32,29587,1,0,0:0:0:0:
240,24,29658,1,0,0:0:0:0:
256,72,29729,1,0,0:0:0:0:
276,128,29800,1,0,0:0:0:0:
284,184,29871,1,0,0:0:0:0:
320,232,29942,1,0,0:0:0:0:
348,179,30013,1,0,0:0:0:0:
391,184,30084,1,0,0:0:0:0:
408,139,30156,1,0,0:0:0:0:
392,87,30227,1,0,0:0:0:0:
356,67,30298,1,0,0:0:0:0:
256,192,30369,12,0,35061,0:0:0:0:
114,93,39042,6,0,B|134:182|134:182|133:182|132:180|132:178|132:178|132:177|132:177|134:177|136:177|136:177|136:178|136:178|136:179|136:180|135:180|134:180|133:180|133:180|134:179|135:179|135:179|136:181|136:182|135:182|135:182|132:182|131:182|131:182|131:181|131:180|131:180|133:178|134:178|135:178|135:178|136:183|136:184|136:185|136:185|134:185|133:185|131:184|131:183|131:183|132:181|132:181|137:179|138:180|138:182|137:183|137:183|131:185|131:185|130:183|130:182|130:182|130:181|130:181|132:179|132:179|137:180|137:180|135:185|134:187|133:187|132:187|131:186|130:185|130:184|130:184|138:181|138:181|132:185|132:185|133:181|134:181|134:181|135:181|135:181|134:184|134:184|133:184|133:184|129:185|127:185|127:184|127:184|127:182|128:181|129:179|130:178|131:177|133:177|133:177|135:177|135:177|137:181|137:182|137:182|186:150,1,280
290,239,41317,6,0,B|274:167|274:167|275:168|275:169|275:171|275:171|275:171|275:171|274:171|272:171|272:171|272:171|272:171|272:170|272:169|273:169|274:169|275:169|275:169|274:170|273:170|273:170|272:168|272:168|273:167|273:167|276:168|276:167|276:167|276:168|276:169|276:169|275:171|274:171|273:171|273:171|272:167|272:166|272:165|272:165|274:165|275:165|276:166|276:167|276:167|275:168|275:168|272:170|271:169|271:167|271:167|271:167|276:165|276:165|277:167|277:167|277:167|277:168|277:168|275:170|275:170|272:169|272:169|273:165|274:164|275:164|275:164|276:164|277:165|277:166|277:166|271:168|271:168|275:165|275:165|275:168|274:168|274:168|273:168|273:168|274:166|274:166|275:166|275:166|278:165|280:165|280:166|280:166|280:167|279:168|278:170|277:171|276:171|275:171|275:171|273:172|273:172|272:168|272:167|272:167|135:172,1,315,0|0,0:0|0:0,3:0:0:0:
158,186,43592,6,0,B|244:216|244:216|243:217|241:216|239:215|239:215|238:215|238:215|239:213|240:211|240:211|241:212|241:212|242:212|243:213|242:214|242:215|241:215|241:215|241:214|242:213|242:213|244:213|245:214|244:215|244:215|243:217|242:218|242:218|241:218|240:217|240:217|240:214|240:214|241:213|241:213|245:215|246:215|247:216|247:216|246:217|246:218|244:219|243:219|243:219|242:217|242:217|243:212|244:211|246:212|246:214|246:214|245:220|245:220|242:220|241:219|241:219|241:219|241:219|240:216|240:216|243:212|243:212|247:216|248:218|247:219|247:220|245:220|244:221|243:220|243:220|245:212|245:212|245:219|245:219|242:216|243:215|243:215|243:214|243:214|245:217|245:217|245:218|245:218|243:222|242:223|242:223|242:223|240:222|240:220|238:218|238:217|238:216|239:214|239:214|240:212|240:212|244:213|245:213|245:213|165:106,1,350
236,113,45298,1,0,0:0:0:0:
270,132,45369,1,0,0:0:0:0:
300,155,45440,1,0,0:0:0:0:
317,154,45866,6,0,B|297:65|297:65|298:65|299:66|299:69|299:69|299:70|299:70|297:70|295:70|295:70|295:69|295:69|295:68|295:67|296:67|297:67|298:67|298:67|297:68|296:68|296:68|295:66|295:65|296:65|296:65|299:65|300:65|300:65|300:65|300:67|300:67|298:69|297:68|296:69|296:69|295:64|295:63|295:61|295:61|297:61|298:62|300:63|300:64|300:64|299:66|299:66|294:68|293:67|293:65|294:64|294:64|300:62|300:62|301:64|301:64|301:64|301:66|301:66|299:68|299:68|294:67|294:67|296:62|297:60|298:60|299:60|299:61|300:61|301:63|301:63|293:66|293:66|299:62|299:62|298:66|297:66|297:66|296:66|296:66|297:63|297:63|298:63|298:63|302:62|304:61|304:63|304:63|304:65|303:65|302:67|301:68|300:69|298:70|298:70|296:69|296:69|294:66|294:65|294:65|176:128,1,350
