osu file format v14

[General]
AudioFilename: audio.mp3
AudioLeadIn: 0
PreviewTime: -1
Countdown: 1
SampleSet: None
StackLeniency: 0.7
Mode: 3
LetterboxInBreaks: 0
SpecialStyle: 1
WidescreenStoryboard: 0

[Editor]
DistanceSpacing: 1.2
BeatDivisor: 1
GridSize: 32
TimelineZoom: 0.4

[Metadata]
Title:Hippo
TitleUnicode:Hippo
Artist:OMFG
ArtistUnicode:OMFG
Creator:KimPlexed
Version:Hard
Source:Youtube
Tags:omfg , i love you , hello , pancakes , hippo
BeatmapID:1419832
BeatmapSetID:671528

[Difficulty]
HPDrainRate:5
CircleSize:5
OverallDifficulty:5
ApproachRate:6
SliderMultiplier:1.00000000596046
SliderTickRate:4

[Events]
//Background and Video events
0,0,"maxresdefault.png",0,0
//Break Periods
2,93124,102209
2,113220,189195
//Storyboard Layer 0 (Background)
//Storyboard Layer 1 (Fail)
//Storyboard Layer 2 (Pass)
//Storyboard Layer 3 (Foreground)
//Storyboard Sound Samples

[TimingPoints]
27470.2966507177,287.081339712919,4,1,0,100,1,0

[HitObjects]
256,192,771,5,0,0:0:0:0:
256,192,1920,1,0,0:0:0:0:
256,192,3355,1,0,0:0:0:0:
256,192,4503,1,0,0:0:0:0:
256,192,5939,1,0,0:0:0:0:
256,192,7087,1,0,0:0:0:0:
256,192,8522,1,0,0:0:0:0:
256,192,9671,1,0,0:0:0:0:
256,192,11106,1,0,0:0:0:0:
256,192,12254,1,0,0:0:0:0:
256,192,13690,1,0,0:0:0:0:
256,192,14838,1,0,0:0:0:0:
256,192,16274,1,0,0:0:0:0:
256,192,17422,1,0,0:0:0:0:
256,192,18570,1,0,0:0:0:0:
256,192,20006,1,0,0:0:0:0:
51,192,21154,1,0,0:0:0:0:
153,192,21441,1,0,0:0:0:0:
256,192,21441,1,0,0:0:0:0:
256,192,21728,1,0,0:0:0:0:
358,192,22015,1,0,0:0:0:0:
358,192,22302,1,0,0:0:0:0:
460,192,22589,1,0,0:0:0:0:
460,192,22876,1,0,0:0:0:0:
51,192,23738,1,0,0:0:0:0:
153,192,24025,1,0,0:0:0:0:
256,192,24025,1,0,0:0:0:0:
256,192,24312,1,0,0:0:0:0:
358,192,24312,1,0,0:0:0:0:
358,192,24886,1,0,0:0:0:0:
460,192,25173,128,0,25460:0:0:0:0:
460,192,25460,128,0,25747:0:0:0:0:
51,192,26321,1,0,0:0:0:0:
153,192,26609,1,0,0:0:0:0:
256,192,26609,1,0,0:0:0:0:
256,192,26896,1,0,0:0:0:0:
358,192,26896,1,0,0:0:0:0:
358,192,27183,1,0,0:0:0:0:
358,192,27470,1,0,0:0:0:0:
358,192,27757,1,0,0:0:0:0:
358,192,28009,1,0,0:0:0:0:
460,192,28009,1,0,0:0:0:0:
51,192,28331,1,0,0:0:0:0:
153,192,28331,1,0,0:0:0:0:
256,192,28331,1,0,0:0:0:0:
358,192,28331,1,0,0:0:0:0:
460,192,28331,1,0,0:0:0:0:
460,192,28618,1,0,0:0:0:0:
358,192,28618,1,0,0:0:0:0:
256,192,28618,1,0,0:0:0:0:
153,192,28618,1,0,0:0:0:0:
51,192,28618,1,0,0:0:0:0:
51,192,28905,1,0,0:0:0:0:
153,192,28905,1,0,0:0:0:0:
256,192,28905,1,0,0:0:0:0:
358,192,28905,1,0,0:0:0:0:
460,192,28905,1,0,0:0:0:0:
460,192,29192,1,0,0:0:0:0:
358,192,29192,1,0,0:0:0:0:
256,192,29192,1,0,0:0:0:0:
153,192,29192,1,0,0:0:0:0:
51,192,29192,1,0,0:0:0:0:
51,192,29479,1,0,0:0:0:0:
153,192,29479,1,0,0:0:0:0:
256,192,29479,1,0,0:0:0:0:
358,192,29479,1,0,0:0:0:0:
460,192,29479,1,0,0:0:0:0:
460,192,29766,1,0,0:0:0:0:
256,192,29766,1,0,0:0:0:0:
153,192,29766,1,0,0:0:0:0:
51,192,29766,1,0,0:0:0:0:
358,192,29766,1,0,0:0:0:0:
51,192,30054,1,0,0:0:0:0:
256,192,30054,1,0,0:0:0:0:
153,192,30054,1,0,0:0:0:0:
358,192,30054,1,0,0:0:0:0:
460,192,30054,1,0,0:0:0:0:
51,192,30341,1,0,0:0:0:0:
153,192,30341,1,0,0:0:0:0:
460,192,30341,1,0,0:0:0:0:
358,192,30341,1,0,0:0:0:0:
256,192,30341,1,0,0:0:0:0:
51,192,30628,1,0,0:0:0:0:
153,192,30628,1,0,0:0:0:0:
256,192,30628,1,0,0:0:0:0:
358,192,30628,1,0,0:0:0:0:
460,192,30628,1,0,0:0:0:0:
358,192,31202,1,0,0:0:0:0:
153,192,31202,1,0,0:0:0:0:
51,192,31489,1,0,0:0:0:0:
460,192,31489,1,0,0:0:0:0:
358,192,31776,1,0,0:0:0:0:
51,192,32063,1,0,0:0:0:0:
153,192,32063,1,0,0:0:0:0:
460,192,32063,1,0,0:0:0:0:
153,192,32350,1,0,0:0:0:0:
256,192,32350,1,0,0:0:0:0:
256,192,32637,1,0,0:0:0:0:
256,192,32924,1,0,0:0:0:0:
256,192,33211,1,0,0:0:0:0:
358,192,33211,1,0,0:0:0:0:
51,192,33499,1,0,0:0:0:0:
153,192,33499,1,0,0:0:0:0:
256,192,33499,1,0,0:0:0:0:
358,192,33499,1,0,0:0:0:0:
460,192,33499,1,0,0:0:0:0:
51,192,33786,1,0,0:0:0:0:
153,192,33786,1,0,0:0:0:0:
153,192,34073,1,0,0:0:0:0:
256,192,34073,1,0,0:0:0:0:
256,192,34360,1,0,0:0:0:0:
153,192,34647,1,0,0:0:0:0:
256,192,34647,1,0,0:0:0:0:
256,192,34934,1,0,0:0:0:0:
256,192,35221,1,0,0:0:0:0:
51,192,35508,1,0,0:0:0:0:
460,192,35508,1,0,0:0:0:0:
358,192,35508,1,0,0:0:0:0:
153,192,35508,1,0,0:0:0:0:
51,192,35795,1,0,0:0:0:0:
153,192,35795,1,0,0:0:0:0:
358,192,35795,1,0,0:0:0:0:
460,192,35795,1,0,0:0:0:0:
51,192,36082,1,0,0:0:0:0:
153,192,36082,1,0,0:0:0:0:
256,192,36082,1,0,0:0:0:0:
358,192,36082,1,0,0:0:0:0:
460,192,36082,1,0,0:0:0:0:
51,192,36369,1,0,0:0:0:0:
153,192,36656,1,0,0:0:0:0:
153,192,36943,1,0,0:0:0:0:
358,192,36943,1,0,0:0:0:0:
256,192,37231,1,0,0:0:0:0:
460,192,37231,1,0,0:0:0:0:
256,192,37518,1,0,0:0:0:0:
256,192,37805,1,0,0:0:0:0:
256,192,38092,1,0,0:0:0:0:
358,192,38379,1,0,0:0:0:0:
51,192,38666,1,0,0:0:0:0:
153,192,38666,1,0,0:0:0:0:
256,192,38666,1,0,0:0:0:0:
358,192,38666,1,0,0:0:0:0:
460,192,38666,1,0,0:0:0:0:
153,192,38953,1,0,0:0:0:0:
358,192,38953,1,0,0:0:0:0:
51,192,39240,1,0,0:0:0:0:
153,192,39240,1,0,0:0:0:0:
256,192,39240,1,0,0:0:0:0:
358,192,39240,1,0,0:0:0:0:
460,192,39240,1,0,0:0:0:0:
51,192,39527,1,0,0:0:0:0:
460,192,39527,1,0,0:0:0:0:
51,192,39814,1,0,0:0:0:0:
153,192,39814,1,0,0:0:0:0:
256,192,39814,1,0,0:0:0:0:
358,192,39814,1,0,0:0:0:0:
460,192,39814,1,0,0:0:0:0:
153,192,40101,1,0,0:0:0:0:
358,192,40101,1,0,0:0:0:0:
51,192,40388,1,0,0:0:0:0:
153,192,40388,1,0,0:0:0:0:
256,192,40388,1,0,0:0:0:0:
358,192,40388,1,0,0:0:0:0:
460,192,40388,1,0,0:0:0:0:
51,192,40676,1,0,0:0:0:0:
460,192,40676,1,0,0:0:0:0:
51,192,40963,1,0,0:0:0:0:
460,192,41250,1,0,0:0:0:0:
51,192,41537,1,0,0:0:0:0:
153,192,41537,1,0,0:0:0:0:
153,192,41824,1,0,0:0:0:0:
256,192,41824,1,0,0:0:0:0:
256,192,42111,1,0,0:0:0:0:
460,192,42111,1,0,0:0:0:0:
51,192,42398,1,0,0:0:0:0:
153,192,42398,1,0,0:0:0:0:
153,192,42685,1,0,0:0:0:0:
256,192,42685,1,0,0:0:0:0:
460,192,42685,1,0,0:0:0:0:
256,192,42972,1,0,0:0:0:0:
460,192,43259,1,0,0:0:0:0:
256,192,43259,1,0,0:0:0:0:
256,192,43546,1,0,0:0:0:0:
358,192,43546,1,0,0:0:0:0:
460,192,43833,1,0,0:0:0:0:
358,192,43833,1,0,0:0:0:0:
153,192,44121,1,0,0:0:0:0:
460,192,44408,1,0,0:0:0:0:
153,192,44408,1,0,0:0:0:0:
51,192,44408,1,0,0:0:0:0:
460,192,44982,1,0,0:0:0:0:
153,192,44982,1,0,0:0:0:0:
51,192,45556,1,0,0:0:0:0:
460,192,45556,1,0,0:0:0:0:
153,192,46130,1,0,0:0:0:0:
460,192,46130,1,0,0:0:0:0:
51,192,46704,1,0,0:0:0:0:
460,192,46704,1,0,0:0:0:0:
358,192,46704,1,0,0:0:0:0:
460,192,46991,1,0,0:0:0:0:
256,192,46991,1,0,0:0:0:0:
460,192,47278,1,0,0:0:0:0:
358,192,47278,1,0,0:0:0:0:
460,192,47565,1,0,0:0:0:0:
256,192,47565,1,0,0:0:0:0:
460,192,47853,1,0,0:0:0:0:
358,192,47853,1,0,0:0:0:0:
460,192,48140,1,0,0:0:0:0:
256,192,48140,1,0,0:0:0:0:
460,192,48427,1,0,0:0:0:0:
358,192,48427,1,0,0:0:0:0:
460,192,48714,1,0,0:0:0:0:
358,192,48714,1,0,0:0:0:0:
256,192,48714,1,0,0:0:0:0:
460,192,49001,1,0,0:0:0:0:
358,192,49001,1,0,0:0:0:0:
256,192,49001,1,0,0:0:0:0:
460,192,49288,1,0,0:0:0:0:
358,192,49288,1,0,0:0:0:0:
256,192,49288,1,0,0:0:0:0:
460,192,49575,1,0,0:0:0:0:
358,192,49575,1,0,0:0:0:0:
256,192,49575,1,0,0:0:0:0:
460,192,49862,1,0,0:0:0:0:
256,192,49862,1,0,0:0:0:0:
358,192,49862,1,0,0:0:0:0:
460,192,50149,1,0,0:0:0:0:
358,192,50149,1,0,0:0:0:0:
256,192,50149,1,0,0:0:0:0:
460,192,50436,1,0,0:0:0:0:
358,192,50436,1,0,0:0:0:0:
256,192,50436,1,0,0:0:0:0:
460,192,50723,1,0,0:0:0:0:
358,192,50723,1,0,0:0:0:0:
256,192,50723,1,0,0:0:0:0:
153,192,50723,1,0,0:0:0:0:
51,192,50723,1,0,0:0:0:0:
256,192,51010,1,0,0:0:0:0:
51,192,51298,1,0,0:0:0:0:
153,192,51298,1,0,0:0:0:0:
256,192,51298,1,0,0:0:0:0:
358,192,51298,1,0,0:0:0:0:
460,192,51298,1,0,0:0:0:0:
153,192,51585,1,0,0:0:0:0:
256,192,51585,1,0,0:0:0:0:
256,192,51872,1,0,0:0:0:0:
256,192,52159,1,0,0:0:0:0:
460,192,52446,1,0,0:0:0:0:
51,192,52733,1,0,0:0:0:0:
153,192,52733,1,0,0:0:0:0:
153,192,53020,1,0,0:0:0:0:
256,192,53020,1,0,0:0:0:0:
256,192,53307,1,0,0:0:0:0:
358,192,53307,1,0,0:0:0:0:
358,192,53594,1,0,0:0:0:0:
460,192,53881,1,0,0:0:0:0:
51,192,54168,1,0,0:0:0:0:
51,192,54455,1,0,0:0:0:0:
153,192,54455,1,0,0:0:0:0:
153,192,54743,1,0,0:0:0:0:
256,192,54743,1,0,0:0:0:0:
256,192,55030,1,0,0:0:0:0:
358,192,55030,1,0,0:0:0:0:
460,192,55317,1,0,0:0:0:0:
358,192,55604,1,0,0:0:0:0:
460,192,55891,1,0,0:0:0:0:
51,192,56178,1,0,0:0:0:0:
153,192,56465,1,0,0:0:0:0:
51,192,56752,1,0,0:0:0:0:
51,192,57039,1,0,0:0:0:0:
51,192,57326,1,0,0:0:0:0:
153,192,57326,1,0,0:0:0:0:
153,192,57613,1,0,0:0:0:0:
256,192,57613,1,0,0:0:0:0:
256,192,57900,1,0,0:0:0:0:
256,192,58187,1,0,0:0:0:0:
51,192,58475,1,0,0:0:0:0:
153,192,58475,1,0,0:0:0:0:
153,192,58762,1,0,0:0:0:0:
256,192,58762,1,0,0:0:0:0:
256,192,59049,1,0,0:0:0:0:
51,192,59336,1,0,0:0:0:0:
153,192,59336,1,0,0:0:0:0:
153,192,59623,1,0,0:0:0:0:
256,192,59623,1,0,0:0:0:0:
256,192,59910,1,0,0:0:0:0:
358,192,60197,1,0,0:0:0:0:
460,192,60484,1,0,0:0:0:0:
358,192,60771,1,0,0:0:0:0:
460,192,61058,1,0,0:0:0:0:
256,192,61345,1,0,0:0:0:0:
51,192,61920,1,0,0:0:0:0:
153,192,61920,1,0,0:0:0:0:
153,192,62207,1,0,0:0:0:0:
256,192,62207,1,0,0:0:0:0:
256,192,62494,1,0,0:0:0:0:
358,192,62494,1,0,0:0:0:0:
358,192,62781,1,0,0:0:0:0:
51,192,63068,1,0,0:0:0:0:
153,192,63068,1,0,0:0:0:0:
256,192,63068,1,0,0:0:0:0:
358,192,63068,1,0,0:0:0:0:
460,192,63068,1,0,0:0:0:0:
51,192,63355,1,0,0:0:0:0:
153,192,63355,1,0,0:0:0:0:
153,192,63642,1,0,0:0:0:0:
256,192,63642,1,0,0:0:0:0:
256,192,63929,1,0,0:0:0:0:
358,192,63929,1,0,0:0:0:0:
358,192,64216,1,0,0:0:0:0:
460,192,64216,1,0,0:0:0:0:
460,192,64503,1,0,0:0:0:0:
358,192,64790,1,0,0:0:0:0:
153,192,65077,1,0,0:0:0:0:
51,192,65365,1,0,0:0:0:0:
153,192,65652,1,0,0:0:0:0:
51,192,65939,1,0,0:0:0:0:
51,192,67087,1,0,0:0:0:0:
153,192,67087,1,0,0:0:0:0:
153,192,67374,1,0,0:0:0:0:
256,192,67374,1,0,0:0:0:0:
256,192,67661,1,0,0:0:0:0:
51,192,68235,1,0,0:0:0:0:
153,192,68235,1,0,0:0:0:0:
153,192,68522,1,0,0:0:0:0:
256,192,68522,1,0,0:0:0:0:
256,192,68810,1,0,0:0:0:0:
358,192,68810,1,0,0:0:0:0:
358,192,69097,1,0,0:0:0:0:
153,192,69384,1,0,0:0:0:0:
153,192,69671,1,0,0:0:0:0:
153,192,69958,1,0,0:0:0:0:
153,192,70245,1,0,0:0:0:0:
153,192,70532,1,0,0:0:0:0:
153,192,70819,1,0,0:0:0:0:
153,192,71106,1,0,0:0:0:0:
153,192,71393,1,0,0:0:0:0:
51,192,71967,1,0,0:0:0:0:
153,192,71967,1,0,0:0:0:0:
256,192,71967,1,0,0:0:0:0:
358,192,71967,1,0,0:0:0:0:
460,192,71967,1,0,0:0:0:0:
51,192,72254,1,0,0:0:0:0:
153,192,72254,1,0,0:0:0:0:
153,192,72542,1,0,0:0:0:0:
256,192,72542,1,0,0:0:0:0:
256,192,72829,1,0,0:0:0:0:
51,192,73116,1,0,0:0:0:0:
153,192,73116,1,0,0:0:0:0:
153,192,73403,1,0,0:0:0:0:
256,192,73403,1,0,0:0:0:0:
256,192,73690,1,0,0:0:0:0:
358,192,73690,1,0,0:0:0:0:
358,192,73977,1,0,0:0:0:0:
460,192,73977,1,0,0:0:0:0:
460,192,74264,1,0,0:0:0:0:
460,192,74551,1,0,0:0:0:0:
358,192,74551,1,0,0:0:0:0:
51,192,74838,1,0,0:0:0:0:
153,192,74838,1,0,0:0:0:0:
153,192,75125,1,0,0:0:0:0:
256,192,75125,1,0,0:0:0:0:
256,192,75412,1,0,0:0:0:0:
51,192,75699,1,0,0:0:0:0:
153,192,75987,1,0,0:0:0:0:
51,192,76274,1,0,0:0:0:0:
153,192,76561,1,0,0:0:0:0:
51,192,77135,1,0,0:0:0:0:
153,192,77135,1,0,0:0:0:0:
153,192,77422,1,0,0:0:0:0:
256,192,77422,1,0,0:0:0:0:
256,192,77709,1,0,0:0:0:0:
51,192,78283,1,0,0:0:0:0:
153,192,78283,1,0,0:0:0:0:
153,192,78570,1,0,0:0:0:0:
256,192,78570,1,0,0:0:0:0:
256,192,78857,1,0,0:0:0:0:
358,192,78857,1,0,0:0:0:0:
358,192,79144,1,0,0:0:0:0:
460,192,79144,1,0,0:0:0:0:
460,192,79432,1,0,0:0:0:0:
460,192,79719,1,0,0:0:0:0:
358,192,79719,1,0,0:0:0:0:
51,192,80006,1,0,0:0:0:0:
153,192,80006,1,0,0:0:0:0:
153,192,80293,1,0,0:0:0:0:
256,192,80293,1,0,0:0:0:0:
256,192,80580,1,0,0:0:0:0:
51,192,80867,1,0,0:0:0:0:
153,192,81154,1,0,0:0:0:0:
51,192,81441,1,0,0:0:0:0:
153,192,81728,1,0,0:0:0:0:
51,192,82589,1,0,0:0:0:0:
153,192,82589,1,0,0:0:0:0:
153,192,82876,1,0,0:0:0:0:
256,192,82876,1,0,0:0:0:0:
256,192,83164,1,0,0:0:0:0:
51,192,83738,1,0,0:0:0:0:
153,192,83738,1,0,0:0:0:0:
153,192,84025,1,0,0:0:0:0:
256,192,84025,1,0,0:0:0:0:
256,192,84312,1,0,0:0:0:0:
358,192,84312,1,0,0:0:0:0:
358,192,84599,1,0,0:0:0:0:
460,192,84599,1,0,0:0:0:0:
460,192,84886,1,0,0:0:0:0:
460,192,85173,1,0,0:0:0:0:
358,192,85173,1,0,0:0:0:0:
153,192,85173,1,0,0:0:0:0:
51,192,85173,1,0,0:0:0:0:
153,192,85460,1,0,0:0:0:0:
256,192,85460,1,0,0:0:0:0:
256,192,85747,1,0,0:0:0:0:
51,192,86034,1,0,0:0:0:0:
358,192,86034,1,0,0:0:0:0:
153,192,86321,1,0,0:0:0:0:
460,192,86321,1,0,0:0:0:0:
51,192,86609,1,0,0:0:0:0:
358,192,86609,1,0,0:0:0:0:
460,192,86896,1,0,0:0:0:0:
153,192,86896,1,0,0:0:0:0:
51,192,87470,1,0,0:0:0:0:
153,192,87470,1,0,0:0:0:0:
153,192,87757,1,0,0:0:0:0:
256,192,87757,1,0,0:0:0:0:
256,192,88044,1,0,0:0:0:0:
51,192,88905,1,0,0:0:0:0:
153,192,88905,1,0,0:0:0:0:
153,192,89192,1,0,0:0:0:0:
256,192,89192,1,0,0:0:0:0:
256,192,89479,1,0,0:0:0:0:
358,192,89479,1,0,0:0:0:0:
358,192,89766,1,0,0:0:0:0:
460,192,89766,1,0,0:0:0:0:
460,192,90341,1,0,0:0:0:0:
460,192,90628,1,0,0:0:0:0:
460,192,90915,1,0,0:0:0:0:
460,192,91202,1,0,0:0:0:0:
460,192,91489,1,0,0:0:0:0:
460,192,91776,1,0,0:0:0:0:
460,192,92063,1,0,0:0:0:0:
358,192,92350,1,0,0:0:0:0:
460,192,92350,1,0,0:0:0:0:
358,192,92637,1,0,0:0:0:0:
460,192,92637,1,0,0:0:0:0:
256,192,92637,1,0,0:0:0:0:
153,192,92637,1,0,0:0:0:0:
51,192,92637,1,0,0:0:0:0:
51,192,103259,5,0,0:0:0:0:
153,192,103259,1,0,0:0:0:0:
153,192,103546,1,0,0:0:0:0:
256,192,103833,1,0,0:0:0:0:
358,192,104121,1,0,0:0:0:0:
256,192,104408,1,0,0:0:0:0:
358,192,104408,1,0,0:0:0:0:
460,192,104408,1,0,0:0:0:0:
256,192,104695,1,0,0:0:0:0:
358,192,104695,1,0,0:0:0:0:
460,192,104695,1,0,0:0:0:0:
460,192,104982,1,0,0:0:0:0:
358,192,104982,1,0,0:0:0:0:
256,192,104982,1,0,0:0:0:0:
51,192,105269,1,0,0:0:0:0:
153,192,105269,1,0,0:0:0:0:
256,192,105269,1,0,0:0:0:0:
358,192,105269,1,0,0:0:0:0:
460,192,105269,1,0,0:0:0:0:
51,192,105556,1,0,0:0:0:0:
153,192,105843,1,0,0:0:0:0:
256,192,105843,1,0,0:0:0:0:
256,192,106130,1,0,0:0:0:0:
460,192,106417,1,0,0:0:0:0:
358,192,106417,1,0,0:0:0:0:
256,192,106417,1,0,0:0:0:0:
460,192,106704,1,0,0:0:0:0:
358,192,106704,1,0,0:0:0:0:
256,192,106704,1,0,0:0:0:0:
460,192,107278,1,0,0:0:0:0:
51,192,107278,1,0,0:0:0:0:
153,192,107565,1,0,0:0:0:0:
358,192,107565,1,0,0:0:0:0:
51,192,108140,1,0,0:0:0:0:
153,192,108140,1,0,0:0:0:0:
256,192,108140,1,0,0:0:0:0:
358,192,108140,1,0,0:0:0:0:
460,192,108140,1,0,0:0:0:0:
153,192,108427,1,0,0:0:0:0:
256,192,108714,1,0,0:0:0:0:
256,192,109001,1,0,0:0:0:0:
358,192,109288,1,0,0:0:0:0:
460,192,109575,1,0,0:0:0:0:
358,192,109862,1,0,0:0:0:0:
153,192,110149,1,0,0:0:0:0:
358,192,110149,1,0,0:0:0:0:
256,192,110149,1,0,0:0:0:0:
358,192,110436,1,0,0:0:0:0:
460,192,110723,1,0,0:0:0:0:
460,192,111010,1,0,0:0:0:0:
460,192,111298,1,0,0:0:0:0:
460,192,111585,1,0,0:0:0:0:
460,192,111872,1,0,0:0:0:0:
460,192,112159,1,0,0:0:0:0:
460,192,112446,1,0,0:0:0:0:
358,192,113020,1,0,0:0:0:0:
460,192,113020,1,0,0:0:0:0:
256,192,113020,1,0,0:0:0:0:
153,192,113020,1,0,0:0:0:0:
51,192,113020,1,0,0:0:0:0:
256,192,190245,5,0,0:0:0:0:
153,192,190532,1,0,0:0:0:0:
358,192,190532,1,0,0:0:0:0:
51,192,190819,1,0,0:0:0:0:
256,192,190819,1,0,0:0:0:0:
153,192,190819,1,0,0:0:0:0:
358,192,190819,1,0,0:0:0:0:
460,192,190819,1,0,0:0:0:0:
256,192,191106,1,0,0:0:0:0:
256,192,191680,1,0,0:0:0:0:
153,192,191967,1,0,0:0:0:0:
358,192,191967,1,0,0:0:0:0:
51,192,192254,1,0,0:0:0:0:
153,192,192254,1,0,0:0:0:0:
256,192,192254,1,0,0:0:0:0:
358,192,192254,1,0,0:0:0:0:
460,192,192254,1,0,0:0:0:0:
256,192,192829,1,0,0:0:0:0:
153,192,193116,1,0,0:0:0:0:
358,192,193116,1,0,0:0:0:0:
51,192,193403,1,0,0:0:0:0:
153,192,193403,1,0,0:0:0:0:
256,192,193403,1,0,0:0:0:0:
460,192,193403,1,0,0:0:0:0:
358,192,193403,1,0,0:0:0:0:
256,192,193690,1,0,0:0:0:0:
153,192,193977,1,0,0:0:0:0:
358,192,193977,1,0,0:0:0:0:
256,192,194264,1,0,0:0:0:0:
51,192,194551,1,0,0:0:0:0:
153,192,194551,1,0,0:0:0:0:
256,192,194551,1,0,0:0:0:0:
358,192,194551,1,0,0:0:0:0:
460,192,194551,1,0,0:0:0:0:
