osu file format v14

[General]
AudioFilename: audio.mp3
AudioLeadIn: 0
PreviewTime: -1
Countdown: 1
SampleSet: Normal
StackLeniency: 0.7
Mode: 3
LetterboxInBreaks: 0
SpecialStyle: 0
WidescreenStoryboard: 1

[Editor]
DistanceSpacing: 0.8
BeatDivisor: 8
GridSize: 32
TimelineZoom: 1

[Metadata]
Title:Hello
TitleUnicode:Hello
Artist:OMFG
ArtistUnicode:OMFG
Creator:TheRealPizza
Version:Advanced
Source:
Tags:
BeatmapID:1275859
BeatmapSetID:603417

[Difficulty]
HPDrainRate:6
CircleSize:4
OverallDifficulty:6
ApproachRate:5
SliderMultiplier:1.40000000596046
SliderTickRate:1

[Events]
//Background and Video events
0,0,"maxresdefault (1).jpg",0,0
//Break Periods
//Storyboard Layer 0 (Background)
//Storyboard Layer 1 (Fail)
//Storyboard Layer 2 (Pass)
//Storyboard Layer 3 (Foreground)
//Storyboard Sound Samples

[TimingPoints]
72,571.428571428571,4,1,0,100,1,0

[HitObjects]
64,192,0,5,0,0:0:0:0:
448,192,0,128,0,2357:0:0:0:0:
192,192,643,1,0,0:0:0:0:
320,192,1214,1,0,0:0:0:0:
64,192,1500,1,0,0:0:0:0:
192,192,1643,1,0,0:0:0:0:
320,192,2071,1,0,0:0:0:0:
64,192,2071,1,0,0:0:0:0:
192,192,2357,1,0,0:0:0:0:
320,192,2643,1,0,0:0:0:0:
192,192,2929,1,0,0:0:0:0:
320,192,3071,1,0,0:0:0:0:
448,192,3214,1,0,0:0:0:0:
192,192,3357,1,0,0:0:0:0:
320,192,3500,1,0,0:0:0:0:
448,192,3500,1,0,0:0:0:0:
192,192,3786,1,0,0:0:0:0:
320,192,3786,1,0,0:0:0:0:
64,192,4071,1,0,0:0:0:0:
192,192,4214,1,0,0:0:0:0:
320,192,4357,1,0,0:0:0:0:
448,192,4500,1,0,0:0:0:0:
320,192,4643,1,0,0:0:0:0:
192,192,4643,1,0,0:0:0:0:
64,192,4929,1,0,0:0:0:0:
448,192,5214,1,0,0:0:0:0:
320,192,5214,1,0,0:0:0:0:
192,192,5357,1,0,0:0:0:0:
64,192,5500,1,0,0:0:0:0:
192,192,5786,1,0,0:0:0:0:
64,192,6071,1,0,0:0:0:0:
320,192,6071,1,0,0:0:0:0:
192,192,6214,1,0,0:0:0:0:
320,192,6357,128,0,6643:0:0:0:0:
448,192,6643,1,0,0:0:0:0:
320,192,6929,1,0,0:0:0:0:
192,192,7214,1,0,0:0:0:0:
448,192,7214,1,0,0:0:0:0:
64,192,7500,1,0,0:0:0:0:
320,192,7643,1,0,0:0:0:0:
192,192,7786,1,0,0:0:0:0:
448,192,7929,1,0,0:0:0:0:
192,192,8071,1,0,0:0:0:0:
320,192,8071,1,0,0:0:0:0:
320,192,8357,1,0,0:0:0:0:
64,192,8643,1,0,0:0:0:0:
192,192,8786,1,0,0:0:0:0:
320,192,8929,1,0,0:0:0:0:
192,192,9071,1,0,0:0:0:0:
448,192,9214,1,0,0:0:0:0:
320,192,9214,1,0,0:0:0:0:
192,192,9500,1,0,0:0:0:0:
64,192,9786,1,0,0:0:0:0:
320,192,9786,1,0,0:0:0:0:
192,192,9929,1,0,0:0:0:0:
320,192,10071,128,0,10357:0:0:0:0:
192,192,10357,1,0,0:0:0:0:
64,192,10643,1,0,0:0:0:0:
192,192,10786,1,0,0:0:0:0:
320,192,10929,1,0,0:0:0:0:
448,192,10929,1,0,0:0:0:0:
192,192,11214,1,0,0:0:0:0:
320,192,11500,1,0,0:0:0:0:
64,192,11500,1,0,0:0:0:0:
192,192,11786,1,0,0:0:0:0:
64,192,12071,1,0,0:0:0:0:
192,192,12214,1,0,0:0:0:0:
320,192,12357,1,0,0:0:0:0:
448,192,12500,1,0,0:0:0:0:
320,192,12643,1,0,0:0:0:0:
192,192,12643,1,0,0:0:0:0:
448,192,12929,1,0,0:0:0:0:
64,192,12929,1,0,0:0:0:0:
192,192,13214,1,0,0:0:0:0:
320,192,13357,1,0,0:0:0:0:
192,192,13500,1,0,0:0:0:0:
64,192,13643,1,0,0:0:0:0:
192,192,13786,1,0,0:0:0:0:
448,192,14071,1,0,0:0:0:0:
320,192,14357,1,0,0:0:0:0:
192,192,14500,1,0,0:0:0:0:
64,192,14643,1,0,0:0:0:0:
448,192,14643,1,0,0:0:0:0:
320,192,14929,1,0,0:0:0:0:
192,192,15214,1,0,0:0:0:0:
448,192,15357,1,0,0:0:0:0:
320,192,15500,128,0,15786:0:0:0:0:
192,192,15786,1,0,0:0:0:0:
64,192,16071,1,0,0:0:0:0:
320,192,16071,1,0,0:0:0:0:
192,192,16357,1,0,0:0:0:0:
64,192,16643,1,0,0:0:0:0:
192,192,16786,1,0,0:0:0:0:
320,192,16929,1,0,0:0:0:0:
448,192,17071,1,0,0:0:0:0:
320,192,17214,1,0,0:0:0:0:
64,192,17214,1,0,0:0:0:0:
192,192,17500,1,0,0:0:0:0:
448,192,17786,1,0,0:0:0:0:
64,192,17786,1,0,0:0:0:0:
320,192,17929,1,0,0:0:0:0:
192,192,18071,1,0,0:0:0:0:
64,192,18214,1,0,0:0:0:0:
192,192,18357,1,0,0:0:0:0:
448,192,18357,1,0,0:0:0:0:
320,192,18643,1,0,0:0:0:0:
192,192,18929,1,0,0:0:0:0:
64,192,18929,1,0,0:0:0:0:
320,192,19071,1,0,0:0:0:0:
448,192,19214,1,0,0:0:0:0:
64,192,19500,1,0,0:0:0:0:
320,192,19500,1,0,0:0:0:0:
192,192,19786,1,0,0:0:0:0:
320,192,19929,1,0,0:0:0:0:
448,192,20071,1,0,0:0:0:0:
64,192,20357,1,0,0:0:0:0:
320,192,20357,1,0,0:0:0:0:
448,192,20643,1,0,0:0:0:0:
192,192,20643,1,0,0:0:0:0:
192,192,20929,1,0,0:0:0:0:
320,192,21214,1,0,0:0:0:0:
64,192,21357,1,0,0:0:0:0:
192,192,21500,1,0,0:0:0:0:
320,192,21643,1,0,0:0:0:0:
448,192,21786,1,0,0:0:0:0:
192,192,21786,1,0,0:0:0:0:
64,192,22071,1,0,0:0:0:0:
192,192,22357,1,0,0:0:0:0:
320,192,22357,1,0,0:0:0:0:
448,192,22500,1,0,0:0:0:0:
320,192,22643,1,0,0:0:0:0:
192,192,22786,1,0,0:0:0:0:
64,192,22929,1,0,0:0:0:0:
192,192,23214,1,0,0:0:0:0:
448,192,23500,1,0,0:0:0:0:
64,192,23500,1,0,0:0:0:0:
192,192,23643,1,0,0:0:0:0:
320,192,23786,1,0,0:0:0:0:
448,192,23929,1,0,0:0:0:0:
64,192,24071,1,0,0:0:0:0:
320,192,24071,1,0,0:0:0:0:
320,192,24357,1,0,0:0:0:0:
192,192,24500,1,0,0:0:0:0:
320,192,24643,1,0,0:0:0:0:
192,192,24929,1,0,0:0:0:0:
64,192,24929,1,0,0:0:0:0:
320,192,25214,1,0,0:0:0:0:
448,192,25214,1,0,0:0:0:0:
192,192,25500,1,0,0:0:0:0:
320,192,25786,1,0,0:0:0:0:
192,192,25786,1,0,0:0:0:0:
448,192,25929,1,0,0:0:0:0:
320,192,26071,1,0,0:0:0:0:
192,192,26214,1,0,0:0:0:0:
320,192,26357,1,0,0:0:0:0:
192,192,26643,1,0,0:0:0:0:
64,192,26929,1,0,0:0:0:0:
448,192,26929,1,0,0:0:0:0:
320,192,27071,1,0,0:0:0:0:
192,192,27214,1,0,0:0:0:0:
64,192,27357,1,0,0:0:0:0:
192,192,27500,1,0,0:0:0:0:
320,192,27500,1,0,0:0:0:0:
448,192,27786,1,0,0:0:0:0:
320,192,28071,1,0,0:0:0:0:
192,192,28071,1,0,0:0:0:0:
64,192,28214,1,0,0:0:0:0:
192,192,28357,1,0,0:0:0:0:
448,192,28357,1,0,0:0:0:0:
320,192,28643,1,0,0:0:0:0:
192,192,28929,1,0,0:0:0:0:
64,192,28929,1,0,0:0:0:0:
320,192,29071,1,0,0:0:0:0:
448,192,29214,1,0,0:0:0:0:
192,192,29214,1,0,0:0:0:0:
320,192,29500,1,0,0:0:0:0:
64,192,29786,1,0,0:0:0:0:
448,192,29786,1,0,0:0:0:0:
320,192,30071,1,0,0:0:0:0:
192,192,30357,1,0,0:0:0:0:
64,192,30357,1,0,0:0:0:0:
320,192,30500,1,0,0:0:0:0:
448,192,30643,1,0,0:0:0:0:
192,192,30643,1,0,0:0:0:0:
320,192,30929,1,0,0:0:0:0:
192,192,31214,1,0,0:0:0:0:
64,192,31500,1,0,0:0:0:0:
320,192,31500,1,0,0:0:0:0:
192,192,31643,1,0,0:0:0:0:
320,192,31786,1,0,0:0:0:0:
448,192,31929,1,0,0:0:0:0:
320,192,32071,1,0,0:0:0:0:
448,192,32357,1,0,0:0:0:0:
192,192,32643,1,0,0:0:0:0:
64,192,32643,1,0,0:0:0:0:
320,192,32786,1,0,0:0:0:0:
448,192,32929,1,0,0:0:0:0:
192,192,33214,1,0,0:0:0:0:
320,192,33500,1,0,0:0:0:0:
192,192,33643,1,0,0:0:0:0:
64,192,33786,1,0,0:0:0:0:
320,192,33786,1,0,0:0:0:0:
192,192,34071,1,0,0:0:0:0:
64,192,34357,1,0,0:0:0:0:
448,192,34357,1,0,0:0:0:0:
192,192,34643,1,0,0:0:0:0:
64,192,34929,1,0,0:0:0:0:
320,192,34929,1,0,0:0:0:0:
192,192,35071,1,0,0:0:0:0:
320,192,35214,1,0,0:0:0:0:
448,192,35357,1,0,0:0:0:0:
320,192,35500,1,0,0:0:0:0:
192,192,35786,1,0,0:0:0:0:
448,192,36071,1,0,0:0:0:0:
64,192,36071,1,0,0:0:0:0:
320,192,36214,1,0,0:0:0:0:
192,192,36357,1,0,0:0:0:0:
64,192,36500,1,0,0:0:0:0:
448,192,36643,1,0,0:0:0:0:
192,192,36929,1,0,0:0:0:0:
64,192,37214,1,0,0:0:0:0:
320,192,37214,1,0,0:0:0:0:
192,192,37357,1,0,0:0:0:0:
320,192,37500,1,0,0:0:0:0:
448,192,37786,1,0,0:0:0:0:
320,192,38071,1,0,0:0:0:0:
64,192,38071,1,0,0:0:0:0:
192,192,38214,1,0,0:0:0:0:
320,192,38357,1,0,0:0:0:0:
448,192,38643,1,0,0:0:0:0:
192,192,38929,1,0,0:0:0:0:
64,192,38929,1,0,0:0:0:0:
320,192,39214,1,0,0:0:0:0:
64,192,39500,1,0,0:0:0:0:
192,192,39786,1,0,0:0:0:0:
448,192,40071,1,0,0:0:0:0:
320,192,40357,1,0,0:0:0:0:
64,192,40643,1,0,0:0:0:0:
192,192,40929,1,0,0:0:0:0:
448,192,41214,1,0,0:0:0:0:
64,192,41214,1,0,0:0:0:0:
320,192,41500,1,0,0:0:0:0:
192,192,41786,1,0,0:0:0:0:
320,192,42071,1,0,0:0:0:0:
448,192,42357,1,0,0:0:0:0:
192,192,42643,1,0,0:0:0:0:
64,192,42929,1,0,0:0:0:0:
320,192,43214,1,0,0:0:0:0:
192,192,43500,1,0,0:0:0:0:
448,192,43500,1,0,0:0:0:0:
320,192,43786,1,0,0:0:0:0:
192,192,44071,1,0,0:0:0:0:
448,192,44357,1,0,0:0:0:0:
320,192,44643,1,0,0:0:0:0:
64,192,44929,1,0,0:0:0:0:
192,192,45214,1,0,0:0:0:0:
320,192,45500,1,0,0:0:0:0:
192,192,45786,1,0,0:0:0:0:
64,192,45786,1,0,0:0:0:0:
448,192,46071,1,0,0:0:0:0:
320,192,46357,1,0,0:0:0:0:
64,192,46643,1,0,0:0:0:0:
192,192,46929,1,0,0:0:0:0:
320,192,47214,1,0,0:0:0:0:
192,192,47500,1,0,0:0:0:0:
320,192,47786,1,0,0:0:0:0:
192,192,48071,1,0,0:0:0:0:
448,192,48071,1,0,0:0:0:0:
320,192,48357,1,0,0:0:0:0:
448,192,48643,1,0,0:0:0:0:
192,192,48929,1,0,0:0:0:0:
64,192,49214,1,0,0:0:0:0:
320,192,49214,1,0,0:0:0:0:
448,192,49500,1,0,0:0:0:0:
320,192,49786,1,0,0:0:0:0:
448,192,50071,1,0,0:0:0:0:
192,192,50357,1,0,0:0:0:0:
64,192,50357,1,0,0:0:0:0:
320,192,50643,1,0,0:0:0:0:
192,192,50929,1,0,0:0:0:0:
448,192,51214,1,0,0:0:0:0:
64,192,51500,1,0,0:0:0:0:
320,192,51500,1,0,0:0:0:0:
192,192,51786,1,0,0:0:0:0:
448,192,52071,1,0,0:0:0:0:
192,192,52357,1,0,0:0:0:0:
448,192,52643,1,0,0:0:0:0:
64,192,52643,1,0,0:0:0:0:
192,192,52929,1,0,0:0:0:0:
320,192,53214,1,0,0:0:0:0:
448,192,53214,1,0,0:0:0:0:
192,192,53500,1,0,0:0:0:0:
320,192,53786,1,0,0:0:0:0:
64,192,53786,1,0,0:0:0:0:
448,192,54071,1,0,0:0:0:0:
320,192,54357,1,0,0:0:0:0:
192,192,54357,1,0,0:0:0:0:
64,192,54643,1,0,0:0:0:0:
64,192,54929,1,0,0:0:0:0:
320,192,54929,1,0,0:0:0:0:
448,192,55214,1,0,0:0:0:0:
320,192,55214,1,0,0:0:0:0:
320,192,55500,1,0,0:0:0:0:
192,192,55500,1,0,0:0:0:0:
64,192,55786,1,0,0:0:0:0:
192,192,55786,128,0,56929:0:0:0:0:
320,192,56929,1,0,0:0:0:0:
448,192,57214,1,0,0:0:0:0:
64,192,57214,1,0,0:0:0:0:
320,192,57500,1,0,0:0:0:0:
192,192,57500,1,0,0:0:0:0:
448,192,57786,1,0,0:0:0:0:
192,192,57786,1,0,0:0:0:0:
320,192,57929,1,0,0:0:0:0:
192,192,58071,1,0,0:0:0:0:
64,192,58214,1,0,0:0:0:0:
448,192,58357,1,0,0:0:0:0:
320,192,58643,1,0,0:0:0:0:
192,192,58643,1,0,0:0:0:0:
448,192,58929,1,0,0:0:0:0:
192,192,58929,1,0,0:0:0:0:
320,192,59071,1,0,0:0:0:0:
192,192,59214,1,0,0:0:0:0:
320,192,59357,1,0,0:0:0:0:
448,192,59500,128,0,60071:0:0:0:0:
64,192,59500,1,0,0:0:0:0:
320,192,59786,1,0,0:0:0:0:
192,192,60071,1,0,0:0:0:0:
320,192,60214,1,0,0:0:0:0:
64,192,60357,1,0,0:0:0:0:
192,192,60643,1,0,0:0:0:0:
320,192,60929,1,0,0:0:0:0:
448,192,61071,1,0,0:0:0:0:
320,192,61214,1,0,0:0:0:0:
64,192,61214,1,0,0:0:0:0:
192,192,61357,1,0,0:0:0:0:
64,192,61500,1,0,0:0:0:0:
192,192,61786,1,0,0:0:0:0:
320,192,61786,1,0,0:0:0:0:
448,192,62071,1,0,0:0:0:0:
320,192,62357,1,0,0:0:0:0:
64,192,62357,1,0,0:0:0:0:
192,192,62500,1,0,0:0:0:0:
320,192,62643,1,0,0:0:0:0:
448,192,62786,1,0,0:0:0:0:
320,192,62929,128,0,63500:0:0:0:0:
192,192,63214,128,0,63500:0:0:0:0:
448,192,63500,1,0,0:0:0:0:
64,192,63643,1,0,0:0:0:0:
192,192,63786,1,0,0:0:0:0:
320,192,63929,1,0,0:0:0:0:
448,192,64071,128,0,64643:0:0:0:0:
192,192,64357,1,0,0:0:0:0:
320,192,64643,1,0,0:0:0:0:
192,192,64786,1,0,0:0:0:0:
64,192,64929,1,0,0:0:0:0:
192,192,65214,1,0,0:0:0:0:
320,192,65214,1,0,0:0:0:0:
448,192,65500,128,0,65786:0:0:0:0:
320,192,65786,128,0,66071:0:0:0:0:
64,192,65786,1,0,0:0:0:0:
192,192,66071,128,0,66357:0:0:0:0:
64,192,66357,1,0,0:0:0:0:
448,192,66357,1,0,0:0:0:0:
320,192,66643,1,0,0:0:0:0:
192,192,66929,1,0,0:0:0:0:
64,192,66929,1,0,0:0:0:0:
320,192,67071,1,0,0:0:0:0:
448,192,67214,1,0,0:0:0:0:
320,192,67357,1,0,0:0:0:0:
192,192,67500,1,0,0:0:0:0:
64,192,67786,1,0,0:0:0:0:
192,192,68071,1,0,0:0:0:0:
320,192,68071,1,0,0:0:0:0:
64,192,68214,1,0,0:0:0:0:
448,192,68357,1,0,0:0:0:0:
192,192,68500,1,0,0:0:0:0:
320,192,68643,128,0,69214:0:0:0:0:
448,192,68929,1,0,0:0:0:0:
64,192,69214,1,0,0:0:0:0:
192,192,69500,1,0,0:0:0:0:
448,192,69786,1,0,0:0:0:0:
448,192,70071,1,0,0:0:0:0:
320,192,70214,1,0,0:0:0:0:
192,192,70357,128,0,70929:0:0:0:0:
448,192,70357,1,0,0:0:0:0:
320,192,70643,128,0,70929:0:0:0:0:
64,192,70929,1,0,0:0:0:0:
448,192,70929,1,0,0:0:0:0:
192,192,71214,1,0,0:0:0:0:
320,192,71214,1,0,0:0:0:0:
448,192,71500,1,0,0:0:0:0:
64,192,71500,1,0,0:0:0:0:
192,192,71643,1,0,0:0:0:0:
320,192,71786,1,0,0:0:0:0:
448,192,71929,1,0,0:0:0:0:
320,192,72071,128,0,72643:0:0:0:0:
448,192,72357,1,0,0:0:0:0:
192,192,72643,1,0,0:0:0:0:
64,192,72786,1,0,0:0:0:0:
192,192,72929,1,0,0:0:0:0:
320,192,73071,1,0,0:0:0:0:
448,192,73214,128,0,73786:0:0:0:0:
320,192,73786,1,0,0:0:0:0:
192,192,73929,1,0,0:0:0:0:
64,192,74071,1,0,0:0:0:0:
320,192,74214,1,0,0:0:0:0:
448,192,74357,1,0,0:0:0:0:
192,192,74357,128,0,74643:0:0:0:0:
320,192,74643,1,0,0:0:0:0:
64,192,74643,128,0,74929:0:0:0:0:
192,192,74929,1,0,0:0:0:0:
448,192,74929,128,0,75214:0:0:0:0:
320,192,75214,1,0,0:0:0:0:
192,192,75214,128,0,75500:0:0:0:0:
64,192,75500,1,0,0:0:0:0:
448,192,75786,1,0,0:0:0:0:
320,192,75786,1,0,0:0:0:0:
192,192,76071,1,0,0:0:0:0:
448,192,76071,1,0,0:0:0:0:
64,192,76214,1,0,0:0:0:0:
192,192,76357,1,0,0:0:0:0:
320,192,76500,1,0,0:0:0:0:
448,192,76643,1,0,0:0:0:0:
320,192,76929,1,0,0:0:0:0:
192,192,77214,1,0,0:0:0:0:
320,192,77214,1,0,0:0:0:0:
64,192,77357,1,0,0:0:0:0:
192,192,77500,1,0,0:0:0:0:
320,192,77643,1,0,0:0:0:0:
448,192,77786,128,0,78357:0:0:0:0:
320,192,78357,1,0,0:0:0:0:
192,192,78357,1,0,0:0:0:0:
64,192,78500,1,0,0:0:0:0:
192,192,78643,1,0,0:0:0:0:
448,192,78929,128,0,79214:0:0:0:0:
320,192,79214,128,0,79500:0:0:0:0:
192,192,79500,128,0,79786:0:0:0:0:
448,192,79500,1,0,0:0:0:0:
64,192,79786,128,0,80071:0:0:0:0:
320,192,80071,1,0,0:0:0:0:
192,192,80357,1,0,0:0:0:0:
448,192,80643,1,0,0:0:0:0:
320,192,80643,1,0,0:0:0:0:
192,192,80786,1,0,0:0:0:0:
64,192,80929,1,0,0:0:0:0:
192,192,81071,1,0,0:0:0:0:
320,192,81214,1,0,0:0:0:0:
448,192,81357,1,0,0:0:0:0:
320,192,81500,1,0,0:0:0:0:
192,192,81643,1,0,0:0:0:0:
64,192,81786,1,0,0:0:0:0:
448,192,81786,1,0,0:0:0:0:
320,192,81929,1,0,0:0:0:0:
192,192,82071,1,0,0:0:0:0:
64,192,82214,1,0,0:0:0:0:
192,192,82357,128,0,82929:0:0:0:0:
320,192,82929,1,0,0:0:0:0:
448,192,83071,1,0,0:0:0:0:
320,192,83214,1,0,0:0:0:0:
192,192,83357,1,0,0:0:0:0:
64,192,83500,1,0,0:0:0:0:
192,192,83786,1,0,0:0:0:0:
320,192,84071,1,0,0:0:0:0:
64,192,84071,1,0,0:0:0:0:
448,192,84214,1,0,0:0:0:0:
320,192,84357,1,0,0:0:0:0:
192,192,84500,1,0,0:0:0:0:
64,192,84643,1,0,0:0:0:0:
448,192,84643,1,0,0:0:0:0:
320,192,84929,1,0,0:0:0:0:
192,192,85214,1,0,0:0:0:0:
64,192,85357,1,0,0:0:0:0:
192,192,85500,1,0,0:0:0:0:
320,192,85643,1,0,0:0:0:0:
448,192,85786,1,0,0:0:0:0:
320,192,86071,1,0,0:0:0:0:
192,192,86357,1,0,0:0:0:0:
64,192,86500,1,0,0:0:0:0:
192,192,86643,1,0,0:0:0:0:
320,192,86786,1,0,0:0:0:0:
448,192,86929,128,0,87500:0:0:0:0:
64,192,87500,1,0,0:0:0:0:
192,192,87643,1,0,0:0:0:0:
320,192,87786,1,0,0:0:0:0:
448,192,88071,1,0,0:0:0:0:
192,192,88357,1,0,0:0:0:0:
320,192,88643,1,0,0:0:0:0:
64,192,88643,1,0,0:0:0:0:
64,192,88929,1,0,0:0:0:0:
192,192,89214,1,0,0:0:0:0:
320,192,89214,1,0,0:0:0:0:
64,192,89500,1,0,0:0:0:0:
448,192,89500,1,0,0:0:0:0:
192,192,89786,1,0,0:0:0:0:
320,192,89786,1,0,0:0:0:0:
448,192,89929,1,0,0:0:0:0:
320,192,90071,1,0,0:0:0:0:
192,192,90214,1,0,0:0:0:0:
64,192,90357,1,0,0:0:0:0:
192,192,90643,1,0,0:0:0:0:
320,192,90929,1,0,0:0:0:0:
64,192,90929,1,0,0:0:0:0:
448,192,91071,1,0,0:0:0:0:
320,192,91214,1,0,0:0:0:0:
192,192,91357,1,0,0:0:0:0:
320,192,91500,128,0,92071:0:0:0:0:
192,192,92071,1,0,0:0:0:0:
64,192,92214,1,0,0:0:0:0:
192,192,92357,1,0,0:0:0:0:
320,192,92643,1,0,0:0:0:0:
64,192,92929,1,0,0:0:0:0:
448,192,93143,1,0,0:0:0:0:
64,192,93357,1,0,0:0:0:0:
320,192,93500,1,0,0:0:0:0:
64,192,93786,128,0,94357:0:0:0:0:
448,192,93786,1,0,0:0:0:0:
192,192,94071,1,0,0:0:0:0:
448,192,94357,128,0,94929:0:0:0:0:
320,192,94357,1,0,0:0:0:0:
64,192,94643,1,0,0:0:0:0:
192,192,94929,128,0,95500:0:0:0:0:
320,192,94929,1,0,0:0:0:0:
320,192,95214,1,0,0:0:0:0:
448,192,95500,128,0,96071:0:0:0:0:
64,192,95500,1,0,0:0:0:0:
320,192,95786,1,0,0:0:0:0:
64,192,96071,128,0,96643:0:0:0:0:
192,192,96643,1,0,0:0:0:0:
320,192,96786,1,0,0:0:0:0:
448,192,96929,1,0,0:0:0:0:
64,192,97214,1,0,0:0:0:0:
448,192,97500,1,0,0:0:0:0:
192,192,97786,1,0,0:0:0:0:
320,192,98071,1,0,0:0:0:0:
192,192,98357,128,0,98929:0:0:0:0:
64,192,98357,1,0,0:0:0:0:
320,192,98643,1,0,0:0:0:0:
448,192,98929,128,0,99500:0:0:0:0:
64,192,98929,1,0,0:0:0:0:
320,192,99214,1,0,0:0:0:0:
64,192,99500,128,0,100071:0:0:0:0:
192,192,99500,1,0,0:0:0:0:
448,192,99786,1,0,0:0:0:0:
320,192,100071,128,0,100643:0:0:0:0:
448,192,100071,1,0,0:0:0:0:
192,192,100357,1,0,0:0:0:0:
448,192,100643,128,0,101214:0:0:0:0:
64,192,101214,1,0,0:0:0:0:
192,192,101357,1,0,0:0:0:0:
320,192,101500,1,0,0:0:0:0:
448,192,101786,1,0,0:0:0:0:
192,192,102071,1,0,0:0:0:0:
320,192,102357,1,0,0:0:0:0:
64,192,102643,1,0,0:0:0:0:
448,192,102929,128,0,103500:0:0:0:0:
192,192,102929,1,0,0:0:0:0:
320,192,103214,1,0,0:0:0:0:
320,192,103500,128,0,104071:0:0:0:0:
64,192,103500,1,0,0:0:0:0:
192,192,103786,1,0,0:0:0:0:
192,192,104071,128,0,104643:0:0:0:0:
448,192,104071,1,0,0:0:0:0:
64,192,104357,1,0,0:0:0:0:
64,192,104643,128,0,105214:0:0:0:0:
448,192,104643,1,0,0:0:0:0:
320,192,104929,1,0,0:0:0:0:
192,192,105214,1,0,0:0:0:0:
320,192,105500,1,0,0:0:0:0:
192,192,105786,1,0,0:0:0:0:
64,192,105929,1,0,0:0:0:0:
448,192,106071,1,0,0:0:0:0:
320,192,106357,1,0,0:0:0:0:
64,192,106643,1,0,0:0:0:0:
192,192,106929,1,0,0:0:0:0:
448,192,107214,1,0,0:0:0:0:
64,192,107500,128,0,108071:0:0:0:0:
320,192,107500,1,0,0:0:0:0:
448,192,107786,1,0,0:0:0:0:
320,192,108071,128,0,108643:0:0:0:0:
192,192,108071,1,0,0:0:0:0:
448,192,108357,1,0,0:0:0:0:
192,192,108643,128,0,109214:0:0:0:0:
64,192,108643,1,0,0:0:0:0:
320,192,108929,1,0,0:0:0:0:
448,192,109214,128,0,109786:0:0:0:0:
64,192,109214,1,0,0:0:0:0:
320,192,109500,1,0,0:0:0:0:
192,192,109786,1,0,0:0:0:0:
64,192,110071,1,0,0:0:0:0:
448,192,110357,1,0,0:0:0:0:
320,192,110500,1,0,0:0:0:0:
192,192,110643,1,0,0:0:0:0:
64,192,110786,1,0,0:0:0:0:
192,192,110929,1,0,0:0:0:0:
448,192,111214,1,0,0:0:0:0:
320,192,111500,1,0,0:0:0:0:
192,192,111786,1,0,0:0:0:0:
64,192,112071,128,0,112643:0:0:0:0:
448,192,112071,1,0,0:0:0:0:
192,192,112357,1,0,0:0:0:0:
448,192,112643,128,0,113214:0:0:0:0:
320,192,112643,1,0,0:0:0:0:
64,192,112929,1,0,0:0:0:0:
192,192,113214,128,0,113786:0:0:0:0:
320,192,113214,1,0,0:0:0:0:
320,192,113500,1,0,0:0:0:0:
448,192,113786,128,0,114357:0:0:0:0:
64,192,113786,1,0,0:0:0:0:
320,192,114071,1,0,0:0:0:0:
64,192,114357,128,0,114929:0:0:0:0:
192,192,114929,1,0,0:0:0:0:
320,192,115071,1,0,0:0:0:0:
448,192,115214,1,0,0:0:0:0:
64,192,115500,1,0,0:0:0:0:
448,192,115786,1,0,0:0:0:0:
192,192,116071,1,0,0:0:0:0:
320,192,116357,1,0,0:0:0:0:
192,192,116643,128,0,117214:0:0:0:0:
64,192,116643,1,0,0:0:0:0:
320,192,116929,1,0,0:0:0:0:
448,192,117214,128,0,117786:0:0:0:0:
64,192,117214,1,0,0:0:0:0:
320,192,117500,1,0,0:0:0:0:
64,192,117786,128,0,118357:0:0:0:0:
192,192,117786,1,0,0:0:0:0:
448,192,118071,1,0,0:0:0:0:
320,192,118357,128,0,118929:0:0:0:0:
448,192,118357,1,0,0:0:0:0:
192,192,118643,1,0,0:0:0:0:
448,192,118929,128,0,119500:0:0:0:0:
64,192,119500,1,0,0:0:0:0:
192,192,119643,1,0,0:0:0:0:
320,192,119786,1,0,0:0:0:0:
448,192,120071,1,0,0:0:0:0:
192,192,120357,1,0,0:0:0:0:
320,192,120643,1,0,0:0:0:0:
64,192,120929,1,0,0:0:0:0:
448,192,121214,128,0,121786:0:0:0:0:
192,192,121214,1,0,0:0:0:0:
320,192,121500,1,0,0:0:0:0:
320,192,121786,128,0,122357:0:0:0:0:
64,192,121786,1,0,0:0:0:0:
192,192,122071,1,0,0:0:0:0:
192,192,122357,128,0,122929:0:0:0:0:
448,192,122357,1,0,0:0:0:0:
64,192,122643,1,0,0:0:0:0:
64,192,122929,128,0,123500:0:0:0:0:
448,192,122929,1,0,0:0:0:0:
320,192,123214,1,0,0:0:0:0:
192,192,123500,1,0,0:0:0:0:
320,192,123786,1,0,0:0:0:0:
192,192,124071,1,0,0:0:0:0:
64,192,124214,1,0,0:0:0:0:
448,192,124357,1,0,0:0:0:0:
320,192,124643,1,0,0:0:0:0:
64,192,124929,1,0,0:0:0:0:
192,192,125214,1,0,0:0:0:0:
448,192,125500,1,0,0:0:0:0:
64,192,125786,128,0,126357:0:0:0:0:
320,192,125786,1,0,0:0:0:0:
448,192,126071,1,0,0:0:0:0:
320,192,126357,128,0,126929:0:0:0:0:
192,192,126357,1,0,0:0:0:0:
448,192,126643,1,0,0:0:0:0:
192,192,126929,128,0,127500:0:0:0:0:
64,192,126929,1,0,0:0:0:0:
320,192,127214,1,0,0:0:0:0:
448,192,127500,128,0,128071:0:0:0:0:
64,192,127500,1,0,0:0:0:0:
320,192,127786,1,0,0:0:0:0:
192,192,128071,1,0,0:0:0:0:
64,192,128357,1,0,0:0:0:0:
320,192,128643,1,0,0:0:0:0:
448,192,128929,1,0,0:0:0:0:
192,192,129214,1,0,0:0:0:0:
64,192,129500,1,0,0:0:0:0:
192,192,129643,1,0,0:0:0:0:
448,192,130071,128,0,130357:0:0:0:0:
64,192,130071,128,0,130357:0:0:0:0:
320,192,130357,1,0,0:0:0:0:
192,192,130357,1,0,0:0:0:0:
192,192,130643,1,0,0:0:0:0:
320,192,130929,1,0,0:0:0:0:
192,192,131071,1,0,0:0:0:0:
64,192,131214,1,0,0:0:0:0:
320,192,131357,1,0,0:0:0:0:
192,192,131500,1,0,0:0:0:0:
64,192,131500,1,0,0:0:0:0:
320,192,131786,1,0,0:0:0:0:
192,192,131786,1,0,0:0:0:0:
448,192,132071,1,0,0:0:0:0:
320,192,132214,1,0,0:0:0:0:
192,192,132357,1,0,0:0:0:0:
64,192,132500,1,0,0:0:0:0:
192,192,132643,1,0,0:0:0:0:
320,192,132643,1,0,0:0:0:0:
448,192,132929,1,0,0:0:0:0:
64,192,133214,1,0,0:0:0:0:
192,192,133214,1,0,0:0:0:0:
320,192,133357,1,0,0:0:0:0:
448,192,133500,1,0,0:0:0:0:
320,192,133786,1,0,0:0:0:0:
448,192,134071,1,0,0:0:0:0:
192,192,134071,1,0,0:0:0:0:
320,192,134214,1,0,0:0:0:0:
192,192,134357,128,0,134643:0:0:0:0:
64,192,134643,1,0,0:0:0:0:
192,192,134929,1,0,0:0:0:0:
320,192,135214,1,0,0:0:0:0:
64,192,135214,1,0,0:0:0:0:
448,192,135500,1,0,0:0:0:0:
192,192,135643,1,0,0:0:0:0:
320,192,135786,1,0,0:0:0:0:
64,192,135929,1,0,0:0:0:0:
320,192,136071,1,0,0:0:0:0:
192,192,136071,1,0,0:0:0:0:
192,192,136357,1,0,0:0:0:0:
448,192,136643,1,0,0:0:0:0:
320,192,136786,1,0,0:0:0:0:
192,192,136929,1,0,0:0:0:0:
320,192,137071,1,0,0:0:0:0:
64,192,137214,1,0,0:0:0:0:
192,192,137214,1,0,0:0:0:0:
320,192,137500,1,0,0:0:0:0:
448,192,137786,1,0,0:0:0:0:
192,192,137786,1,0,0:0:0:0:
320,192,137929,1,0,0:0:0:0:
192,192,138071,128,0,138357:0:0:0:0:
320,192,138357,1,0,0:0:0:0:
448,192,138643,1,0,0:0:0:0:
320,192,138786,1,0,0:0:0:0:
192,192,138929,1,0,0:0:0:0:
64,192,138929,1,0,0:0:0:0:
320,192,139214,1,0,0:0:0:0:
192,192,139500,1,0,0:0:0:0:
448,192,139500,1,0,0:0:0:0:
320,192,139786,1,0,0:0:0:0:
448,192,140071,1,0,0:0:0:0:
320,192,140214,1,0,0:0:0:0:
192,192,140357,1,0,0:0:0:0:
64,192,140500,1,0,0:0:0:0:
192,192,140643,1,0,0:0:0:0:
320,192,140643,1,0,0:0:0:0:
64,192,140929,1,0,0:0:0:0:
448,192,140929,1,0,0:0:0:0:
320,192,141214,1,0,0:0:0:0:
192,192,141357,1,0,0:0:0:0:
320,192,141500,1,0,0:0:0:0:
448,192,141643,1,0,0:0:0:0:
320,192,141786,1,0,0:0:0:0:
64,192,142071,1,0,0:0:0:0:
192,192,142357,1,0,0:0:0:0:
320,192,142500,1,0,0:0:0:0:
448,192,142643,1,0,0:0:0:0:
64,192,142643,1,0,0:0:0:0:
192,192,142929,1,0,0:0:0:0:
320,192,143214,1,0,0:0:0:0:
64,192,143357,1,0,0:0:0:0:
192,192,143500,128,0,143786:0:0:0:0:
320,192,143786,1,0,0:0:0:0:
448,192,144071,1,0,0:0:0:0:
192,192,144071,1,0,0:0:0:0:
320,192,144357,1,0,0:0:0:0:
448,192,144643,1,0,0:0:0:0:
320,192,144786,1,0,0:0:0:0:
192,192,144929,1,0,0:0:0:0:
64,192,145071,1,0,0:0:0:0:
192,192,145214,1,0,0:0:0:0:
448,192,145214,1,0,0:0:0:0:
320,192,145500,1,0,0:0:0:0:
64,192,145786,1,0,0:0:0:0:
448,192,145786,1,0,0:0:0:0:
192,192,145929,1,0,0:0:0:0:
320,192,146071,1,0,0:0:0:0:
448,192,146214,1,0,0:0:0:0:
320,192,146357,1,0,0:0:0:0:
64,192,146357,1,0,0:0:0:0:
192,192,146643,1,0,0:0:0:0:
320,192,146929,1,0,0:0:0:0:
448,192,146929,1,0,0:0:0:0:
192,192,147071,1,0,0:0:0:0:
64,192,147214,1,0,0:0:0:0:
448,192,147500,1,0,0:0:0:0:
192,192,147500,1,0,0:0:0:0:
320,192,147786,1,0,0:0:0:0:
192,192,147929,1,0,0:0:0:0:
64,192,148071,1,0,0:0:0:0:
448,192,148357,1,0,0:0:0:0:
192,192,148357,1,0,0:0:0:0:
64,192,148643,1,0,0:0:0:0:
320,192,148643,1,0,0:0:0:0:
192,192,148929,1,0,0:0:0:0:
320,192,149214,1,0,0:0:0:0:
64,192,149357,1,0,0:0:0:0:
192,192,149500,1,0,0:0:0:0:
320,192,149643,1,0,0:0:0:0:
448,192,149786,1,0,0:0:0:0:
192,192,149786,1,0,0:0:0:0:
64,192,150071,1,0,0:0:0:0:
192,192,150357,1,0,0:0:0:0:
320,192,150357,1,0,0:0:0:0:
448,192,150500,1,0,0:0:0:0:
320,192,150643,1,0,0:0:0:0:
192,192,150786,1,0,0:0:0:0:
64,192,150929,1,0,0:0:0:0:
192,192,151214,1,0,0:0:0:0:
448,192,151500,1,0,0:0:0:0:
64,192,151500,1,0,0:0:0:0:
192,192,151643,1,0,0:0:0:0:
320,192,151786,1,0,0:0:0:0:
448,192,151929,1,0,0:0:0:0:
64,192,152071,1,0,0:0:0:0:
320,192,152071,1,0,0:0:0:0:
320,192,152357,1,0,0:0:0:0:
192,192,152500,1,0,0:0:0:0:
320,192,152643,1,0,0:0:0:0:
192,192,152929,1,0,0:0:0:0:
64,192,152929,1,0,0:0:0:0:
320,192,153214,1,0,0:0:0:0:
448,192,153214,1,0,0:0:0:0:
192,192,153500,1,0,0:0:0:0:
320,192,153786,1,0,0:0:0:0:
192,192,153786,1,0,0:0:0:0:
448,192,153929,1,0,0:0:0:0:
320,192,154071,1,0,0:0:0:0:
192,192,154214,1,0,0:0:0:0:
320,192,154357,1,0,0:0:0:0:
192,192,154643,1,0,0:0:0:0:
64,192,154929,1,0,0:0:0:0:
448,192,154929,1,0,0:0:0:0:
320,192,155071,1,0,0:0:0:0:
192,192,155214,1,0,0:0:0:0:
64,192,155357,1,0,0:0:0:0:
192,192,155500,1,0,0:0:0:0:
320,192,155500,1,0,0:0:0:0:
448,192,155786,1,0,0:0:0:0:
320,192,156071,1,0,0:0:0:0:
192,192,156071,1,0,0:0:0:0:
64,192,156214,1,0,0:0:0:0:
192,192,156357,1,0,0:0:0:0:
448,192,156357,1,0,0:0:0:0:
320,192,156643,1,0,0:0:0:0:
192,192,156929,1,0,0:0:0:0:
64,192,156929,1,0,0:0:0:0:
320,192,157071,1,0,0:0:0:0:
448,192,157214,1,0,0:0:0:0:
192,192,157214,1,0,0:0:0:0:
320,192,157500,1,0,0:0:0:0:
64,192,157786,1,0,0:0:0:0:
448,192,157786,1,0,0:0:0:0:
320,192,158071,1,0,0:0:0:0:
192,192,158357,1,0,0:0:0:0:
64,192,158357,1,0,0:0:0:0:
320,192,158500,1,0,0:0:0:0:
448,192,158643,1,0,0:0:0:0:
192,192,158643,1,0,0:0:0:0:
320,192,158929,1,0,0:0:0:0:
192,192,159214,1,0,0:0:0:0:
64,192,159500,1,0,0:0:0:0:
320,192,159500,1,0,0:0:0:0:
192,192,159643,1,0,0:0:0:0:
320,192,159786,1,0,0:0:0:0:
448,192,159929,1,0,0:0:0:0:
320,192,160071,1,0,0:0:0:0:
448,192,160357,1,0,0:0:0:0:
192,192,160643,1,0,0:0:0:0:
64,192,160643,1,0,0:0:0:0:
320,192,160786,1,0,0:0:0:0:
448,192,160929,1,0,0:0:0:0:
192,192,161214,1,0,0:0:0:0:
320,192,161500,1,0,0:0:0:0:
192,192,161643,1,0,0:0:0:0:
64,192,161786,1,0,0:0:0:0:
320,192,161786,1,0,0:0:0:0:
192,192,162071,1,0,0:0:0:0:
64,192,162357,1,0,0:0:0:0:
448,192,162357,1,0,0:0:0:0:
192,192,162643,1,0,0:0:0:0:
64,192,162929,1,0,0:0:0:0:
320,192,162929,1,0,0:0:0:0:
192,192,163071,1,0,0:0:0:0:
320,192,163214,1,0,0:0:0:0:
448,192,163357,1,0,0:0:0:0:
320,192,163500,1,0,0:0:0:0:
192,192,163786,1,0,0:0:0:0:
448,192,164071,1,0,0:0:0:0:
64,192,164071,1,0,0:0:0:0:
320,192,164214,1,0,0:0:0:0:
192,192,164357,1,0,0:0:0:0:
64,192,164500,1,0,0:0:0:0:
448,192,164643,1,0,0:0:0:0:
192,192,164929,1,0,0:0:0:0:
64,192,165214,1,0,0:0:0:0:
320,192,165214,1,0,0:0:0:0:
192,192,165357,1,0,0:0:0:0:
320,192,165500,1,0,0:0:0:0:
448,192,165786,1,0,0:0:0:0:
320,192,166071,1,0,0:0:0:0:
64,192,166071,1,0,0:0:0:0:
192,192,166214,1,0,0:0:0:0:
320,192,166357,1,0,0:0:0:0:
448,192,166643,1,0,0:0:0:0:
192,192,166929,1,0,0:0:0:0:
64,192,166929,1,0,0:0:0:0:
192,192,167214,1,0,0:0:0:0:
448,192,167500,1,0,0:0:0:0:
320,192,167786,1,0,0:0:0:0:
64,192,168071,1,0,0:0:0:0:
192,192,168357,1,0,0:0:0:0:
448,192,168643,1,0,0:0:0:0:
320,192,168929,1,0,0:0:0:0:
64,192,169214,1,0,0:0:0:0:
448,192,169214,1,0,0:0:0:0:
192,192,169500,1,0,0:0:0:0:
320,192,169786,1,0,0:0:0:0:
192,192,170071,1,0,0:0:0:0:
64,192,170357,1,0,0:0:0:0:
320,192,170643,1,0,0:0:0:0:
448,192,170929,1,0,0:0:0:0:
192,192,171214,1,0,0:0:0:0:
320,192,171500,1,0,0:0:0:0:
64,192,171500,1,0,0:0:0:0:
192,192,171786,1,0,0:0:0:0:
320,192,172071,1,0,0:0:0:0:
64,192,172357,1,0,0:0:0:0:
192,192,172643,1,0,0:0:0:0:
448,192,172929,1,0,0:0:0:0:
320,192,173214,1,0,0:0:0:0:
192,192,173500,1,0,0:0:0:0:
320,192,173786,1,0,0:0:0:0:
448,192,173786,1,0,0:0:0:0:
64,192,174071,1,0,0:0:0:0:
192,192,174357,1,0,0:0:0:0:
448,192,174643,1,0,0:0:0:0:
320,192,174929,1,0,0:0:0:0:
192,192,175214,1,0,0:0:0:0:
320,192,175500,1,0,0:0:0:0:
192,192,175786,1,0,0:0:0:0:
320,192,176071,1,0,0:0:0:0:
64,192,176071,1,0,0:0:0:0:
192,192,176357,1,0,0:0:0:0:
64,192,176643,1,0,0:0:0:0:
320,192,176929,1,0,0:0:0:0:
448,192,177214,1,0,0:0:0:0:
192,192,177214,1,0,0:0:0:0:
64,192,177500,1,0,0:0:0:0:
192,192,177786,1,0,0:0:0:0:
64,192,178071,1,0,0:0:0:0:
320,192,178357,1,0,0:0:0:0:
448,192,178357,1,0,0:0:0:0:
192,192,178643,1,0,0:0:0:0:
320,192,178929,1,0,0:0:0:0:
64,192,179214,1,0,0:0:0:0:
448,192,179500,1,0,0:0:0:0:
192,192,179500,1,0,0:0:0:0:
320,192,179786,1,0,0:0:0:0:
64,192,180071,1,0,0:0:0:0:
320,192,180357,1,0,0:0:0:0:
64,192,180643,1,0,0:0:0:0:
448,192,180643,1,0,0:0:0:0:
320,192,180929,1,0,0:0:0:0:
192,192,181214,1,0,0:0:0:0:
64,192,181214,1,0,0:0:0:0:
320,192,181500,1,0,0:0:0:0:
192,192,181786,1,0,0:0:0:0:
448,192,181786,1,0,0:0:0:0:
64,192,182071,1,0,0:0:0:0:
192,192,182357,1,0,0:0:0:0:
320,192,182357,1,0,0:0:0:0:
448,192,182643,1,0,0:0:0:0:
192,192,182929,1,0,0:0:0:0:
64,192,183214,1,0,0:0:0:0:
448,192,183214,1,0,0:0:0:0:
192,192,183500,1,0,0:0:0:0:
320,192,183500,1,0,0:0:0:0:
448,192,183786,1,0,0:0:0:0:
64,192,183786,1,0,0:0:0:0:
192,192,183786,128,0,185214:0:0:0:0:
320,192,185214,1,0,0:0:0:0:
64,192,185500,1,0,0:0:0:0:
320,192,185786,1,0,0:0:0:0:
192,192,185786,1,0,0:0:0:0:
448,192,185929,1,0,0:0:0:0:
320,192,186071,1,0,0:0:0:0:
192,192,186214,1,0,0:0:0:0:
64,192,186357,128,0,186643:0:0:0:0:
320,192,186643,128,0,186929:0:0:0:0:
192,192,186643,1,0,0:0:0:0:
448,192,186929,1,0,0:0:0:0:
192,192,187071,1,0,0:0:0:0:
64,192,187214,1,0,0:0:0:0:
192,192,187357,1,0,0:0:0:0:
320,192,187500,128,0,188071:0:0:0:0:
448,192,188071,1,0,0:0:0:0:
192,192,188214,1,0,0:0:0:0:
64,192,188357,1,0,0:0:0:0:
192,192,188643,1,0,0:0:0:0:
320,192,188929,1,0,0:0:0:0:
448,192,189071,1,0,0:0:0:0:
320,192,189214,1,0,0:0:0:0:
64,192,189214,1,0,0:0:0:0:
192,192,189357,1,0,0:0:0:0:
64,192,189500,128,0,189786:0:0:0:0:
192,192,189786,1,0,0:0:0:0:
320,192,190071,1,0,0:0:0:0:
448,192,190357,1,0,0:0:0:0:
192,192,190357,1,0,0:0:0:0:
320,192,190500,1,0,0:0:0:0:
192,192,190643,1,0,0:0:0:0:
64,192,190786,1,0,0:0:0:0:
448,192,190929,1,0,0:0:0:0:
320,192,191214,1,0,0:0:0:0:
448,192,191500,1,0,0:0:0:0:
64,192,191500,1,0,0:0:0:0:
320,192,191643,1,0,0:0:0:0:
192,192,191786,1,0,0:0:0:0:
64,192,191929,1,0,0:0:0:0:
192,192,192071,128,0,192643:0:0:0:0:
320,192,192643,1,0,0:0:0:0:
64,192,192786,1,0,0:0:0:0:
192,192,192929,1,0,0:0:0:0:
448,192,193214,128,0,193500:0:0:0:0:
320,192,193500,128,0,193786:0:0:0:0:
192,192,193786,1,0,0:0:0:0:
64,192,193786,128,0,194071:0:0:0:0:
192,192,194071,128,0,194357:0:0:0:0:
320,192,194357,1,0,0:0:0:0:
448,192,194643,1,0,0:0:0:0:
64,192,194929,1,0,0:0:0:0:
192,192,194929,1,0,0:0:0:0:
320,192,195071,1,0,0:0:0:0:
192,192,195214,1,0,0:0:0:0:
448,192,195357,1,0,0:0:0:0:
64,192,195500,1,0,0:0:0:0:
320,192,195786,1,0,0:0:0:0:
64,192,196071,1,0,0:0:0:0:
320,192,196071,1,0,0:0:0:0:
192,192,196214,1,0,0:0:0:0:
320,192,196357,1,0,0:0:0:0:
448,192,196500,1,0,0:0:0:0:
320,192,196643,128,0,197214:0:0:0:0:
192,192,197214,1,0,0:0:0:0:
448,192,197500,1,0,0:0:0:0:
320,192,197786,1,0,0:0:0:0:
64,192,198071,1,0,0:0:0:0:
192,192,198214,1,0,0:0:0:0:
320,192,198357,1,0,0:0:0:0:
64,192,198357,1,0,0:0:0:0:
448,192,198643,1,0,0:0:0:0:
320,192,198929,128,0,199214:0:0:0:0:
192,192,199214,128,0,199500:0:0:0:0:
64,192,199500,1,0,0:0:0:0:
320,192,199643,1,0,0:0:0:0:
448,192,199786,1,0,0:0:0:0:
320,192,199929,1,0,0:0:0:0:
192,192,200071,1,0,0:0:0:0:
448,192,200071,128,0,200357:0:0:0:0:
320,192,200357,1,0,0:0:0:0:
192,192,200500,1,0,0:0:0:0:
64,192,200643,1,0,0:0:0:0:
448,192,200643,1,0,0:0:0:0:
192,192,200786,1,0,0:0:0:0:
320,192,200929,1,0,0:0:0:0:
448,192,201071,1,0,0:0:0:0:
320,192,201214,128,0,201786:0:0:0:0:
192,192,201786,1,0,0:0:0:0:
64,192,201929,1,0,0:0:0:0:
192,192,202071,1,0,0:0:0:0:
448,192,202357,1,0,0:0:0:0:
64,192,202357,128,0,202929:0:0:0:0:
192,192,202643,1,0,0:0:0:0:
320,192,202929,1,0,0:0:0:0:
448,192,202929,128,0,203500:0:0:0:0:
64,192,203214,1,0,0:0:0:0:
192,192,203500,1,0,0:0:0:0:
320,192,203500,1,0,0:0:0:0:
448,192,203786,1,0,0:0:0:0:
320,192,204071,1,0,0:0:0:0:
448,192,204071,1,0,0:0:0:0:
192,192,204214,1,0,0:0:0:0:
64,192,204357,1,0,0:0:0:0:
192,192,204500,1,0,0:0:0:0:
320,192,204643,1,0,0:0:0:0:
448,192,204929,1,0,0:0:0:0:
448,192,205214,1,0,0:0:0:0:
192,192,205214,1,0,0:0:0:0:
320,192,205357,1,0,0:0:0:0:
192,192,205500,1,0,0:0:0:0:
64,192,205643,1,0,0:0:0:0:
192,192,205786,128,0,206357:0:0:0:0:
320,192,206357,1,0,0:0:0:0:
64,192,206500,1,0,0:0:0:0:
192,192,206643,1,0,0:0:0:0:
448,192,206929,1,0,0:0:0:0:
320,192,207214,1,0,0:0:0:0:
192,192,207500,1,0,0:0:0:0:
448,192,207500,1,0,0:0:0:0:
64,192,207786,1,0,0:0:0:0:
192,192,208071,1,0,0:0:0:0:
320,192,208071,1,0,0:0:0:0:
448,192,208357,1,0,0:0:0:0:
320,192,208643,1,0,0:0:0:0:
64,192,208643,1,0,0:0:0:0:
192,192,208786,1,0,0:0:0:0:
64,192,208929,1,0,0:0:0:0:
192,192,209071,1,0,0:0:0:0:
320,192,209214,1,0,0:0:0:0:
448,192,209357,1,0,0:0:0:0:
320,192,209500,1,0,0:0:0:0:
192,192,209643,1,0,0:0:0:0:
64,192,209786,1,0,0:0:0:0:
448,192,209786,1,0,0:0:0:0:
192,192,209929,1,0,0:0:0:0:
320,192,210071,1,0,0:0:0:0:
448,192,210214,1,0,0:0:0:0:
320,192,210357,128,0,210929:0:0:0:0:
192,192,210929,1,0,0:0:0:0:
64,192,211071,1,0,0:0:0:0:
192,192,211214,1,0,0:0:0:0:
320,192,211357,1,0,0:0:0:0:
448,192,211500,1,0,0:0:0:0:
192,192,211786,1,0,0:0:0:0:
320,192,212071,1,0,0:0:0:0:
448,192,212071,1,0,0:0:0:0:
192,192,212214,1,0,0:0:0:0:
64,192,212357,1,0,0:0:0:0:
448,192,212500,1,0,0:0:0:0:
192,192,212643,1,0,0:0:0:0:
320,192,212643,128,0,212929:0:0:0:0:
448,192,212929,1,0,0:0:0:0:
192,192,213214,1,0,0:0:0:0:
320,192,213214,1,0,0:0:0:0:
64,192,213357,1,0,0:0:0:0:
192,192,213500,1,0,0:0:0:0:
320,192,213643,1,0,0:0:0:0:
448,192,213786,1,0,0:0:0:0:
320,192,214071,1,0,0:0:0:0:
192,192,214357,1,0,0:0:0:0:
64,192,214357,1,0,0:0:0:0:
320,192,214500,1,0,0:0:0:0:
448,192,214643,1,0,0:0:0:0:
320,192,214786,1,0,0:0:0:0:
448,192,214929,128,0,215500:0:0:0:0:
64,192,215500,1,0,0:0:0:0:
192,192,215500,1,0,0:0:0:0:
320,192,215643,1,0,0:0:0:0:
192,192,215786,1,0,0:0:0:0:
64,192,216071,1,0,0:0:0:0:
448,192,216357,1,0,0:0:0:0:
320,192,216643,1,0,0:0:0:0:
192,192,216643,1,0,0:0:0:0:
64,192,216929,1,0,0:0:0:0:
448,192,217214,128,0,217786:0:0:0:0:
192,192,217214,1,0,0:0:0:0:
320,192,217500,128,0,217786:0:0:0:0:
192,192,217786,1,0,0:0:0:0:
64,192,217929,1,0,0:0:0:0:
192,192,218071,1,0,0:0:0:0:
320,192,218214,1,0,0:0:0:0:
448,192,218357,1,0,0:0:0:0:
320,192,218643,1,0,0:0:0:0:
192,192,218929,1,0,0:0:0:0:
64,192,218929,1,0,0:0:0:0:
320,192,219071,1,0,0:0:0:0:
192,192,219214,1,0,0:0:0:0:
64,192,219357,1,0,0:0:0:0:
192,192,219500,128,0,220071:0:0:0:0:
448,192,220071,1,0,0:0:0:0:
320,192,220214,1,0,0:0:0:0:
192,192,220357,1,0,0:0:0:0:
64,192,220643,1,0,0:0:0:0:
320,192,220643,128,0,221786:0:0:0:0:
448,192,220857,1,0,0:0:0:0:
192,192,221071,1,0,0:0:0:0:
448,192,221357,1,0,0:0:0:0:
64,192,221500,1,0,0:0:0:0:
64,192,221786,128,0,222357:0:0:0:0:
192,192,221786,1,0,0:0:0:0:
192,192,222357,128,0,222929:0:0:0:0:
320,192,222357,1,0,0:0:0:0:
448,192,222929,128,0,223214:0:0:0:0:
320,192,222929,1,0,0:0:0:0:
320,192,223214,128,0,223786:0:0:0:0:
64,192,223214,1,0,0:0:0:0:
64,192,223786,128,0,225357:0:0:0:0:
192,192,223786,1,0,0:0:0:0:
448,192,223786,128,0,225357:0:0:0:0:
