osu file format v14

[General]
AudioFilename: audio.mp3
AudioLeadIn: 0
PreviewTime: 12800
Countdown: 0
SampleSet: Normal
StackLeniency: 0.7
Mode: 0
LetterboxInBreaks: 0
WidescreenStoryboard: 0

[Editor]
DistanceSpacing: 1
BeatDivisor: 2
GridSize: 4
TimelineZoom: 2.34

[Metadata]
Title:Max 300
TitleUnicode:Max 300
Artist:OMEGA
ArtistUnicode:Ω
Creator:ViolentBoo
Version:Light
Source:DDR MAX
Tags:
BeatmapID:1881560
BeatmapSetID:872193

[Difficulty]
HPDrainRate:2
CircleSize:3
OverallDifficulty:2
ApproachRate:4
SliderMultiplier:0.8
SliderTickRate:1

[Events]
//Background and Video events
0,0,"DDR Edit - MAX 300-bg.png",0,0
//Break Periods
2,25800,33880
2,57400,59480
//Storyboard Layer 0 (Background)
//Storyboard Layer 1 (Fail)
//Storyboard Layer 2 (Pass)
//Storyboard Layer 3 (Foreground)
//Storyboard Layer 4 (Overlay)
//Storyboard Sound Samples

[TimingPoints]
0,200,4,1,0,100,1,0
0,-100,4,1,0,100,0,0
87200,-100,4,1,0,100,0,0

[HitObjects]
426,304,3200,6,0,L|254:298,1,160
381,187,4000,2,0,L|209:181,1,160
61,171,4800,2,0,P|85:93|159:55,2,160
130,314,6000,1,0,0:0:0:0:
288,335,6400,6,0,B|324:279|295:259|267:233|306:164,1,160
190,61,7200,2,0,B|246:25|266:54|292:82|361:43,1,160
458,162,8000,2,0,L|465:359,2,160
303,118,9200,1,0,0:0:0:0:
162,42,9600,6,0,L|168:126,1,80
89,104,10000,2,0,L|95:188,1,80
173,199,10400,2,0,L|179:283,1,80
100,261,10800,2,0,L|106:345,1,80
184,356,11200,6,0,B|274:358|273:358,3,80
293,283,12000,2,0,B|383:285|382:285,3,80
447,314,12800,6,0,P|438:237|345:211,1,160
213,244,13600,2,0,B|175:246|138:266|138:266|110:246|54:240,1,160
164,120,14400,6,0,B|117:84|117:84|77:118|3:127|3:126,2,160
305,195,15600,1,0,0:0:0:0:
438,106,16000,6,0,P|422:65|386:39,2,80
466,181,16600,1,0,0:0:0:0:
443,257,16800,2,0,P|427:297|391:324,2,80
384,202,17400,1,0,0:0:0:0:
319,154,17600,6,0,B|219:149,1,80
186,210,18000,2,0,B|86:205,1,80
102,286,18400,2,0,B|181:289,1,80
166,368,18800,2,0,B|245:371,1,80
326,366,19200,6,0,B|370:293|370:293|463:293,1,160
444,132,20000,2,0,B|369:132|369:132|325:59,1,160
164,57,20800,6,0,L|146:227,2,160
270,176,22000,1,0,0:0:0:0:
316,329,22400,6,0,L|409:326,1,80
417,248,22800,2,0,L|337:250,1,80
350,171,23200,2,0,L|443:168,1,80
451,90,23600,2,0,L|371:92,1,80
290,90,24000,6,0,P|229:70|202:12,2,120
274,173,24800,2,0,P|226:176|192:143,2,80
274,173,25400,1,0,0:0:0:0:
274,173,25600,1,0,0:0:0:0:
22,54,35200,6,0,L|120:52,1,80
90,131,35600,2,0,L|188:129,1,80
179,49,36000,2,0,L|277:47,1,80
247,126,36400,2,0,L|345:124,1,80
407,120,36800,6,0,L|411:35,2,80
443,190,37400,1,0,0:0:0:0:
396,255,37600,2,0,L|392:340,2,80
343,194,38200,1,0,0:0:0:0:
280,243,38400,6,0,L|193:241,1,80
142,296,38800,2,0,L|55:294,1,80
14,229,39200,1,0,0:0:0:0:
64,167,39400,1,0,0:0:0:0:
276,279,40000,6,0,L|272:374,1,80
352,361,40400,2,0,L|355:281,1,80
404,217,40800,2,0,L|499:221,1,80
486,141,41200,2,0,L|406:137,1,80
350,80,41600,6,0,L|354:-15,2,80
285,126,42200,1,0,0:0:0:0:
220,173,42400,2,0,L|125:169,2,80
270,234,43000,1,0,0:0:0:0:
204,279,43200,6,0,L|109:275,1,80
62,224,43600,2,0,L|66:129,1,80
14,82,44000,1,0,0:0:0:0:
72,27,44200,1,0,0:0:0:0:
311,38,44800,6,0,L|323:371,2,320
179,121,46800,1,0,0:0:0:0:
40,40,47200,2,0,P|14:97|52:197,1,160
144,308,48000,6,0,B|218:311|294:357|294:357|362:320|450:325,2,320
239,179,50000,1,0,0:0:0:0:
133,59,50400,2,0,P|203:35|282:66,1,160
313,221,51200,6,0,B|360:281|341:337|341:337|396:329|469:347|469:347|460:288|485:262,2,320
302,61,53200,1,0,0:0:0:0:
460,34,53600,2,0,L|455:217,1,160
293,190,54400,6,0,B|108:209|108:209|52:224|45:309|82:344,1,320
256,192,56000,12,0,57200,0:0:0:0:
463,337,60800,6,0,L|373:333,1,80
391,254,61200,2,0,L|311:251,1,80
301,330,61600,2,0,L|211:326,1,80
230,248,62000,2,0,L|150:245,1,80
84,199,62400,5,0,0:0:0:0:
97,120,62600,2,0,P|135:135|161:176,2,80
60,48,63200,2,0,P|22:33|-4:-8,2,80
139,46,63800,1,0,0:0:0:0:
218,58,64000,6,0,P|256:73|282:114,1,80
267,182,64400,2,0,P|229:167|203:126,1,80
135,172,64800,1,0,0:0:0:0:
138,251,65000,2,0,B|142:339|142:338,1,80
219,350,65400,1,0,0:0:0:0:
271,289,65600,6,0,P|306:282|369:296,2,80
233,218,66200,1,0,0:0:0:0:
260,142,66400,2,0,P|295:149|358:135,1,80
399,90,66800,1,0,0:0:0:0:
250,30,67200,6,0,L|77:35,1,160
75,113,67800,2,0,L|234:108,1,160
232,188,68400,6,0,L|59:193,1,160
57,271,69000,2,0,L|216:266,1,160
256,192,69600,12,0,72800,0:0:0:0:
200,192,73600,6,0,L|84:183,1,80
60,131,74000,2,0,P|112:103|161:116,1,80
210,112,74400,1,0,0:0:0:0:
312,192,75200,6,0,L|428:183,1,80
452,131,75600,2,0,P|400:103|351:116,1,80
302,112,76000,1,0,0:0:0:0:
41,297,76800,6,0,L|31:377,2,80
51,217,77400,1,0,0:0:0:0:
130,225,77600,2,0,L|210:235,2,80
136,145,78200,1,0,0:0:0:0:
143,65,78400,2,0,L|63:55,2,80
222,74,79000,1,0,0:0:0:0:
301,82,79200,1,0,0:0:0:0:
256,323,80000,6,0,P|208:353|144:223,1,240
176,162,80800,2,0,P|224:132|288:262,1,240
365,292,81600,6,0,P|392:185|306:68,1,240
251,53,82400,2,0,P|144:81|83:213,1,240
256,192,83200,12,0,84800,0:0:0:0:
84,191,85600,5,0,0:0:0:0:
404,191,86400,1,0,0:0:0:0:
283,296,86800,1,0,0:0:0:0:
283,296,87200,1,0,0:0:0:0:
