osu file format v14

[General]
AudioFilename: audio.mp3
AudioLeadIn: 0
PreviewTime: 109860
Countdown: 0
SampleSet: Normal
StackLeniency: 0.7
Mode: 0
LetterboxInBreaks: 0
WidescreenStoryboard: 1

[Editor]
Bookmarks: 18152,53275,79616,114738,138153,149860,164494,217177,228518
DistanceSpacing: 1.4
BeatDivisor: 6
GridSize: 32
TimelineZoom: 1.5

[Metadata]
Title:Starless Night
TitleUnicode:Starless Night
Artist:OLIVIA inspi' REIRA(TRAPNEST)
ArtistUnicode:OLIVIA inspi' REIRA(TRAPNEST)
Creator:Florescence
Version:Insane
Source:NANA―ナナ―
Tags:Olivia Lufkin Wish Starless Night SPACE CRITTER Hideyuki Obata nana anime japanese english Hardcore Pop Rock Glam
BeatmapID:4220745
BeatmapSetID:1866237

[Difficulty]
HPDrainRate:7
CircleSize:4
OverallDifficulty:8
ApproachRate:8.8
SliderMultiplier:1.4
SliderTickRate:1

[Events]
//Background and Video events
0,0,"nana2.jpg",0,0
//Break Periods
2,12315,17523
//Storyboard Layer 0 (Background)
//Storyboard Layer 1 (Fail)
//Storyboard Layer 2 (Pass)
//Storyboard Layer 3 (Foreground)
//Storyboard Layer 4 (Overlay)
//Storyboard Sound Samples

[TimingPoints]
592,365.853658536585,4,1,1,55,1,0
4250,-166.666666666667,4,1,1,55,0,0
4616,-90.9090909090909,4,1,1,55,0,0
4982,-76.9230769230769,4,1,1,55,0,0
5348,-142.857142857143,4,1,1,55,0,0
5713,-333.333333333333,4,1,1,55,0,0
6445,-83.3333333333333,4,1,1,55,0,0
7177,-333.333333333333,4,1,1,55,0,0
7909,-125,4,1,1,55,0,0
8640,-76.9230769230769,4,1,1,55,0,0
9372,-100,4,1,1,55,0,0
9738,-142.857142857143,4,1,1,55,0,0
10470,-90.9090909090909,4,1,1,55,0,0
10835,-76.9230769230769,4,1,1,55,0,0
11567,-125,4,1,1,45,0,0
18152,-166.666666666667,4,2,2,45,0,0
21079,-250.000000000001,4,2,2,45,0,0
23640,-333.333333333336,4,2,2,45,0,0
24006,-200,4,2,2,45,0,0
26201,-333.333333333333,4,2,2,45,0,0
26933,-125,4,2,2,45,0,0
27421,-285.714285714286,4,2,2,45,0,0
29494,-166.666666666667,4,2,2,45,0,0
29860,-250.000000000001,4,2,2,45,0,0
32055,-125,4,2,2,45,0,0
32787,-100,4,2,2,45,0,0
34616,-200,4,2,2,45,0,0
34982,-500,4,2,2,45,0,0
35713,-142.857142857143,4,2,2,45,0,0
36811,-200,4,2,2,45,0,0
37909,-285.714285714286,4,2,2,45,0,0
40835,-166.666666666667,4,2,2,45,0,0
44128,-142.857142857143,4,2,2,45,0,0
44494,-111.111111111111,4,2,2,45,0,0
45957,-142.857142857143,4,2,2,45,0,0
46689,-333.333333333334,4,2,2,45,0,0
47421,-125,4,2,2,45,0,0
50348,-500,4,2,2,45,0,0
52177,-500,4,2,2,55,0,0
53274,-71.4285714285714,4,1,0,60,0,1
54006,-58.8235294117647,4,1,0,60,0,1
55104,-76.9230769230769,4,1,0,60,0,1
55470,-66.6666666666667,4,1,0,60,0,1
56201,-58.8235294117647,4,1,0,60,0,1
56567,-222.222222222221,4,1,0,60,0,1
57665,-100,4,1,0,60,0,1
58762,-125,4,1,0,60,0,1
59128,-71.4285714285714,4,1,0,60,0,1
59860,-133.333333333333,4,1,0,60,0,1
60226,-66.6666666666667,4,1,0,60,0,1
60591,-83.3333333333333,4,1,0,60,0,1
61323,-100,4,1,0,60,0,1
62055,-66.6666666666667,4,1,0,60,0,1
64250,-83.3333333333333,4,1,0,60,0,1
65713,-64.5161290322581,4,1,0,60,0,1
66811,-181.818181818181,4,1,0,60,0,1
67177,-76.9230769230769,4,1,0,60,0,1
67909,-83.3333333333333,4,1,0,60,0,1
68640,-200,4,1,0,60,0,1
70835,-83.3333333333333,4,1,0,60,0,1
71567,-133.333333333333,4,1,0,60,0,1
71933,-90.9090909090909,4,1,0,60,0,1
72299,-76.9230769230769,4,1,0,60,0,1
72665,-181.818181818181,4,1,0,60,0,1
73031,-76.9230769230769,4,1,0,60,0,1
73396,-62.5,4,1,0,60,0,1
73762,-500,4,2,0,60,0,0
73823,-500,4,2,2,45,0,0
78884,-125,4,2,2,25,0,0
79616,-200,4,2,2,45,0,0
81811,-333.333333333333,4,2,2,45,0,0
85470,-166.666666666667,4,2,2,45,0,0
87665,-250.000000000001,4,2,2,45,0,0
88396,-200,4,2,2,45,0,0
88762,-250.000000000001,4,2,2,45,0,0
90591,-333.333333333334,4,2,2,45,0,0
91323,-142.857142857143,4,2,2,45,0,0
93518,-200,4,2,2,45,0,0
94250,-142.857142857143,4,2,2,45,0,0
98274,-250.000000000001,4,2,2,45,0,0
98640,-200,4,2,2,45,0,0
99006,-333.333333333334,4,2,2,45,0,0
100104,-133.333333333333,4,2,2,45,0,0
100835,-285.714285714284,4,2,2,45,0,0
102299,-222.222222222221,4,2,2,45,0,0
103031,-153.846153846153,4,2,2,45,0,0
105957,-153.846153846153,4,2,2,45,0,0
107421,-250,4,2,2,45,0,0
108884,-142.857142857143,4,2,2,45,0,0
111811,-500.000000000003,4,2,2,45,0,0
113640,-250.000000000001,4,2,2,55,0,0
114738,-71.4285714285714,4,1,0,60,0,1
115470,-58.8235294117647,4,1,0,60,0,1
116933,-250,4,1,0,60,0,1
118396,-90.9090909090909,4,1,0,60,0,1
119860,-111.111111111111,4,1,0,60,0,1
120226,-71.4285714285714,4,1,0,60,0,1
120591,-62.5,4,1,0,60,0,1
120957,-83.3333333333333,4,1,0,60,0,1
122421,-66.6666666666667,4,1,0,60,0,1
123518,-58.8235294117647,4,1,0,60,0,1
124250,-90.9090909090909,4,1,0,60,0,1
125713,-111.111111111111,4,1,0,60,0,1
126445,-76.9230769230769,4,1,0,60,0,1
127177,-66.6666666666667,4,1,0,60,0,1
127543,-83.3333333333333,4,1,0,60,0,1
128274,-133.333333333333,4,1,0,60,0,1
129372,-71.4285714285714,4,1,0,60,0,1
129738,-100,4,1,0,60,0,1
131201,-133.333333333333,4,1,0,60,0,1
131933,-100,4,1,0,60,0,1
132299,-71.4285714285714,4,1,0,60,0,1
132665,-66.6666666666667,4,1,0,60,0,1
133031,-181.818181818181,4,1,0,60,0,1
133762,-76.9230769230769,4,1,0,60,0,1
134128,-66.6666666666667,4,1,0,60,0,1
134494,-181.818181818181,4,1,0,60,0,1
135226,-250,4,1,0,60,0,0
138152,-133.333333333333,4,1,0,60,0,0
138884,-71.4285714285714,4,1,0,60,0,0
139616,-83.3333333333333,4,1,0,60,0,0
140713,-111.111111111111,4,1,0,60,0,0
141079,-181.818181818181,4,1,0,60,0,0
142543,-76.9230769230769,4,1,0,60,0,0
142909,-66.6666666666667,4,1,0,60,0,0
143640,-133.333333333333,4,1,0,60,0,0
144372,-181.818181818181,4,1,0,60,0,0
145287,-71.4285714285714,4,1,0,60,0,0
146018,-100,4,1,0,60,0,0
146933,-76.9230769230769,4,1,0,60,0,0
149128,-62.5,4,1,0,60,0,0
149860,-133.333333333333,4,1,0,60,0,0
152421,-181.818181818181,4,1,0,60,0,0
152787,-90.9090909090909,4,1,0,60,0,0
153762,-76.9230769230769,4,1,0,60,0,0
154250,-111.111111111111,4,1,0,60,0,0
155348,-133.333333333333,4,1,0,60,0,0
155713,-76.9230769230769,4,1,0,60,0,0
156445,-133.333333333333,4,1,0,60,0,0
156811,-181.818181818181,4,1,0,60,0,0
157177,-66.6666666666667,4,1,0,60,0,0
158274,-125,4,1,0,60,0,0
158640,-62.5,4,1,0,60,0,0
159006,-83.3333333333333,4,1,0,60,0,0
159372,-58.8235294117647,4,1,0,60,0,0
160104,-66.6666666666667,4,1,0,60,0,0
161201,-100,4,1,0,60,0,0
163031,-100,4,1,2,60,0,0
163762,-250,4,1,0,60,0,0
164494,-250,4,1,0,60,0,1
165226,-71.4285714285714,4,1,0,60,0,1
166689,-111.111111111111,4,1,0,60,0,1
167055,-153.846153846153,4,1,0,60,0,1
167421,-71.4285714285714,4,1,0,60,0,1
169616,-100,4,1,0,60,0,1
170348,-66.6666666666667,4,1,0,60,0,1
170713,-133.333333333333,4,1,0,60,0,1
171079,-76.9230769230769,4,1,0,60,0,1
171445,-58.8235294117647,4,1,0,60,0,1
171811,-90.9090909090909,4,1,0,60,0,1
173274,-62.5,4,1,0,60,0,1
175104,-111.111111111111,4,1,0,60,0,1
176201,-71.4285714285714,4,1,0,60,0,1
176933,-58.8235294117647,4,1,0,60,0,1
178396,-83.3333333333333,4,1,0,60,0,1
179128,-62.5,4,1,0,60,0,1
179677,-181.818181818181,4,1,0,60,0,1
181323,-62.5,4,1,0,60,0,1
181689,-100,4,1,0,60,0,1
182055,-76.9230769230769,4,1,0,60,0,1
182787,-111.111111111111,4,1,0,60,0,1
183152,-142.857142857143,4,1,0,60,0,1
184982,-58.8235294117647,4,1,0,60,0,1
185713,-125,4,1,0,60,0,1
186811,-76.9230769230769,4,1,0,60,0,1
187909,-58.8235294117647,4,1,0,60,0,1
188274,-90.9090909090909,4,1,0,60,0,1
188640,-142.857142857143,4,1,0,60,0,1
190104,-90.9090909090909,4,1,0,60,0,1
190470,-133.333333333333,4,1,0,60,0,1
190835,-71.4285714285714,4,1,0,60,0,1
191201,-83.3333333333333,4,1,0,60,0,1
191567,-166.666666666667,4,1,0,60,0,1
191933,-55.5555555555556,4,1,0,60,0,1
192299,-66.6666666666667,4,1,0,60,0,1
193031,-62.5,4,1,0,60,0,1
194128,-71.4285714285714,4,1,0,60,0,1
194494,-62.5,4,1,0,60,0,1
196689,-66.6666666666667,4,1,0,60,0,1
197055,-90.9090909090909,4,1,0,60,0,1
197421,-62.5,4,1,0,60,0,1
198518,-111.111111111111,4,1,0,60,0,1
199616,-55.5555555555556,4,1,0,60,0,1
201811,-142.857142857143,4,1,0,60,0,1
203274,-100,4,1,0,60,0,1
204006,-55.5555555555556,4,1,0,60,0,1
204738,-133.333333333333,4,1,0,60,0,1
205470,-62.5,4,1,0,60,0,1
205835,-66.6666666666667,4,1,0,60,0,1
206201,-90.9090909090909,4,1,0,60,0,1
206567,-62.5,4,1,0,60,0,1
208396,-100,4,1,1,55,0,0
211323,-500,4,1,1,60,0,0
211384,-500,4,1,1,45,0,0
216445,-133.333333333333,4,1,0,60,0,0
217177,-71.4285714285714,4,1,0,60,0,0
218274,-100,4,1,0,60,0,0
218640,-66.6666666666667,4,1,0,60,0,0
220104,-76.9230769230769,4,1,0,60,0,0
220835,-100,4,1,0,60,0,0
223396,-166.666666666667,4,1,0,60,0,0
225957,-100,4,1,0,60,0,0
226323,-181.818181818181,4,1,0,60,0,0
226872,-76.9230769230769,4,1,0,60,0,0
227970,-111.111111111111,4,1,0,60,0,0
229433,-76.9230769230769,4,1,0,60,0,0
230713,-125,4,1,0,60,0,0
231811,-83.3333333333333,4,1,0,60,0,0
232543,-111.111111111111,4,1,0,60,0,0
233274,-66.6666666666667,4,1,0,60,0,0
234738,-111.111111111111,4,1,0,60,0,0
236933,-71.4285714285714,4,1,0,60,0,0
237299,-100,4,1,0,60,0,0
237665,-76.9230769230769,4,1,0,60,0,0
239494,-111.111111111111,4,1,0,60,0,0
240226,-125,4,1,0,60,0,0
250104,-125,4,1,0,30,0,0

[Colours]
Combo1 : 197,197,197
Combo2 : 208,167,136
Combo3 : 232,108,133
Combo4 : 141,141,141

[HitObjects]
222,30,3518,6,0,P|227:79|232:156,1,105,0|0,3:0|0:0,0:0:0:0:
214,209,3884,1,0,3:0:0:0:
247,359,4250,2,0,P|254:320|265:301,1,41.9999987182618,8|0,0:0|0:0,0:0:0:0:
113,126,4616,2,0,P|114:60|84:4,1,115.50000352478
88,22,4982,6,0,P|160:32|230:39,1,136.499993751526,0|0,3:0|0:0,0:0:0:0:
294,78,5348,2,0,L|362:65,1,48.9999985046387,0|0,3:0|0:0,0:0:0:0:
122,285,5713,2,0,L|111:239,1,41.9999987182618,8|0,0:0|0:0,0:0:0:0:
122,285,6445,6,0,B|143:298|143:298|221:271,1,83.9999974365235,0|0,3:0|0:0,0:0:0:0:
449,289,6811,2,0,P|380:299|335:308,1,83.9999974365235,0|0,3:0|0:0,0:0:0:0:
122,285,7177,2,0,L|115:248,1,31.4999990386963,8|0,0:0|0:0,0:0:0:0:
70,197,7543,5,0,3:0:0:0:
35,341,7726,1,8,0:0:0:0:
293,242,7909,1,0,3:0:0:0:
261,167,8091,1,8,0:0:0:0:
238,384,8274,6,0,P|242:336|223:286,1,84,0|0,3:0|0:0,0:0:0:0:
300,246,8640,2,0,P|349:240|426:229,1,90.9999958343508,8|0,0:0|0:0,0:0:0:0:
155,252,9006,1,8,0:3:0:0:
180,172,9189,1,8,0:3:0:0:
446,71,9372,6,0,P|434:124|455:192,1,105,0|0,3:0|0:0,0:0:0:0:
390,234,9738,2,0,P|407:274|399:320,1,73.4999977569581,0|0,3:0|0:0,0:0:0:0:
446,374,10104,1,8,0:0:0:0:
247,32,10470,6,0,P|250:86|251:174,1,115.50000352478
331,183,10835,2,0,B|353:141|353:141|329:91,1,90.9999958343508,0|0,3:0|0:0,0:0:0:0:
171,149,11201,2,0,B|151:184|151:184|174:229,1,90.9999958343508,0|0,3:0|0:0,0:0:0:0:
75,154,11567,6,0,P|69:103|65:82,1,56,8|0,0:0|0:0,0:0:0:0:
412,259,11933,2,0,P|416:211|422:183,1,56,0|0,3:0|0:0,0:0:0:0:
423,115,18152,6,0,P|286:131|90:160,1,335.999989746094
90,159,19982,1,0,0:0:0:0:
33,233,20348,2,0,L|127:250,1,83.9999974365235
324,341,20957,5,0,0:0:0:0:
196,292,21079,2,0,L|265:280,1,56,4|0,0:0|0:0,0:0:0:0:
431,253,21811,2,0,L|375:262,1,56,4|0,0:0|0:0,0:0:0:0:
196,292,22543,2,0,L|265:280,1,56,4|0,0:0|0:0,0:0:0:0:
431,253,23274,1,0,0:0:0:0:
366,105,23640,2,0,L|370:69,1,27.9999991455078
498,154,24006,6,0,L|417:167,1,70,4|0,0:0|0:0,0:0:0:0:
31,16,24738,2,0,L|36:93,1,70,4|0,0:0|0:0,0:0:0:0:
42,164,25470,1,4,0:0:0:0:
46,242,25835,1,0,0:0:0:0:
147,104,26201,2,0,L|110:113,1,27.9999991455078
42,164,26567,1,0,0:0:0:0:
408,85,26811,5,0,0:0:0:0:
480,114,26933,2,0,P|482:161|477:209,1,74.6666666666667,4|0,0:0|0:0,0:0:0:0:
237,260,27421,2,0,P|235:203|243:29,1,228.666659688314
320,19,29494,2,0,P|322:66|323:99,1,55.9999982910157
399,193,29860,6,0,P|395:247|389:306,2,112,4|4|4,0:0|0:0|0:0,0:0:0:0:
451,353,31689,5,0,0:0:0:0:
313,322,32055,2,0,P|270:322|212:311,1,74.6666666666667
222,326,32421,2,0,P|224:266|233:226,1,74.6666666666667
177,190,32787,6,0,B|199:117|199:117|184:43,1,140,4|0,0:0|0:0,0:0:0:0:
262,23,33396,1,0,0:0:0:0:
266,32,33518,1,4,0:0:0:0:
178,44,33884,1,0,0:0:0:0:
337,79,34250,1,4,0:0:0:0:
483,36,34616,2,0,P|471:72|472:91,1,46.6666666666667
341,132,34982,2,0,P|338:104|330:82,1,46.6666666666667
339,12,35713,6,0,P|357:71|362:227,1,195.999994018555,4|4,0:0|0:0,0:0:0:0:
365,205,36811,2,0,L|452:220,2,70,0|4|2,0:0|0:0|0:0,0:0:0:0:
115,122,37909,2,0,L|56:138,1,48.9999985046387,2|0,0:0|0:0,0:0:0:0:
136,35,38518,5,0,0:0:0:0:
142,45,38640,1,2,0:0:0:0:
195,152,38884,1,0,0:0:0:0:
191,166,39006,1,0,0:0:0:0:
38,34,39189,6,0,L|10:28,1,24.4999992523194,0|2,0:0|0:0,0:0:0:0:
468,54,39738,6,0,L|494:47,1,24.4999992523194,0|2,0:0|0:0,0:0:0:0:
253,9,40287,5,2,0:0:0:0:
263,37,40470,5,2,0:0:0:0:
248,112,40652,5,2,0:0:0:0:
262,194,40835,6,0,P|261:246|260:289,1,83.9999974365235
269,361,41445,5,0,0:0:0:0:
251,226,41567,2,0,P|251:165|253:131,1,83.9999974365235,4|0,0:0|0:0,0:0:0:0:
272,27,42299,1,4,0:0:0:0:
355,111,42665,1,0,0:0:0:0:
255,184,42909,1,0,0:0:0:0:
252,169,43031,1,2,0:0:0:0:
361,93,43274,1,0,0:0:0:0:
355,111,43396,1,0,0:0:0:0:
161,83,43640,1,0,0:0:0:0:
116,139,43762,2,0,L|77:148,1,27.9999991455078,4|0,0:0|0:0,0:0:0:0:
356,112,44128,2,0,P|391:108|430:112,1,65.3333313395183
501,122,44494,6,0,P|452:121|412:187,1,125.999996154785,6|0,0:0|0:0,0:0:0:0:
29,30,45226,2,0,P|78:29|118:95,1,125.999996154785,4|0,0:0|0:0,0:0:0:0:
101,14,45957,2,0,P|128:14|211:18,1,97.9999970092775,4|0,0:0|0:0,0:0:0:0:
398,98,46689,6,0,L|354:101,1,41.9999987182618,2|0,0:0|0:0,0:0:0:0:
473,128,47299,1,0,0:0:0:0:
408,177,47421,2,0,P|417:210|400:293,1,112,6|0,0:0|0:0,0:0:0:0:
344,333,48152,2,0,P|283:340|223:346,1,112,4|0,0:0|0:0,0:0:0:0:
161,384,48884,5,6,0:0:0:0:
32,312,49250,1,0,0:0:0:0:
37,172,49616,1,0,0:0:0:0:
222,70,49982,1,0,0:0:0:0:
405,180,50348,2,0,P|391:238|381:293,1,112,0|4,0:0|0:0,0:0:0:0:
393,362,52177,5,8,1:2:0:0:
3,209,52360,5,4,1:3:0:0:
10,205,52451,1,4,1:3:0:0:
17,202,52543,2,0,L|48:212,1,28,12|0,3:1|0:0,0:0:0:0:
152,374,53274,6,0,P|146:322|197:257,1,97.9999970092774,4|0,3:1|0:1,0:1:0:0:
132,202,53640,1,0,3:1:0:0:
132,202,53823,1,0,0:1:0:0:
327,86,54006,2,0,P|241:93|133:106,1,178.500003404617,8|0,3:1|0:1,0:1:0:0:
136,93,54372,5,0,3:1:0:0:
249,126,54555,1,0,0:1:0:0:
392,40,54738,1,4,3:1:0:0:
421,58,54921,1,0,0:1:0:0:
512,113,55104,2,0,P|532:180|501:265,1,136.499993751526,0|0,3:1|0:1,0:1:0:0:
458,300,55470,2,0,B|381:326|381:326|297:298,1,157.500006008148,8|0,0:1|0:1,0:1:0:0:
222,315,55835,5,0,3:1:0:0:
209,302,56018,1,0,0:1:0:0:
221,138,56201,2,0,B|305:103|305:103|428:155,1,178.500003404617,4|0,3:1|0:1,0:1:0:0:
497,186,56567,2,0,L|456:192,1,31.4999990386963,0|0,3:1|0:1,0:1:0:0:
235,147,56933,1,8,3:1:0:0:
136,223,57116,1,0,0:1:0:0:
217,318,57299,1,0,3:1:0:0:
322,243,57482,1,8,0:2:0:0:
27,262,57665,6,0,P|25:226|21:177,1,70,4|8,3:1|0:2,0:1:0:0:
226,156,58031,2,0,P|224:109|220:69,1,70,0|8,3:1|0:2,0:1:0:0:
481,69,58396,2,0,P|475:23|468:-6,1,70,8|0,3:1|0:1,0:1:0:0:
439,137,58762,2,0,P|396:146|358:151,1,56,0|0,0:1|0:1,0:1:0:0:
119,240,59128,2,0,P|206:255|226:316,1,146.999995513916,4|0,3:1|0:1,0:1:0:0:
302,309,59494,2,0,P|261:333|249:379,1,97.9999970092774,0|0,3:1|0:1,0:1:0:0:
250,117,59860,2,0,P|247:68|251:24,1,78.7500030040742,8|0,3:1|0:1,0:1:0:0:
256,30,60226,6,0,P|259:118|253:204,1,157.500006008148,0|0,3:1|0:1,0:1:0:0:
235,280,60591,1,4,3:1:0:0:
512,296,60957,1,0,3:1:0:0:
3,322,61323,1,8,3:1:0:0:
3,322,61689,2,0,P|2:260|11:227,1,70,4|4,0:3|0:3,0:1:0:0:
95,181,62055,2,0,B|191:151|198:248|251:243,1,157.500006008148,4|0,3:1|0:1,0:1:0:0:
313,213,62421,2,0,B|337:157|337:157|300:105,1,105.000004005432,0|0,3:1|0:1,0:1:0:0:
37,6,62787,2,0,P|58:53|167:73,1,157.500006008148,8|0,3:1|0:0,0:1:0:0:
255,44,63152,1,0,3:1:0:0:
255,44,63335,1,8,0:2:0:0:
255,44,63518,5,4,3:1:0:0:
362,303,63701,1,8,0:2:0:0:
444,202,63884,1,0,3:1:0:0:
186,251,64067,1,0,0:1:0:0:
7,145,64250,2,0,P|75:142|120:149,1,83.9999974365235,12|0,3:1|0:1,0:1:0:0:
379,40,64616,2,0,P|291:37|240:48,1,125.999996154785,4|0,3:3|0:1,0:1:0:0:
177,0,64982,5,4,3:1:0:0:
177,0,65165,1,8,3:1:0:0:
301,135,65348,1,4,3:2:0:0:
219,196,65531,1,0,3:1:0:0:
227,366,65713,2,0,P|234:294|226:184,1,162.750001241684,8|0,3:1|0:1,0:1:0:0:
150,253,66079,1,0,3:1:0:0:
313,289,66262,1,0,0:1:0:0:
129,358,66445,1,4,3:1:0:0:
368,343,66628,1,0,0:1:0:0:
282,153,66811,6,0,P|281:109|283:82,1,57.7500017623902,0|0,3:1|0:1,0:1:0:0:
332,38,67177,2,0,P|384:31|439:95,1,136.499993751526,8|0,3:1|0:1,0:1:0:0:
494,142,67543,1,0,3:1:0:0:
494,142,67726,1,0,0:1:0:0:
274,160,67909,2,0,P|204:159|139:167,1,125.999996154785,4|0,3:1|0:1,0:1:0:0:
78,216,68274,2,0,P|75:137|86:98,1,83.9999974365235,4|0,3:2|0:1,0:1:0:0:
63,5,68640,2,0,P|62:42|60:66,1,52.5,8|0,3:1|0:1,0:1:0:0:
69,130,69006,5,0,3:1:0:0:
45,155,69189,1,8,0:2:0:0:
34,232,69372,1,4,3:1:0:0:
89,292,69555,1,8,0:2:0:0:
189,279,69738,1,8,3:3:0:0:
304,211,69921,1,8,0:2:0:0:
512,248,70104,1,8,3:1:0:0:
69,130,70470,5,4,0:3:0:0:
45,155,70652,1,4,0:3:0:0:
303,224,70835,2,0,P|377:241|404:251,1,83.9999974365235,4|0,3:1|0:1,0:1:0:0:
512,235,71201,2,0,P|500:178|500:134,1,83.9999974365235,0|0,3:1|0:1,0:1:0:0:
421,66,71567,2,0,P|388:92|359:125,1,78.7500030040742,8|0,3:2|0:1,0:1:0:0:
371,126,71933,6,0,P|308:129|250:140,1,115.50000352478,2|0,3:2|0:1,0:1:0:0:
191,184,72299,2,0,P|128:173|39:166,1,136.499993751526,4|0,3:1|0:1,0:1:0:0:
2,112,72665,2,0,P|0:72|1:56,1,38.5000011749268,0|0,3:1|0:1,0:1:0:0:
264,221,73031,2,0,P|264:285|263:355,1,90.9999958343508,8|0,3:1|0:1,0:1:0:0:
488,216,73396,2,0,P|484:132|486:31,1,168,0|0,3:1|0:1,0:1:0:0:
489,40,73762,2,0,P|376:108|139:229,1,392,4|0,3:1|2:1,2:1:0:0:
69,205,79616,6,0,P|66:242|67:282,1,70,4|0,3:2|0:2,0:2:0:0:
217,285,80348,2,0,P|216:321|217:363,1,70,4|0,0:2|0:2,0:2:0:0:
122,368,81079,1,4,3:2:0:0:
162,195,81445,1,0,3:2:0:0:
209,32,81811,2,0,P|231:35|260:35,1,41.9999987182618,0|0,0:2|0:2,0:2:0:0:
317,89,82543,1,2,3:2:0:0:
387,38,82909,1,0,0:2:0:0:
448,105,83274,1,4,0:2:0:0:
374,156,83640,1,0,0:2:0:0:
256,228,84006,5,0,3:2:0:0:
256,228,84372,1,0,0:2:0:0:
109,154,84738,2,0,P|130:158|151:163,1,41.9999987182618,0|0,0:2|0:2,0:2:0:0:
36,189,85348,1,0,0:2:0:0:
29,205,85470,2,0,P|34:249|33:308,1,83.9999974365235,2|0,3:2|0:2,0:2:0:0:
161,158,86201,2,0,P|156:114|157:55,1,83.9999974365235,4|0,0:2|0:2,0:2:0:0:
228,210,86933,1,0,3:2:0:0:
304,177,87299,1,0,3:2:0:0:
375,218,87665,2,0,P|404:221|432:223,1,56,0|0,0:2|0:2,0:2:0:0:
279,323,88274,5,0,0:2:0:0:
266,317,88396,2,0,L|219:324,1,46.6666666666667,2|0,3:2|0:2,0:2:0:0:
150,356,88762,2,0,P|107:364|35:375,1,112,0|0,0:2|0:2,0:2:0:0:
29,372,89860,1,0,3:2:0:0:
212,318,90226,1,0,3:2:0:0:
297,372,90591,2,0,L|300:351,1,20.9999993591309,4|0,0:2|0:2,0:2:0:0:
81,303,90957,2,0,L|77:282,1,20.9999993591309,4|0,0:2|0:2,0:2:0:0:
349,238,91323,6,0,P|345:171|369:76,1,146.999995513916,2|0,3:2|0:2,0:2:0:0:
434,51,92055,2,0,L|499:61,1,48.9999985046387,4|0,0:2|0:2,0:2:0:0:
366,100,92421,2,0,L|301:115,1,48.9999985046387,4|0,0:2|0:2,0:2:0:0:
261,176,92787,1,0,3:2:0:0:
50,116,93152,1,0,3:2:0:0:
169,40,93518,2,0,P|171:77|174:102,1,46.6666666666667,0|0,0:2|0:2,0:2:0:0:
120,161,93884,2,0,L|114:227,1,46.6666666666667,0|0,0:2|0:2,0:2:0:0:
166,275,94250,1,2,3:2:0:0:
166,275,94616,2,0,P|211:279|246:282,1,65.3333313395183,0|0,0:2|0:2,0:2:0:0:
287,336,94982,2,0,P|337:338|400:340,1,97.9999970092775,4|0,0:2|0:2,0:2:0:0:
235,272,95713,5,0,3:2:0:0:
278,207,96079,1,0,3:2:0:0:
234,138,96445,1,4,0:2:0:0:
279,71,96811,1,0,0:2:0:0:
152,9,97055,1,0,0:2:0:0:
139,12,97177,2,0,P|135:51|135:119,1,97.9999970092775,2|0,3:2|0:2,0:2:0:0:
380,189,97909,2,0,P|382:163|377:125,1,48.9999985046387,4|0,0:2|0:2,0:2:0:0:
274,25,98274,6,0,L|276:74,1,37.3333333333333,0|0,0:2|0:2,0:2:0:0:
235,124,98640,2,0,L|230:175,1,46.6666666666667,0|0,3:2|0:2,0:2:0:0:
283,227,99006,2,0,L|284:280,2,41.9999987182618,0|4|0,3:2|0:2|0:2,0:2:0:0:
248,344,99982,1,0,0:2:0:0:
257,357,100104,2,0,P|205:350|123:355,1,105.000004005432,2|0,3:2|0:2,0:2:0:0:
84,379,100591,1,0,0:2:0:0:
19,236,100835,2,0,L|20:264,1,24.4999992523194,4|0,0:2|0:2,0:2:0:0:
119,107,101201,2,0,L|116:134,1,24.4999992523194,4|0,0:2|0:2,0:2:0:0:
84,379,101567,5,0,3:2:0:0:
84,379,101933,1,0,3:2:0:0:
152,350,102299,2,0,P|153:292|161:245,1,104.999996795654,4|0,0:2|0:2,0:2:0:0:
167,231,103031,2,0,P|171:270|171:332,1,90.9999958343508,2|0,3:2|0:2,0:2:0:0:
234,379,103762,1,4,0:2:0:0:
293,323,104128,6,0,P|335:320|364:325,1,60.6666638895672,0|0,0:2|0:2,0:2:0:0:
367,340,104494,1,0,3:2:0:0:
445,363,104738,1,0,0:0:0:0:
450,373,104860,1,0,3:2:0:0:
509,313,105104,1,0,0:0:0:0:
512,302,105226,1,4,0:2:0:0:
455,219,105470,1,0,0:0:0:0:
460,229,105591,1,0,0:2:0:0:
368,250,105957,2,0,P|365:196|367:146,1,90.9999958343508,2|0,3:2|0:2,0:2:0:0:
139,254,106689,2,0,P|141:208|140:163,1,90.9999958343508,6|0,0:2|0:2,0:2:0:0:
86,45,107299,1,0,0:2:0:0:
96,35,107421,2,0,P|140:37|165:43,1,56,2|0,3:2|3:2,0:2:0:0:
405,76,108152,6,0,P|377:77|349:82,1,56,4|0,0:2|0:2,0:2:0:0:
236,193,108762,1,0,0:2:0:0:
226,210,108884,2,0,P|237:250|241:334,1,97.9999970092775,2|0,3:2|0:2,0:2:0:0:
249,379,109616,1,4,0:2:0:0:
249,379,109982,2,0,P|248:320|255:292,1,65.3333313395183,0|0,0:2|0:2,0:2:0:0:
314,266,110348,1,0,3:2:0:0:
176,289,110713,1,0,3:2:0:0:
37,259,111079,1,4,0:2:0:0:
431,300,111445,1,0,0:2:0:0:
442,310,111811,2,0,P|443:232|445:191,1,112,0|4,0:2|0:2,0:2:0:0:
108,68,113640,5,8,0:2:0:0:
0,295,113823,5,4,0:3:0:0:
7,292,113915,1,4,0:3:0:0:
14,290,114006,2,0,L|59:298,1,42,12|0,3:1|0:0,0:0:0:0:
117,345,114372,1,2,0:2:0:0:
344,274,114555,1,2,0:2:0:0:
500,320,114738,6,0,P|443:327|380:338,1,97.9999970092774,4|0,3:1|0:1,0:1:0:0:
298,191,115104,2,0,P|326:257|343:308,1,97.9999970092774,0|0,3:1|0:1,0:1:0:0:
123,354,115470,6,0,P|153:258|190:164,1,178.500003404617,12|0,3:1|0:1,0:1:0:0:
239,120,115835,1,0,3:1:0:0:
125,277,116018,1,0,0:1:0:0:
211,354,116201,1,4,3:1:0:0:
232,346,116384,1,0,0:1:0:0:
52,126,116567,2,0,P|26:201|-5:315,1,178.500003404617,4|0,3:2|0:1,0:1:0:0:
0,384,116933,2,0,L|33:371,1,28,8|0,3:1|0:1,0:1:0:0:
43,120,117299,5,4,0:3:0:0:
64,209,117482,1,4,0:3:0:0:
131,23,117665,2,0,P|123:40|116:57,1,28,4|0,3:1|0:1,0:1:0:0:
200,84,118031,2,0,P|207:68|214:51,1,28,0|0,3:1|0:1,0:1:0:0:
208,180,118396,1,8,3:1:0:0:
509,62,118579,2,0,P|523:32|527:24,1,25.6666674499512,0|0,0:0|2:0,0:0:0:0:
402,22,118762,2,0,P|413:51|431:114,1,77.0000023498536,0|8,3:1|0:2,0:1:0:0:
355,352,119128,5,4,3:1:0:0:
346,324,119311,1,8,0:2:0:0:
256,247,119494,5,0,3:1:0:0:
415,280,119677,1,8,0:2:0:0:
333,114,119860,6,0,P|375:107|435:92,1,94.499997116089,8|0,3:1|0:1,0:1:0:0:
426,83,120226,6,0,P|404:133|378:215,1,97.9999970092774,0|0,3:1|0:1,0:1:0:0:
181,188,120591,2,0,P|166:105|138:1,1,168,4|0,3:1|0:1,0:1:0:0:
137,20,120957,6,0,B|114:54|114:54|144:100,1,83.9999974365235,0|0,3:1|0:1,0:1:0:0:
333,100,121323,2,0,B|356:66|356:66|326:20,1,83.9999974365235,8|0,3:1|0:1,0:1:0:0:
13,128,121689,5,0,3:1:0:0:
50,117,121872,1,0,0:1:0:0:
192,157,122055,1,4,3:1:0:0:
329,107,122238,1,0,0:1:0:0:
505,153,122421,2,0,P|431:162|375:177,1,105.000004005432,4|0,3:2|0:1,0:1:0:0:
66,223,122787,2,0,P|132:238|185:254,1,105.000004005432,8|0,3:1|0:1,0:1:0:0:
252,24,123152,5,0,3:1:0:0:
257,44,123335,1,0,0:1:0:0:
254,294,123518,2,0,P|258:222|288:100,1,178.500003404617,4|0,3:1|0:1,0:1:0:0:
340,63,123884,1,4,3:2:0:0:
220,367,124067,2,0,P|161:359|160:359,1,39.6666674232483,0|0,0:0|2:0,0:0:0:0:
57,315,124250,6,0,P|54:270|49:219,1,77.0000023498536,8|0,3:1|0:1,0:1:0:0:
406,286,124616,2,0,P|406:247|411:209,1,77.0000023498536,0|8,3:1|0:2,0:1:0:0:
45,230,124982,5,4,3:1:0:0:
133,253,125165,1,8,0:2:0:0:
472,166,125348,1,8,3:3:0:0:
329,220,125531,1,0,0:1:0:0:
272,379,125713,6,0,P|267:319|255:273,1,94.499997116089,8|0,3:1|0:1,0:1:0:0:
219,213,126079,1,4,0:3:0:0:
281,32,126262,1,4,0:3:0:0:
3,96,126445,6,0,P|57:93|115:102,1,90.9999958343508,4|0,3:1|0:1,0:1:0:0:
151,160,126811,1,0,3:1:0:0:
151,160,126994,1,0,0:1:0:0:
436,29,127177,2,0,P|366:19|246:45,1,157.500006008148,8|0,3:1|0:1,0:1:0:0:
270,41,127543,6,0,P|262:99|267:135,1,83.9999974365235,0|0,3:2|0:1,0:1:0:0:
236,365,127909,2,0,P|244:307|239:271,1,83.9999974365235,4|0,3:1|0:1,0:1:0:0:
270,41,128274,2,0,P|265:63|266:123,1,78.7500030040742,4|0,3:2|0:1,0:1:0:0:
289,197,128640,1,8,3:1:0:0:
236,365,129006,5,0,3:1:0:0:
233,346,129189,1,0,0:1:0:0:
54,122,129372,2,0,P|49:189|50:283,1,146.999995513916,4|0,3:1|0:1,0:1:0:0:
57,335,129738,2,0,P|59:281|54:234,1,70,4|0,3:2|0:1,0:1:0:0:
133,176,130104,1,8,3:1:0:0:
246,220,130287,1,0,0:1:0:0:
372,171,130470,1,0,3:1:0:0:
479,224,130652,5,8,0:2:0:0:
243,137,130835,5,4,3:1:0:0:
8,220,131018,5,8,0:2:0:0:
251,27,131201,6,0,P|256:79|256:132,1,105.000004005432,4|8,3:2|3:1,0:1:0:0:
399,25,131933,6,0,P|405:63|404:98,1,70,0|0,3:1|0:1,0:1:0:0:
246,133,132299,2,0,P|246:187|241:243,1,97.9999970092775,4|0,3:1|0:1,0:1:0:0:
11,308,132665,2,0,P|55:280|185:314,1,157.500006008148,0|0,3:1|0:1,0:1:0:0:
161,301,133031,2,0,P|154:270|163:222,1,77.0000023498536,8|0,3:1|3:1,0:1:0:0:
370,330,133762,6,0,P|387:281|368:176,1,136.499993751526,4|0,3:1|0:1,0:1:0:0:
326,138,134128,2,0,B|232:132|158:133,1,157.500006008148,0|0,3:1|0:1,0:1:0:0:
105,81,134494,2,0,L|59:87,2,38.5000011749268,8|0|0,3:1|0:1|3:1,0:1:0:0:
512,303,135226,6,0,P|392:283|117:247,1,392,4|0,3:1|0:1,0:1:0:0:
62,317,138152,5,4,3:1:0:0:
232,231,138335,1,0,0:1:0:0:
106,151,138518,2,0,P|114:204|116:254,1,87.5000033378602,0|0,3:1|0:1,0:1:0:0:
124,247,138884,2,0,P|118:177|136:70,1,163.333328348796,8|0,3:1|0:1,0:1:0:0:
189,30,139250,5,4,3:2:0:0:
295,75,139433,1,0,0:1:0:0:
440,20,139616,2,0,P|455:67|444:138,1,111.999996582031,4|0,3:1|0:1,0:1:0:0:
281,219,139982,2,0,P|267:166|285:81,1,139.999995727539,0|0,3:1|0:1,0:1:0:0:
295,75,140348,5,8,3:1:0:0:
439,137,140531,1,0,0:1:0:0:
368,278,140713,2,0,L|431:274,1,62.9999980773926,0|0,3:1|0:1,0:1:0:0:
158,371,141079,2,0,L|87:359,1,64.166668624878,4|0,3:1|0:1,0:1:0:0:
46,307,141445,5,0,3:1:0:0:
113,190,141628,1,0,0:1:0:0:
233,261,141811,1,8,3:1:0:0:
167,369,141994,1,0,0:1:0:0:
438,284,142177,5,0,3:1:0:0:
388,348,142360,1,8,0:2:0:0:
500,370,142543,6,0,P|453:360|385:348,1,90.9999958343508,4|8,3:1|0:2,0:1:0:0:
49,216,142909,2,0,P|113:231|220:255,1,175.00000667572,4|0,3:2|0:1,0:1:0:0:
264,317,143274,1,8,3:1:0:0:
208,257,143457,1,0,0:1:0:0:
363,204,143640,2,0,L|339:251,1,52.5000020027161,4|0,3:2|0:1,0:1:0:0:
460,27,144006,5,4,3:1:0:0:
415,111,144189,1,0,0:1:0:0:
363,204,144372,2,0,P|350:231|337:265,1,64.166668624878,4|0,3:2|0:1,0:1:0:0:
371,330,144738,1,8,3:1:0:0:
498,298,144921,1,0,0:1:0:0:
221,249,145104,1,0,3:1:0:0:
221,249,145287,2,0,P|158:264|124:274,1,97.9999970092775,0|4,0:1|3:1,0:1:0:0:
356,71,145652,2,0,P|303:77|194:98,1,163.333328348796,0|0,0:1|0:1,0:1:0:0:
109,122,146018,2,0,P|85:162|103:197,1,70,0|8,0:1|3:1,0:1:0:0:
200,88,146384,1,0,0:1:0:0:
328,153,146567,1,0,3:1:0:0:
483,53,146750,1,0,0:1:0:0:
423,0,146933,6,0,P|394:24|397:81,1,90.9999958343508,4|0,3:1|0:1,0:1:0:0:
89,0,147299,2,0,P|118:24|115:81,1,90.9999958343508,4|0,3:2|0:1,0:1:0:0:
256,192,147665,5,8,3:1:0:0:
256,192,147848,1,0,0:1:0:0:
253,284,148031,1,0,3:2:0:0:
247,108,148213,1,8,0:2:0:0:
361,247,148396,6,0,B|385:206|385:206|364:165,1,90.9999958343508,4|8,3:1|0:2,0:1:0:0:
138,171,148762,2,0,B|118:209|118:209|142:250,1,90.9999958343508,4|0,3:2|0:1,0:1:0:0:
242,103,149128,2,0,P|306:96|384:91,1,112,8|0,3:1|0:1,0:1:0:0:
169,66,149494,1,4,0:3:0:0:
99,16,149677,1,4,0:3:0:0:
105,21,149738,1,4,0:3:0:0:
33,128,149860,6,2,P|66:121|244:102,1,210.000008010865,6|8,3:1|3:1,0:1:0:0:
312,66,150957,5,2,3:1:0:0:
319,71,151018,1,0,0:1:0:0:
277,173,151140,5,2,3:1:0:0:
283,179,151201,1,0,0:1:0:0:
358,139,151323,6,2,P|422:152|455:159,1,87.5000033378602,6|0,3:1|0:1,0:1:0:0:
457,160,151689,2,0,P|460:110|457:77,1,70.0000026702882,0|2,3:1|0:1,0:1:0:0:
452,77,151994,1,0,0:1:0:0:
472,68,152055,2,0,L|482:20,1,35.0000013351441,10|0,3:1|0:1,0:1:0:0:
405,239,152421,2,0,L|427:311,1,64.166668624878,2|0,3:1|0:1,0:1:0:0:
431,313,152787,6,2,P|362:328|294:344,1,128.333337249756,6|2,3:1|0:1,0:1:0:0:
227,324,153152,2,2,P|188:304|176:246,1,102.666669799805,2|2,3:1|0:1,0:1:0:0:
257,163,153518,1,10,3:1:0:0:
141,117,153701,1,0,0:1:0:0:
131,122,153762,2,0,L|113:186,1,60.6666638895672,0|2,0:1|3:1,0:1:0:0:
83,54,154006,5,4,0:3:0:0:
160,26,154128,1,2,0:1:0:0:
277,71,154250,2,0,P|356:60|418:57,2,125.999996154785,6|0|10,3:1|3:1|3:1,0:1:0:0:
496,138,155165,1,0,0:1:0:0:
216,235,155348,2,2,P|216:191|218:147,1,87.5000033378602,2|2,3:1|0:1,0:1:0:0:
207,139,155713,6,0,P|171:133|145:132,1,60.6666638895672,6|0,3:1|0:1,0:1:0:0:
67,101,155957,2,0,P|52:132|63:166,1,60.6666638895672,2|2,0:1|3:1,0:1:0:0:
72,246,156201,2,0,P|118:232|129:205,1,60.6666638895672,2|2,0:1|0:1,0:1:0:0:
218,147,156445,2,0,P|252:147|297:154,1,70.0000026702882,8|0,3:1|0:1,0:1:0:0:
381,115,156811,2,0,P|401:114|414:113,2,25.6666674499512,2|2|2,3:1|0:1|0:1,0:1:0:0:
366,205,157177,6,0,P|392:247|476:230,1,140.000005340576,4|0,3:1|0:1,0:1:0:0:
472,222,157543,2,2,P|427:236|380:382,1,210.000008010865,2|10,0:1|3:1,0:1:0:0:
110,57,158274,2,0,P|129:41|135:6,1,56,0|0,3:1|0:1,0:1:0:0:
14,210,158640,6,2,B|71:192|71:192|218:217,1,186.666666666667,6|2,3:1|0:1,0:1:0:0:
261,170,159006,2,2,L|383:263,1,139.999995727539,2|2,3:1|0:1,0:1:0:0:
393,333,159372,6,2,P|412:269|455:133,1,198.333337116242,10|2,3:1|0:1,0:1:0:0:
506,84,159738,1,0,0:1:0:0:
359,134,159921,1,8,0:2:0:0:
359,134,160104,1,4,3:1:0:0:
306,24,160287,2,2,P|372:38|436:54,1,105.000004005432,2|2,0:1|3:1,0:1:0:0:
1,318,160835,2,0,P|59:329|188:357,1,175.00000667572,8|0,3:1|0:1,0:1:0:0:
246,382,161201,6,0,P|264:348|245:303,1,70,0|0,3:1|0:1,0:1:0:0:
256,192,161567,12,4,163031,1:2:0:0:
254,27,163396,5,8,0:2:0:0:
237,370,163579,5,4,0:3:0:0:
236,356,163671,1,4,0:3:0:0:
246,342,163762,2,0,P|270:327|306:315,1,56,12|0,3:1|0:0,0:0:0:0:
494,90,164494,5,4,3:1:0:0:
415,126,164677,1,0,0:1:0:0:
201,0,164860,1,0,3:1:0:0:
226,11,165043,1,0,0:1:0:0:
245,370,165226,2,0,P|245:314|230:203,1,146.999995513916,8|0,3:1|0:1,0:1:0:0:
168,175,165591,5,4,3:2:0:0:
93,214,165774,1,0,0:1:0:0:
328,254,165957,1,4,3:1:0:0:
398,174,166140,1,0,0:1:0:0:
229,11,166323,2,0,P|225:69|233:126,1,97.9999970092775,4|0,3:2|0:1,0:1:0:0:
404,71,166689,2,0,P|401:128|407:178,1,94.499997116089,8|0,3:1|0:1,0:1:0:0:
398,174,167055,6,0,L|352:183,1,45.4999979171754,4|4,0:3|0:3,0:1:0:0:
270,292,167421,2,0,P|204:279|133:281,1,97.9999970092774,4|0,3:1|0:1,0:1:0:0:
27,312,167787,1,4,3:2:0:0:
49,103,167970,2,0,P|51:153|37:302,1,195.999994018555,0|8,0:2|0:2,0:1:0:0:
16,23,168518,5,4,3:2:0:0:
61,94,168701,1,0,0:2:0:0:
135,55,168884,1,4,3:1:0:0:
149,36,169067,1,8,0:2:0:0:
171,150,169250,1,4,3:2:0:0:
177,171,169433,1,0,0:1:0:0:
355,107,169616,2,0,P|321:124|256:85,1,105,8|0,3:1|0:1,0:1:0:0:
269,87,169982,6,0,P|293:115|292:174,1,70,0|0,3:1|0:1,0:1:0:0:
77,226,170348,2,0,P|46:177|68:109,1,105.000004005432,4|0,3:1|0:1,0:1:0:0:
152,286,170713,2,0,P|188:271|201:217,1,78.7500030040742,0|0,3:1|0:1,0:1:0:0:
193,235,171079,2,0,P|223:268|334:257,1,136.499993751526,8|0,3:1|0:1,0:1:0:0:
436,304,171445,6,0,P|443:232|453:95,1,178.500003404617,4|0,3:2|0:1,0:1:0:0:
438,48,171811,2,0,P|465:130|472:150,1,77.0000023498536,4|0,3:1|0:1,0:1:0:0:
138,150,172177,2,0,P|124:186|109:221,1,77.0000023498536,4|0,3:2|0:1,0:1:0:0:
220,68,172543,2,0,P|238:136|249:188,1,115.50000352478,8|0,3:1|0:1,0:1:0:0:
273,0,172909,5,4,0:3:0:0:
273,0,173091,1,4,0:3:0:0:
217,76,173274,2,0,P|237:164|253:273,1,168,4|0,3:1|0:1,0:1:0:0:
231,313,173640,1,0,3:1:0:0:
97,234,173823,1,0,0:1:0:0:
217,76,174006,2,0,P|237:164|255:277,1,168,8|0,3:1|0:1,0:1:0:0:
231,313,174372,5,0,3:1:0:0:
377,254,174555,1,8,0:2:0:0:
500,294,174738,5,4,3:1:0:0:
368,241,174921,1,8,0:2:0:0:
238,325,175104,2,0,P|203:334|163:349,1,62.9999980773926,8|0,3:3|0:1,0:1:0:0:
335,377,175470,5,8,3:1:0:0:
335,377,175652,1,0,0:1:0:0:
91,306,175835,1,4,0:3:0:0:
91,306,176018,1,4,0:3:0:0:
13,351,176201,6,0,B|-7:303|-7:303|20:243,1,97.9999970092775,4|0,3:1|0:1,0:1:0:0:
19,72,176567,2,0,P|22:114|24:184,1,97.9999970092775,0|0,3:1|0:1,0:1:0:0:
230,248,176933,2,0,P|233:169|250:49,1,178.500003404617,8|0,3:1|0:1,0:1:0:0:
291,6,177299,5,0,3:1:0:0:
334,102,177482,1,0,0:1:0:0:
212,150,177665,1,4,3:1:0:0:
164,44,177848,1,0,0:1:0:0:
388,42,178031,2,0,P|454:80|432:203,1,178.500003404617,4|0,3:2|0:1,0:1:0:0:
408,241,178396,2,0,P|350:246|263:245,1,125.999996154785,8|0,3:1|0:1,0:1:0:0:
214,287,178762,5,0,3:1:0:0:
466,196,178945,1,0,0:1:0:0:
197,111,179128,2,0,P|145:142|146:256,1,168,4|0,3:1|0:1,0:1:0:0:
192,291,179494,1,4,3:2:0:0:
54,116,179677,2,0,P|46:88|35:75,2,38.5000011749268,0|8|0,0:1|3:1|0:1,0:1:0:0:
12,190,180226,5,4,3:2:0:0:
147,175,180409,1,8,0:2:0:0:
230,203,180591,1,4,3:1:0:0:
369,167,180774,1,8,0:2:0:0:
490,194,180957,1,0,3:1:0:0:
483,208,181140,1,8,0:2:0:0:
295,0,181323,2,0,P|297:54|291:185,1,168,8|0,3:1|0:1,0:1:0:0:
260,283,181689,5,0,3:1:0:0:
260,283,181872,1,0,0:1:0:0:
191,32,182055,2,0,B|166:69|166:69|188:112,1,90.9999958343508,4|0,3:1|0:1,0:1:0:0:
387,123,182421,2,0,B|409:82|409:82|384:45,1,90.9999958343508,4|0,3:2|0:1,0:1:0:0:
82,122,182787,2,0,P|77:78|66:42,1,62.9999980773926,8|0,3:1|0:1,0:1:0:0:
479,162,183152,2,0,P|481:142|495:103,1,48.9999985046387,4|0,3:2|0:1,0:1:0:0:
428,238,183518,5,4,3:1:0:0:
504,278,183701,1,8,3:3:0:0:
187,190,183884,5,0,3:2:0:0:
271,164,184067,1,8,3:2:0:0:
261,374,184250,5,8,3:1:0:0:
382,40,184433,1,8,0:2:0:0:
261,374,184616,1,8,3:2:0:0:
347,337,184799,1,12,0:3:0:0:
33,139,184982,6,0,P|10:208|99:283,1,178.500003404617,4|0,3:1|0:1,0:1:0:0:
144,243,185348,2,0,P|199:253|274:271,1,119.000002269745,0|0,3:1|0:1,0:1:0:0:
483,88,185713,2,0,P|486:50|451:18,1,84,8|0,3:1|0:1,0:1:0:0:
382,40,186079,5,0,3:1:0:0:
290,1,186262,1,0,0:1:0:0:
197,55,186445,1,4,3:1:0:0:
105,36,186628,1,0,0:1:0:0:
361,148,186811,2,0,P|364:102|370:57,1,90.9999958343508,8|0,3:3|0:1,0:1:0:0:
180,237,187177,2,0,P|187:178|198:126,1,90.9999958343508,8|0,3:1|0:1,0:1:0:0:
39,310,187543,5,4,0:3:0:0:
39,310,187726,1,4,0:3:0:0:
270,352,187909,2,0,P|336:350|465:369,1,178.500003404617,4|0,3:1|0:1,0:1:0:0:
512,318,188274,2,0,P|502:267|496:213,1,77.0000023498536,4|0,3:2|0:1,0:1:0:0:
363,192,188640,2,0,P|367:162|372:123,1,48.9999985046387,8|0,3:1|0:1,0:1:0:0:
434,80,189006,5,0,3:1:0:0:
362,136,189189,1,8,0:2:0:0:
250,105,189372,1,4,3:1:0:0:
173,192,189555,1,8,0:2:0:0:
76,237,189738,1,0,3:1:0:0:
116,333,189921,1,8,0:2:0:0:
0,128,190104,2,0,P|45:132|129:148,1,115.50000352478,8|0,3:1|0:1,0:1:0:0:
173,192,190470,6,0,P|225:187|264:181,1,78.7500030040742,0|0,3:1|0:1,0:1:0:0:
314,146,190835,2,0,P|270:185|286:279,1,146.999995513916,4|0,3:1|0:1,0:1:0:0:
328,322,191201,2,0,P|356:281|350:233,1,83.9999974365235,4|0,3:2|0:1,0:1:0:0:
331,60,191567,2,0,L|406:78,1,62.9999980773926,8|0,3:1|0:1,0:1:0:0:
449,30,191933,6,0,L|226:129,1,188.999994232178,4|0,3:2|0:1,0:1:0:0:
198,85,192299,2,0,P|158:46|174:0,1,105.000004005432,4|4,0:1|0:1,0:1:0:0:
276,106,192665,1,4,3:2:0:0:
276,106,192848,1,0,0:1:0:0:
181,327,193031,2,0,B|199:204|199:204|162:134,1,168,8|0,3:1|0:1,0:1:0:0:
99,143,193396,5,0,3:1:0:0:
341,246,193579,1,0,0:1:0:0:
495,123,193762,2,0,B|473:171|473:171|487:263,1,112,4|0,3:1|0:1,0:1:0:0:
319,351,194128,2,0,P|327:296|333:238,1,97.9999970092774,4|0,3:2|0:1,0:1:0:0:
0,294,194494,2,0,P|99:308|186:326,1,168,8|0,3:1|0:1,0:1:0:0:
242,367,194860,5,0,3:1:0:0:
191,249,195043,1,8,0:2:0:0:
11,309,195226,5,4,3:1:0:0:
0,382,195409,1,8,0:2:0:0:
78,350,195591,5,0,3:1:0:0:
336,271,195774,1,0,0:2:0:0:
379,331,195957,5,8,0:1:0:0:
94,225,196140,1,0,0:1:0:0:
235,337,196323,5,4,0:3:0:0:
241,367,196506,1,4,0:3:0:0:
275,183,196689,6,0,P|286:112|288:9,1,157.500006008148,4|0,3:1|0:1,0:1:0:0:
283,16,197055,2,0,P|288:81|298:112,1,77.0000023498536,4|0,3:2|0:1,0:1:0:0:
84,218,197421,2,0,P|160:209|231:215,1,112,8|0,3:1|0:1,0:1:0:0:
15,179,197787,5,0,3:1:0:0:
0,286,197970,1,0,0:1:0:0:
159,375,198152,1,4,3:1:0:0:
306,264,198335,1,0,0:1:0:0:
85,233,198518,2,0,P|161:224|238:231,1,125.999996154785,4|8,3:2|3:1,0:1:0:0:
11,17,199250,5,0,3:1:0:0:
18,36,199433,1,0,0:1:0:0:
126,113,199616,2,0,P|194:119|320:75,1,188.999994232178,4|0,3:1|0:1,0:1:0:0:
345,12,199982,1,0,3:2:0:0:
500,82,200165,1,0,0:1:0:0:
442,229,200348,1,8,3:1:0:0:
277,158,200531,1,0,0:1:0:0:
454,222,200713,5,4,3:2:0:0:
349,283,200896,1,8,0:2:0:0:
168,200,201079,1,4,3:1:0:0:
8,310,201262,1,8,0:2:0:0:
179,178,201445,1,4,3:2:0:0:
379,305,201628,1,8,0:2:0:0:
229,381,201811,2,0,P|234:329|230:291,1,73.4999977569581,8|0,3:1|0:1,0:1:0:0:
279,248,202177,5,0,3:1:0:0:
220,6,202543,1,4,3:1:0:0:
279,248,202909,1,0,3:1:0:0:
5,78,203274,6,0,B|94:78|129:86,1,105,8|0,3:1|0:1,0:1:0:0:
168,147,203640,1,0,3:1:0:0:
123,321,203823,1,0,0:1:0:0:
5,78,204006,6,0,B|94:78|131:84,1,125.999996154785,4|0,3:1|0:1,0:1:0:0:
319,56,204372,2,0,P|405:54|448:182,1,188.999994232178,4|0,3:2|0:1,0:1:0:0:
450,139,204738,2,0,P|455:97|475:74,1,52.5000020027161,8|0,3:1|0:1,0:1:0:0:
489,208,205104,5,0,3:1:0:0:
427,268,205287,1,0,0:1:0:0:
246,198,205470,2,0,P|235:252|241:308,1,112,4|0,3:1|0:1,0:1:0:0:
217,125,205835,2,0,B|241:75|241:75|220:22,1,105.000004005432,4|0,3:2|0:1,0:1:0:0:
13,136,206201,2,0,P|79:140|132:145,1,115.50000352478,8|0,3:1|0:1,0:1:0:0:
141,138,206567,6,0,P|78:160|-7:236,1,168,4|0,3:2|0:1,0:1:0:0:
16,298,206933,1,4,3:1:0:0:
153,359,207116,1,8,0:2:0:0:
340,288,207299,1,8,3:3:0:0:
417,309,207482,1,8,0:2:0:0:
158,364,207665,1,8,3:1:0:0:
158,364,207848,1,0,0:1:0:0:
417,309,208031,1,4,0:3:0:0:
447,299,208213,1,4,0:3:0:0:
486,205,208396,6,0,B|511:136|511:136|485:67,1,140,4|0,3:1|0:0,0:0:0:0:
15,112,209128,2,0,B|-8:174|-8:174|16:243,1,140
250,370,209860,5,4,3:1:0:0:
234,16,210226,5,0,0:0:0:0:
232,378,210591,6,0,P|240:278|261:217,1,140
107,34,211323,6,0,P|147:86|403:124,1,336,0|0,0:0|0:0,2:0:0:0:
341,70,216445,6,0,P|270:86|193:182,1,192.500007343293
194,247,217177,6,0,P|311:266|411:286,1,195.999994018555,4|0,3:1|3:1,0:1:0:0:
108,257,217909,2,0,P|116:187|113:70,1,146.999995513916,8|0,3:1|0:1,0:1:0:0:
83,36,218274,2,0,P|41:82|50:107,1,70,0|0,3:1|0:1,0:1:0:0:
199,243,218640,6,0,P|302:229|421:225,1,210.000008010865,4|0,3:1|3:1,0:1:0:0:
494,14,219372,2,0,P|466:139|467:213,1,157.500006008148,8|0,3:1|0:1,0:1:0:0:
418,232,219738,1,0,3:1:0:0:
490,269,219921,1,0,0:1:0:0:
133,203,220104,2,0,B|107:245|107:245|144:307,1,90.9999958343508,4|0,3:1|0:1,0:1:0:0:
355,164,220470,2,0,B|376:128|376:128|350:86,1,90.9999958343508,0|0,3:1|0:1,0:1:0:0:
96,10,220835,2,0,P|145:21|218:47,1,105,8|0,3:1|0:1,0:1:0:0:
238,103,221201,1,0,3:1:0:0:
373,12,221384,1,8,0:2:0:0:
230,115,221567,5,4,3:1:0:0:
257,195,221750,1,8,0:2:0:0:
489,262,221933,1,0,3:1:0:0:
413,280,222116,1,0,0:1:0:0:
347,160,222299,5,8,3:1:0:0:
446,176,222482,1,0,0:1:0:0:
179,260,222665,5,4,3:2:0:0:
27,293,222848,1,0,0:1:0:0:
265,318,223031,5,4,3:1:0:0:
259,302,223213,1,0,0:1:0:0:
350,154,223396,2,0,P|378:156|397:159,1,41.9999987182618,4|0,3:2|0:1,0:1:0:0:
179,260,223762,5,8,3:1:0:0:
27,293,223945,1,0,0:1:0:0:
138,365,224128,1,4,3:2:0:0:
69,197,224311,1,0,0:1:0:0:
210,73,224494,5,4,3:1:0:0:
245,142,224677,1,0,0:1:0:0:
0,25,224860,2,0,P|33:21|48:21,1,41.9999987182618,4|0,0:2|0:1,0:1:0:0:
253,146,225226,5,8,3:1:0:0:
322,25,225409,1,0,0:1:0:0:
246,156,225591,1,4,3:2:0:0:
48,26,225774,1,0,0:1:0:0:
380,83,225957,6,0,P|433:62|488:39,1,105,4|0,3:1|0:1,0:1:0:0:
474,36,226323,2,0,P|454:59|448:79,1,38.5000011749268,4|0,3:2|0:1,0:1:0:0:
281,250,226689,5,8,3:1:0:0:
422,297,226872,2,0,P|429:240|432:191,1,90.9999958343508,0|4,0:1|3:2,0:1:0:0:
474,359,227238,1,8,0:2:0:0:
277,383,227421,1,4,3:1:0:0:
114,253,227604,2,0,P|107:196|104:147,1,90.9999958343508,8|4,0:2|3:2,0:1:0:0:
76,327,227970,2,0,P|57:340|7:377,1,62.9999980773926,0|8,0:1|3:1,0:1:0:0:
150,362,228335,1,0,0:1:0:0:
192,288,228518,1,4,0:3:0:0:
108,251,228701,1,4,0:3:0:0:
312,223,228884,1,4,3:1:0:0:
395,262,229067,1,0,0:1:0:0:
91,159,229250,1,4,3:2:0:0:
232,12,229433,6,0,P|236:65|238:114,1,90.9999958343508,0|8,0:1|3:1,0:1:0:0:
258,384,229799,1,0,0:1:0:0:
292,305,229982,2,0,P|298:257|310:209,1,90.9999958343508,0|0,3:1|0:1,0:1:0:0:
63,241,230348,2,0,P|79:163|92:127,1,90.9999958343508,4|0,3:1|0:1,0:1:0:0:
235,12,230713,6,0,P|240:67|242:114,1,84,0|0,3:1|0:1,0:1:0:0:
222,168,231079,1,8,3:1:0:0:
300,208,231262,1,0,0:1:0:0:
485,120,231445,1,0,3:1:0:0:
507,108,231628,1,0,0:1:0:0:
462,315,231811,6,0,B|482:273|482:273|460:235,1,83.9999974365235,4|0,3:1|0:1,0:1:0:0:
211,170,232177,2,0,B|192:202|192:202|212:244,1,83.9999974365235,0|0,3:1|0:1,0:1:0:0:
507,108,232543,6,0,P|463:97|443:92,2,62.9999980773926,8|0|0,3:1|0:1|3:1,0:1:0:0:
365,108,233091,1,8,0:2:0:0:
240,36,233274,1,4,3:1:0:0:
24,82,233457,2,0,P|89:90|153:101,2,105.000004005432,8|0|0,0:2|3:1|0:1,0:1:0:0:
240,36,234006,1,8,3:1:0:0:
226,157,234189,1,0,0:1:0:0:
256,233,234372,1,0,3:1:0:0:
224,361,234555,1,0,0:1:0:0:
420,371,234738,6,2,P|412:299|424:120,1,251.999992309571,6|10,3:1|3:1,0:1:0:0:
423,120,235835,1,0,3:1:0:0:
88,108,236201,6,2,P|101:233|96:332,1,209.999993591309,6|2,3:1|0:1,0:1:0:0:
56,251,236933,2,2,B|141:228|141:228|198:262|198:262|233:253,1,163.333328348796,10|2,3:1|0:1,0:1:0:0:
272,292,237299,2,0,P|312:280|388:263,1,116.666666666667,0|0,3:1|0:1,0:1:0:0:
456,280,237665,6,0,P|464:240|448:213,1,60.6666638895672,6|2,3:1|0:1,0:1:0:0:
343,158,237909,2,0,P|342:125|363:102,1,60.6666638895672,2|2,0:1|3:1,0:1:0:0:
384,30,238152,2,0,P|429:38|461:112,2,121.333327779134,0|10|2,0:1|3:1|0:1,0:1:0:0:
264,76,238762,6,0,L|250:13,1,60.6666638895672,2|2,3:1|0:1,0:1:0:0:
179,17,238945,2,0,L|165:86,1,60.6666638895672,10|2,0:2|0:1,0:1:0:0:
108,125,239128,5,6,3:1:0:0:
274,84,239311,1,8,0:2:0:0:
94,133,239494,2,2,P|103:201|110:266,1,125.999996154785,2|8,3:1|3:1,0:1:0:0:
108,125,240226,6,2,L|153:138,1,37.3333333333333,4|0,0:3|0:1,0:1:0:0:
201,184,240409,2,2,L|232:151,1,37.3333333333333,4|0,0:3|0:1,0:1:0:0:
256,192,240591,12,0,250287,0:1:0:0:
