osu file format v14

[General]
AudioFilename: audio.mp3
AudioLeadIn: 0
PreviewTime: 113053
Countdown: 0
SampleSet: Soft
StackLeniency: 0.7
Mode: 0
LetterboxInBreaks: 0
WidescreenStoryboard: 1

[Editor]
Bookmarks: 7699,15258,30376,45494,53053,60612,68171,75730,90848,105966,113525,128643,143762
DistanceSpacing: 1.4
BeatDivisor: 2
GridSize: 16
TimelineZoom: 0.9999999

[Metadata]
Title:Let Go
TitleUnicode:Let Go
Artist:OLIVIA inspi' REIRA(TRAPNEST)
ArtistUnicode:OLIVIA inspi' REIRA(TRAPNEST)
Creator:Florescence
Version:Normal
Source:NANA―ナナ―
Tags:Olivia Lufkin a little pain nana ナナ anime japanese english pop j-pop jpop rock jrock j-rock glam misho15_701_4_0 misho1570140 misho
BeatmapID:4083992
BeatmapSetID:1968929

[Difficulty]
HPDrainRate:3
CircleSize:3
OverallDifficulty:4
ApproachRate:5
SliderMultiplier:1.1
SliderTickRate:1

[Events]
//Background and Video events
0,0,"nana3.jpg",0,0
//Break Periods
//Storyboard Layer 0 (Background)
//Storyboard Layer 1 (Fail)
//Storyboard Layer 2 (Pass)
//Storyboard Layer 3 (Foreground)
//Storyboard Layer 4 (Overlay)
//Storyboard Sound Samples

[TimingPoints]
140,472.44094488189,4,2,1,40,1,0
140,-125,4,2,1,40,0,0
7699,-111.111111111111,4,2,1,59,0,0
45494,-111.111111111111,4,2,1,65,0,0
53053,-83.3333333333333,4,2,1,75,0,0
68171,-111.111111111111,4,2,1,56,0,0
75730,-100,4,2,1,64,0,0
105966,-100,4,2,1,69,0,0
113525,-83.3333333333333,4,2,1,81,0,0
128643,-83.3333333333333,4,2,1,71,0,0

[Colours]
Combo1 : 195,195,195
Combo2 : 226,173,255
Combo3 : 249,172,174
Combo4 : 203,186,180
Combo5 : 159,210,223
Combo6 : 198,218,146
Combo7 : 225,164,113
Combo8 : 130,242,166

[HitObjects]
58,195,140,6,0,P|113:186|159:177,1,88,0|0,0:1|0:1,0:1:0:0:
205,116,1084,2,0,P|240:109|279:103,1,44,0|0,0:1|0:1,0:1:0:0:
338,94,1793,5,0,0:1:0:0:
338,94,2029,2,0,P|364:155|345:193,1,88,0|0,0:1|0:1,0:1:0:0:
308,244,2974,2,0,P|269:252|239:256,1,44,0|0,0:1|0:1,0:1:0:0:
183,237,3683,5,0,0:1:0:0:
183,237,3919,2,0,P|170:142|168:115,1,88,0|0,0:1|0:1,0:1:0:0:
85,128,4864,2,0,P|93:187|94:210,1,44,0|0,0:1|0:1,0:1:0:0:
52,252,5573,5,0,0:1:0:0:
52,252,5809,2,0,P|96:292|157:284,1,88,0|0,0:1|0:1,0:1:0:0:
211,320,6754,1,0,0:1:0:0:
211,322,6990,2,0,P|280:313|310:276,1,88,0|0,0:1|0:1,0:1:0:0:
286,253,7699,6,0,P|286:181|280:106,1,98.9999969787598,0|8,3:1|0:1,0:1:0:0:
232,69,8643,2,0,P|187:100|162:117,1,49.4999984893799,0|0,3:1|3:1,0:1:0:0:
141,92,9116,2,0,P|112:78|90:71,1,49.4999984893799,8|0,0:1|3:1,0:1:0:0:
55,101,9588,6,0,P|58:169|100:191,1,98.9999969787598,0|8,3:1|0:1,0:1:0:0:
164,234,10533,2,0,P|185:196|164:154,2,49.4999984893799,0|0|8,3:1|3:1|0:1,0:1:0:0:
125,265,11242,1,0,3:1:0:0:
143,310,11478,2,0,P|187:319|280:341,1,98.9999969787598,0|8,3:1|0:1,0:1:0:0:
315,267,12423,2,0,P|371:278|400:284,1,49.4999984893799,0|0,3:1|3:1,0:1:0:0:
398,311,12895,2,0,P|451:298|468:294,1,49.4999984893799,8|0,0:1|3:1,0:1:0:0:
473,257,13368,6,0,P|495:198|450:150,1,98.9999969787598,0|8,3:1|0:1,0:1:0:0:
382,153,14313,2,0,P|357:124|321:115,1,49.4999984893799,0|0,3:1|3:1,0:1:0:0:
307,154,14785,2,0,P|274:154|233:189,1,49.4999984893799,8|0,0:1|3:1,0:1:0:0:
255,209,15258,6,0,P|232:293|259:325,1,98.9999969787598,0|8,3:1|0:1,0:1:0:0:
324,350,16202,1,0,3:1:0:0:
368,329,16439,1,0,3:1:0:0:
412,308,16675,2,0,P|418:258|424:227,1,49.4999984893799,8|0,0:1|3:1,0:1:0:0:
450,221,17147,6,0,P|439:155|416:81,1,98.9999969787598,0|8,3:1|0:1,0:1:0:0:
363,51,18092,2,0,P|390:26|420:2,2,49.4999984893799,0|0|8,3:1|3:1|0:1,0:0:0:0:
315,36,18801,1,0,3:1:0:0:
280,71,19037,6,0,P|225:58|149:37,1,98.9999969787598,0|8,3:1|0:1,0:1:0:0:
100,100,19982,2,0,P|72:81|40:59,2,49.4999984893799,0|0|8,3:1|3:1|0:1,0:1:0:0:
110,148,20691,1,0,3:1:0:0:
84,190,20927,6,0,P|70:256|58:315,1,98.9999969787598,0|8,3:1|0:1,0:1:0:0:
141,348,21872,2,0,P|219:370|231:378,1,49.4999984893799,0|0,3:1|3:1,0:1:0:0:
237,343,22344,1,8,0:1:0:0:
253,296,22580,1,0,3:1:0:0:
234,250,22817,6,0,P|216:165|203:121,1,98.9999969787599,0|8,3:1|0:1,0:1:0:0:
265,69,23762,1,0,3:1:0:0:
312,56,23998,1,0,3:1:0:0:
333,100,24234,2,0,P|379:111|409:118,1,49.4999984893799,8|0,0:1|3:1,0:1:0:0:
419,137,24706,6,0,P|442:203|415:258,1,98.9999969787599,0|8,3:1|0:1,0:1:0:0:
350,280,25651,2,0,P|359:336|388:351,2,49.4999984893799,0|0|8,3:1|3:1|0:1,0:1:0:0:
266,226,26596,6,0,P|245:172|219:161,1,49.4999984893799,0|0,3:1|0:1,0:1:0:0:
210,155,27069,2,0,P|218:124|232:105,1,49.4999984893799,8|0,0:1|0:1,0:1:0:0:
261,73,27541,2,0,P|207:56|132:35,1,98.9999969787598,0|8,3:1|0:1,0:1:0:0:
117,53,28250,1,0,3:1:0:0:
121,102,28486,6,0,P|98:172|77:239,1,98.9999969787598,0|8,3:1|0:1,0:1:0:0:
133,284,29431,2,0,P|145:336|153:372,1,49.4999984893799,0|0,3:1|3:1,0:1:0:0:
184,361,29903,2,0,P|216:352|248:341,1,49.4999984893799,8|0,0:1|3:1,0:1:0:0:
264,310,30376,6,0,P|247:254|232:189,1,98.9999969787598,2|8,3:1|0:1,0:1:0:0:
275,123,31321,2,0,P|283:84|294:46,1,49.4999984893799,2|0,3:1|3:1,0:1:0:0:
324,43,31793,2,0,P|352:51|387:57,1,49.4999984893799,10|0,0:1|3:1,0:1:0:0:
407,88,32265,6,0,P|444:138|415:203,1,98.9999969787598,2|8,3:1|0:1,0:1:0:0:
342,157,33210,2,0,P|320:211|332:242,1,49.4999984893799,0|0,3:1|3:1,0:1:0:0:
336,246,33683,1,8,0:1:0:0:
433,260,34155,6,0,P|507:232|510:178,1,98.9999969787599,2|10,3:1|0:1,0:1:0:0:
496,172,34864,2,0,P|496:132|467:98,1,49.4999984893799,2|0,0:1|3:1,0:1:0:0:
446,106,35336,2,0,P|415:107|382:142,1,49.4999984893799,2|8,3:1|0:1,0:1:0:0:
372,158,35809,5,2,3:1:0:0:
372,158,36045,2,0,P|284:175|241:187,1,98.9999969787599,0|8,3:1|0:1,0:0:0:0:
250,222,36754,1,2,0:1:0:0:
250,222,36990,2,0,P|330:241|370:251,1,98.9999969787599,2|8,3:1|0:1,0:1:0:0:
432,293,37935,6,0,P|364:361|338:356,1,98.9999969787599,2|8,3:1|0:1,0:1:0:0:
276,327,38880,2,0,P|242:332|194:347,2,49.4999984893799,2|0|10,3:1|3:1|0:1,0:1:0:0:
306,288,39588,1,2,3:1:0:0:
271,248,39825,6,0,P|250:164|240:110,1,98.9999969787599,2|8,3:1|0:1,0:1:0:0:
148,144,40769,2,0,P|162:207|166:231,2,49.4999984893799,0|0|8,3:1|3:1|0:1,0:1:0:0:
128,46,41714,6,0,P|208:24|263:16,1,98.9999969787599,2|8,3:1|0:1,0:0:0:0:
253,61,42423,2,0,P|277:80|336:91,1,49.4999984893799,2|0,0:1|3:1,0:1:0:0:
347,94,42895,2,0,P|377:88|430:70,1,49.4999984893799,2|8,3:1|0:1,0:1:0:0:
443,95,43368,1,2,3:1:0:0:
481,125,43604,6,0,P|498:199|454:241,1,98.9999969787599,2|8,3:1|0:1,0:1:0:0:
425,290,44549,2,0,P|408:246|392:211,1,49.4999984893799,0|0,3:1|3:1,0:1:0:0:
366,223,45021,2,0,P|335:229|282:243,1,49.4999984893799,8|0,0:1|3:1,0:1:0:0:
274,217,45494,6,0,P|289:158|232:119,1,98.9999969787599,0|10,3:1|0:1,0:1:0:0:
172,106,46439,2,0,P|175:82|197:63,2,49.4999984893799,2|0|8,3:1|3:1|0:1,0:1:0:0:
136,140,47147,6,0,P|145:177|151:228,1,49.4999984893799,2|0,3:1|3:1,0:0:0:0:
114,226,47620,2,0,P|122:269|125:312,1,49.4999984893799,2|8,0:1|0:1,0:1:0:0:
161,314,48092,1,2,0:1:0:0:
161,314,48328,2,0,P|159:356|157:401,2,49.4999984893799,2|2|10,3:1|3:1|0:1,0:1:0:0:
205,292,49037,5,0,3:1:0:0:
248,316,49273,2,0,P|303:322|390:332,1,98.9999969787599,0|10,3:1|0:1,0:1:0:0:
404,246,50218,2,0,L|465:271,2,49.4999984893799,2|0|8,3:1|3:1|0:1,0:1:0:0:
404,196,50927,5,2,3:1:0:0:
355,109,51399,2,0,P|348:83|341:53,2,49.4999984893799,2|10|0,0:1|0:1|0:1,0:1:0:0:
328,151,52108,2,0,P|286:162|221:177,1,98.9999969787599,2|10,3:1|0:1,0:1:0:0:
134,264,53053,6,2,P|141:313|151:362,1,65.9999979858399,6|0,3:1|0:1,0:1:0:0:
205,352,53525,2,2,P|240:342|272:335,1,65.9999979858399,10|0,0:1|0:1,0:1:0:0:
317,290,53998,1,2,0:1:0:0:
440,243,54470,2,2,P|418:178|409:150,1,65.9999979858399,10|0,0:1|0:1,0:1:0:0:
364,153,54943,5,0,3:0:0:0:
357,21,55415,2,0,P|295:12|279:11,1,65.9999979858399,8|0,0:1|0:1,0:1:0:0:
228,30,55888,1,0,0:1:0:0:
173,67,56124,1,0,3:1:0:0:
159,131,56360,2,0,P|178:176|214:195,1,65.9999979858399,8|0,0:1|3:1,0:1:0:0:
242,219,56832,6,2,P|307:222|373:232,1,131.99999597168,6|8,3:1|0:1,0:1:0:0:
425,351,57777,1,0,3:1:0:0:
294,331,58250,1,8,0:1:0:0:
164,355,58722,5,0,3:1:0:0:
117,308,58958,2,0,P|91:318|35:338,2,65.9999979858399,0|8|0,3:1|0:1|0:1,0:1:0:0:
155,253,59667,1,0,0:1:0:0:
62,158,60140,2,0,P|75:81|97:66,1,65.9999979858399,10|0,0:1|3:1,0:1:0:0:
122,60,60612,5,6,3:1:0:0:
250,31,61084,2,0,P|323:55|342:62,1,65.9999979858399,10|0,0:1|0:1,0:0:0:0:
378,49,61557,1,2,0:1:0:0:
417,101,61793,1,0,3:1:0:0:
390,161,62029,2,2,P|399:240|404:275,1,65.9999979858399,10|0,0:1|0:1,0:1:0:0:
359,281,62502,6,0,P|317:354|254:357,1,131.99999597168,0|8,3:1|0:1,0:1:0:0:
165,290,63447,2,0,P|146:224|186:199,1,65.9999979858399,0|0,0:1|3:1,0:1:0:0:
165,171,63919,1,8,0:1:0:0:
286,221,64391,6,2,P|295:180|310:147,1,65.9999979858399,6|0,3:1|0:1,0:1:0:0:
356,116,64864,1,10,0:1:0:0:
356,116,65100,1,0,0:1:0:0:
309,69,65336,2,2,P|235:50|209:44,1,65.9999979858399,2|0,0:1|3:1,0:1:0:0:
189,85,65809,1,10,0:1:0:0:
189,85,66045,1,0,0:1:0:0:
137,43,66281,6,0,P|79:118|116:176,1,131.99999597168,0|8,3:1|0:1,0:1:0:0:
17,253,67226,2,0,P|85:268|119:277,1,65.9999979858399,0|0,0:1|3:1,0:1:0:0:
123,318,67699,2,0,P|168:310|231:304,1,65.9999979858399,8|0,0:1|3:1,0:1:0:0:
234,289,68171,6,0,P|297:305|365:284,2,98.9999969787599,0|8|0,3:1|0:1|3:1,0:1:0:0:
188,200,69588,1,8,0:1:0:0:
238,114,70061,2,0,P|319:109|364:140,1,98.9999969787599,0|8,3:1|0:1,0:1:0:0:
422,73,71006,1,0,3:1:0:0:
468,160,71478,1,8,0:1:0:0:
377,201,71951,6,0,L|414:331,1,98.9999969787599,0|8,3:1|0:1,0:1:0:0:
323,353,72895,2,0,P|273:340|211:328,1,98.9999969787599,0|8,3:1|0:1,0:1:0:0:
189,238,73840,6,0,P|220:204|251:170,1,49.4999984893799,0|0,3:1|0:1,0:1:0:0:
213,152,74313,2,0,P|152:125|133:116,1,49.4999984893799,8|0,0:1|0:1,0:1:0:0:
127,160,74785,1,0,3:1:0:0:
65,82,75258,2,0,P|88:26|95:8,1,49.4999984893799,8|0,0:1|3:1,0:1:0:0:
135,16,75730,5,0,3:1:0:0:
238,52,76202,2,0,P|304:61|386:32,1,110,8|0,0:1|3:1,0:1:0:0:
392,83,76911,2,0,P|427:68|449:43,2,55,0|8|0,3:1|0:1|3:1,0:1:0:0:
352,121,77620,6,0,P|318:185|356:255,1,110,0|8,3:1|0:1,0:1:0:0:
432,240,78565,2,0,P|430:306|399:320,1,55,0|0,0:0|3:1,0:0:0:0:
399,329,79037,1,8,0:1:0:0:
291,304,79510,5,0,3:1:0:0:
188,343,79982,1,8,0:1:0:0:
138,318,80218,1,0,3:1:0:0:
32,350,80691,2,0,P|38:318|38:272,1,55,0|8,3:1|0:1,0:1:0:0:
71,251,81163,1,0,3:1:0:0:
43,203,81399,6,0,P|43:139|53:92,1,110,0|8,3:1|0:1,0:1:0:0:
145,35,82344,2,0,B|198:10|198:10|253:58,1,110,0|8,3:1|3:1,3:1:0:0:
182,139,83289,6,0,P|190:203|241:239,1,110,0|8,3:1|0:1,0:1:0:0:
267,201,83998,1,0,3:1:0:0:
321,209,84234,2,0,P|403:190|450:185,1,110,0|8,3:1|0:1,0:0:0:0:
477,219,84943,1,0,3:1:0:0:
449,266,85179,6,0,P|427:360|377:368,1,110,0|8,3:1|0:1,0:1:0:0:
317,337,86124,2,0,P|247:325|191:319,1,110,0|8,3:1|0:1,0:1:0:0:
153,322,86832,1,0,3:1:0:0:
109,287,87069,6,0,B|80:233|80:233|119:177,1,110,0|8,3:1|0:1,0:1:0:0:
142,151,87777,1,0,3:1:0:0:
142,151,88014,2,0,P|192:156|223:157,2,55,0|0|8,3:1|3:1|0:1,0:1:0:0:
115,100,88722,5,0,3:1:0:0:
147,56,88958,2,0,P|214:65|274:70,1,110,0|8,3:1|0:1,0:1:0:0:
308,43,89667,1,0,3:1:0:0:
353,74,89903,2,0,P|460:97|493:103,1,110,0|8,3:1|0:1,0:0:0:0:
457,207,90848,6,0,B|411:242|411:242|434:325,1,110,2|8,3:1|0:1,0:1:0:0:
314,292,91793,2,0,P|300:361|298:378,1,55,2|0,3:1|3:1,0:1:0:0:
252,367,92265,2,0,P|177:323|165:314,1,55,10|2,0:1|3:1,0:1:0:0:
195,286,92738,6,0,P|202:251|210:229,1,55,2|0,3:1|0:1,0:1:0:0:
192,180,93210,1,8,0:1:0:0:
231,141,93447,1,0,3:1:0:0:
205,92,93683,2,0,P|128:57|90:82,1,110,0|8,3:1|0:1,0:1:0:0:
41,149,94628,6,0,P|55:203|70:247,1,55,2|0,3:1|0:1,0:1:0:0:
57,261,95100,1,10,0:1:0:0:
57,261,95336,2,0,P|72:320|80:359,1,55,2|0,3:1|3:1,0:1:0:0:
116,345,95809,2,0,P|177:322|182:321,1,55,2|8,3:1|0:1,0:1:0:0:
219,302,96281,5,2,3:1:0:0:
219,302,96517,2,0,P|285:323|352:345,1,110,2|8,3:1|0:1,0:1:0:0:
374,310,97226,1,2,3:1:0:0:
374,310,97462,1,0,3:1:0:0:
453,233,97935,1,8,0:1:0:0:
498,133,98407,6,0,P|482:54|420:41,1,110,2|8,3:1|0:1,0:1:0:0:
417,74,99116,1,2,3:1:0:0:
365,55,99352,2,0,P|281:74|214:90,1,110,2|8,3:1|0:1,0:1:0:0:
202,72,100061,1,2,3:1:0:0:
170,117,100297,6,0,P|181:172|193:232,1,110,2|8,3:1|0:1,0:1:0:0:
298,252,101242,2,0,P|293:306|292:317,1,55,0|0,0:0|3:0,0:0:0:0:
340,335,101714,1,8,0:1:0:0:
435,280,102187,2,0,P|444:208|482:186,1,110,2|10,3:1|0:1,0:1:0:0:
486,136,102895,2,0,P|493:52|504:-13,2,110,2|2|2,3:1|3:1|3:1,0:1:0:0:
432,150,104077,5,2,3:1:0:0:
334,199,104549,1,8,0:1:0:0:
226,220,105021,2,0,P|138:207|133:206,2,55,0|0|8,3:1|3:1|0:1,0:1:0:0:
235,170,105730,5,0,3:1:0:0:
200,127,105966,1,0,3:1:0:0:
214,17,106439,2,0,P|270:4|319:-10,2,55,10|2|2,0:1|3:1|3:1,0:1:0:0:
104,7,107384,1,8,0:1:0:0:
60,41,107620,6,0,P|72:119|79:190,1,110,2|2,3:1|0:1,0:1:0:0:
110,199,108328,1,8,0:1:0:0:
110,199,108565,2,0,P|120:275|121:297,1,55,2|2,3:1|3:1,0:1:0:0:
161,287,109037,1,2,3:1:0:0:
200,249,109273,2,0,P|266:238|283:236,1,55,10|0,0:1|3:1,0:1:0:0:
294,202,109746,6,0,B|312:151|312:151|274:109,1,110,0|10,3:1|0:1,0:1:0:0:
349,28,110691,2,0,P|409:14|469:2,1,110,2|8,3:1|0:1,0:1:0:0:
491,46,111399,6,0,B|483:78|483:78|523:104,1,55,2|0,3:1|3:1,0:1:0:0:
474,138,111872,2,0,P|490:208|493:214,2,55,2|10|0,3:1|3:1|3:1,3:1:0:0:
420,124,112580,2,0,P|339:141|327:142,1,55,2|2,3:1|3:1,0:1:0:0:
313,152,113053,2,0,P|238:132|212:127,1,55,10|0,0:1|3:1,0:1:0:0:
196,152,113525,6,0,P|193:227|288:255,1,131.99999597168,6|10,3:1|0:1,0:1:0:0:
326,352,114470,2,0,P|349:258|362:190,1,131.99999597168,2|10,0:1|0:1,0:1:0:0:
310,99,115415,5,0,3:1:0:0:
255,62,115651,2,0,P|165:89|150:95,1,65.9999979858399,0|8,0:0|0:1,0:0:0:0:
129,57,116124,1,0,0:1:0:0:
83,104,116360,2,0,P|104:181|109:196,1,65.9999979858399,0|0,0:1|3:1,0:1:0:0:
159,196,116832,1,8,0:1:0:0:
120,250,117069,1,0,3:1:0:0:
166,296,117305,6,0,P|258:332|297:311,1,131.99999597168,6|10,3:1|0:1,0:1:0:0:
412,331,118250,2,0,P|395:245|391:225,1,65.9999979858399,2|0,0:1|3:1,0:1:0:0:
354,217,118722,2,0,P|384:132|388:120,1,65.9999979858399,10|0,0:1|0:1,0:1:0:0:
347,95,119195,5,0,3:1:0:0:
232,29,119667,2,0,P|243:118|242:134,1,65.9999979858399,8|0,0:1|0:1,0:0:0:0:
185,127,120140,2,0,P|193:212|193:230,1,65.9999979858399,0|0,0:1|3:1,0:1:0:0:
164,252,120612,1,10,0:1:0:0:
211,297,120848,1,0,3:1:0:0:
193,360,121084,6,2,B|136:373|98:381,1,65.9999979858399,4|0,3:1|0:1,0:1:0:0:
66,351,121557,2,2,P|57:286|55:245,1,65.9999979858399,10|0,0:1|0:1,0:1:0:0:
71,221,122029,2,0,P|63:131|57:61,1,131.99999597168,2|10,0:1|0:1,0:1:0:0:
162,6,122974,5,0,3:1:0:0:
214,46,123210,2,0,P|260:35|319:29,2,65.9999979858399,0|8|0,3:1|0:1|0:1,0:1:0:0:
175,100,123919,2,0,P|188:180|190:193,1,65.9999979858399,0|0,0:1|3:1,0:1:0:0:
156,224,124391,1,8,0:1:0:0:
204,268,124628,1,0,3:1:0:0:
251,221,124864,6,0,P|324:250|293:331,1,131.99999597168,6|10,3:1|0:1,0:1:0:0:
442,359,125809,1,2,0:1:0:0:
431,293,126045,1,0,3:1:0:0:
477,246,126281,2,0,P|489:132|491:120,1,65.9999979858399,10|0,0:1|0:1,0:1:0:0:
446,124,126754,6,0,P|337:142|261:153,1,131.99999597168,0|8,3:1|0:1,0:1:0:0:
184,160,127699,2,0,P|79:174|72:176,1,65.9999979858399,0|0,0:1|3:1,0:1:0:0:
78,217,128171,2,0,B|60:250|60:250|89:282,1,65.9999979858399,10|0,0:1|3:1,0:1:0:0:
133,307,128643,6,0,P|141:401|141:407,2,65.9999979858399,6|0|8,3:1|0:1|0:1,0:1:0:0:
186,268,129352,2,0,P|270:260|358:250,1,131.99999597168,0|0,0:1|3:1,0:1:0:0:
366,210,130061,2,0,P|351:118|350:100,1,65.9999979858399,8|0,0:1|0:1,0:1:0:0:
304,100,130533,5,0,3:1:0:0:
414,27,131006,2,0,P|477:78|464:145,1,131.99999597168,8|0,0:1|0:1,0:1:0:0:
500,253,131951,2,0,P|425:277|410:268,1,65.9999979858399,8|0,0:1|3:1,0:1:0:0:
386,250,132423,6,0,P|364:155|355:133,1,65.9999979858399,6|0,3:1|0:1,0:1:0:0:
329,144,132895,1,10,0:1:0:0:
329,144,133132,1,0,0:1:0:0:
281,189,133368,2,0,P|195:200|176:202,1,65.9999979858399,2|0,0:1|3:1,0:0:0:0:
164,155,133840,2,2,P|156:124|156:71,1,65.9999979858399,10|0,0:1|0:1,0:1:0:0:
114,37,134313,5,0,3:1:0:0:
31,140,134785,2,0,B|12:175|12:175|49:217,1,65.9999979858399,8|0,0:1|0:1,0:0:0:0:
79,238,135258,2,0,P|87:362|86:366,1,65.9999979858399,0|0,0:1|3:1,0:1:0:0:
143,343,135730,1,10,0:1:0:0:
197,305,135966,1,0,3:1:0:0:
255,334,136202,6,0,P|336:313|408:303,1,131.99999597168,6|8,3:1|0:1,0:1:0:0:
432,261,136911,1,0,0:1:0:0:
432,261,137147,2,0,P|428:180|416:167,1,65.9999979858399,0|0,0:1|3:1,0:1:0:0:
379,164,137620,2,0,P|327:115|292:116,1,65.9999979858399,8|0,0:1|0:1,0:1:0:0:
271,131,138092,5,0,3:1:0:0:
163,213,138565,2,0,P|169:265|172:297,1,65.9999979858399,8|0,0:1|0:1,0:1:0:0:
217,324,139037,1,0,0:1:0:0:
278,299,139273,1,0,3:1:0:0:
338,325,139510,1,8,0:1:0:0:
462,282,139982,5,6,3:1:0:0:
486,220,140218,1,0,0:1:0:0:
454,168,140454,2,0,P|388:143|373:145,1,65.9999979858399,10|0,0:1|0:1,0:0:0:0:
343,185,140927,2,0,P|257:221|246:232,1,65.9999979858399,2|0,0:1|3:1,0:0:0:0:
217,184,141399,5,10,0:1:0:0:
154,162,141636,1,0,0:1:0:0:
103,115,141872,6,0,P|91:42|132:-6,1,131.99999597168,0|8,3:1|0:1,0:1:0:0:
255,12,142817,2,0,P|343:36|356:41,1,65.9999979858399,0|0,0:1|3:1,0:1:0:0:
304,92,143289,2,0,P|218:116|210:120,1,65.9999979858399,8|0,0:1|3:1,0:1:0:0:
