osu file format v14

[General]
AudioFilename: audio.mp3
AudioLeadIn: 0
PreviewTime:113053
Countdown: 0
SampleSet: Soft
StackLeniency: 0.7
Mode: 0
LetterboxInBreaks: 0
WidescreenStoryboard: 1

[Editor]
Bookmarks: 7699,15258,30376,45494,53053,68171,75730,90848,105966,113525,128643,143762
DistanceSpacing: 1.4
BeatDivisor: 4
GridSize: 32
TimelineZoom: 1.6

[Metadata]
Title:Let Go
TitleUnicode:Let Go
Artist:OLIVIA inspi' REIRA(TRAPNEST)
ArtistUnicode:OLIVIA inspi' REIRA(TRAPNEST)
Creator:Florescence
Version:Hard
Source:NANA―ナナ―
Tags:Olivia Lufkin a little pain nana ナナ anime japanese english pop j-pop jpop rock jrock j-rock glam misho15_701_4_0 misho1570140 misho
BeatmapID:4083991
BeatmapSetID:1968929

[Difficulty]
HPDrainRate:4
CircleSize:4
OverallDifficulty:6
ApproachRate:8
SliderMultiplier:2.4
SliderTickRate:1

[Events]
//Background and Video events
0,0,"nana3.jpg",0,0
//Break Periods
//Storyboard Layer 0 (Background)
//Storyboard Layer 1 (Fail)
//Storyboard Layer 2 (Pass)
//Storyboard Layer 3 (Foreground)
//Storyboard Layer 4 (Overlay)
//Storyboard Sound Samples

[TimingPoints]
140,472.44094488189,4,2,1,40,1,0
140,-133.333333333333,4,2,1,40,0,0
7699,-105.263157894737,4,2,1,61,0,0
30376,-133.333333333333,4,2,1,61,0,0
45494,-133.333333333333,4,2,1,65,0,0
53053,-86.9565217391304,4,2,1,78,0,0
67699,-117.647058823529,4,2,1,78,0,0
68171,-133.333333333333,4,2,1,56,0,0
75730,-111.111111111111,4,2,1,64,0,0
79037,-153.846153846153,4,2,1,64,0,0
79510,-100,4,2,1,64,0,0
80218,-133.333333333333,4,2,1,64,0,0
81399,-117.647058823529,4,2,1,64,0,0
83289,-105.263157894737,4,2,1,64,0,0
84706,-153.846153846153,4,2,1,64,0,0
85179,-105.263157894736,4,2,1,64,0,0
105966,-133.333333333333,4,2,1,67,0,0
113525,-86.9565217391304,4,2,1,81,0,0
128643,-86.9565217391304,4,2,1,71,0,0

[Colours]
Combo1 : 195,195,195
Combo2 : 226,173,255
Combo3 : 249,172,174
Combo4 : 203,186,180
Combo5 : 159,210,223
Combo6 : 198,218,146
Combo7 : 225,164,113
Combo8 : 130,242,166

[HitObjects]
25,51,140,6,0,P|91:38|142:28,1,90.0000034332277,0|0,0:1|0:1,0:1:0:0:
509,110,1084,2,0,P|422:135|390:145,1,90.0000034332277,0|0,0:1|0:1,0:1:0:0:
218,233,1793,5,0,0:1:0:0:
218,233,2029,2,0,P|218:172|225:108,2,90.0000034332277,0|0|0,0:1|0:1|0:1,0:1:0:0:
245,18,2974,1,0,0:1:0:0:
245,18,3210,1,0,0:1:0:0:
285,306,3683,5,0,0:1:0:0:
285,306,3919,2,0,P|369:326|477:358,1,180.000006866455,0|0,0:1|0:1,0:1:0:0:
120,374,4864,2,0,P|155:346|192:320,1,90.0000034332277,0|0,0:1|0:1,0:1:0:0:
6,218,5573,5,0,0:1:0:0:
6,218,5809,2,0,P|66:252|109:150,1,180.000006866455,0|0,0:1|0:1,0:1:0:0:
365,80,6754,2,0,P|305:81|303:124,1,90.0000034332277,0|0,0:1|0:1,0:1:0:0:
385,288,7462,1,0,0:1:0:0:
486,148,7699,6,0,P|468:202|456:258,1,113.999996955872,0|0,3:1|0:1,0:1:0:0:
305,347,8171,2,0,P|297:271|300:224,1,113.999996955872,8|0,0:1|0:1,0:1:0:0:
193,91,8643,2,0,B|207:150|207:150|154:191,2,113.999996955872,0|0|8,3:1|3:1|0:1,0:1:0:0:
76,54,9352,1,0,3:1:0:0:
203,87,9588,6,0,P|315:68|419:45,1,170.999995433807,0|0,3:1|0:1,0:1:0:0:
377,45,10061,2,0,P|309:5|285:35,1,113.999996955872,8|0,0:1|0:1,0:1:0:0:
425,159,10533,1,0,3:1:0:0:
220,236,10769,1,0,3:1:0:0:
281,130,11006,1,8,0:1:0:0:
281,130,11242,1,0,3:1:0:0:
210,251,11478,6,0,P|229:330|338:293,1,170.999995433807,0|0,3:1|0:1,0:1:0:0:
321,348,11951,2,0,P|256:332|199:329,1,113.999996955872,8|0,0:1|0:1,0:1:0:0:
97,262,12423,2,0,P|35:294|-4:323,2,113.999996955872,0|0|8,3:1|3:1|0:1,0:1:0:0:
186,177,13132,1,0,3:1:0:0:
186,177,13368,6,0,P|180:96|119:76,1,113.999996955872,0|0,3:1|0:1,0:1:0:0:
276,31,13840,2,0,P|364:31|411:30,1,113.999996955872,8|0,0:1|0:1,0:1:0:0:
512,100,14313,1,0,3:1:0:0:
331,144,14549,1,0,3:1:0:0:
506,242,14785,1,8,0:1:0:0:
506,242,15021,1,0,3:1:0:0:
397,340,15258,6,0,P|407:244|418:135,1,170.999995433807,0|0,3:1|0:1,0:1:0:0:
422,153,15730,1,8,0:1:0:0:
252,351,16202,1,0,3:1:0:0:
252,351,16439,1,0,3:1:0:0:
127,300,16675,2,0,P|116:212|108:167,1,113.999996955872,8|0,0:1|3:1,0:1:0:0:
97,25,17147,6,0,P|201:56|191:143,1,170.999995433807,0|0,3:1|0:1,0:1:0:0:
195,115,17620,2,0,P|192:49|250:42,1,113.999996955872,8|0,0:1|0:1,0:1:0:0:
318,106,18092,2,0,P|331:190|338:234,1,113.999996955872,0|0,3:1|3:1,0:1:0:0:
444,75,18565,2,0,P|460:153|473:222,1,113.999996955872,8|0,0:1|3:1,0:1:0:0:
422,363,19037,6,0,B|362:283|319:394|214:345,1,170.999995433807,0|0,3:1|0:1,0:1:0:0:
251,355,19510,2,0,B|224:303|224:303|274:269,1,113.999996955872,8|0,0:1|0:1,0:1:0:0:
108,274,19982,2,0,P|39:258|-8:238,2,113.999996955872,0|0|8,3:1|3:1|0:1,0:1:0:0:
167,189,20691,1,0,3:1:0:0:
81,68,20927,6,0,P|43:120|74:164,1,113.999996955872,0|0,3:1|0:1,0:1:0:0:
242,106,21399,2,0,P|213:41|159:44,1,113.999996955872,8|0,0:1|0:1,0:1:0:0:
157,184,21872,1,0,3:1:0:0:
126,362,22108,1,0,3:1:0:0:
238,312,22344,1,8,0:1:0:0:
49,227,22580,1,0,3:1:0:0:
254,302,22817,6,0,P|344:287|479:271,1,227.999993911743,0|8,3:1|0:1,0:1:0:0:
49,227,23762,2,0,P|134:209|176:200,1,113.999996955872,0|0,3:1|3:1,0:1:0:0:
264,295,24234,1,8,0:1:0:0:
337,158,24470,1,0,3:1:0:0:
253,207,24706,6,0,P|236:113|255:40,1,170.999995433807,0|0,3:1|0:1,0:1:0:0:
273,38,25179,2,0,P|232:91|169:114,1,113.999996955872,8|0,0:1|0:1,0:1:0:0:
0,36,25651,2,0,P|60:40|103:83,1,113.999996955872,0|0,3:1|3:1,0:1:0:0:
133,252,26124,2,0,P|95:206|143:151,1,113.999996955872,8|0,0:1|3:1,0:1:0:0:
102,339,26596,5,0,3:1:0:0:
102,339,26832,1,0,0:1:0:0:
280,270,27069,1,8,0:1:0:0:
280,270,27305,1,0,0:1:0:0:
457,199,27541,2,0,P|472:280|483:344,2,113.999996955872,0|0|8,3:1|3:1|0:1,0:1:0:0:
309,84,28250,1,0,3:1:0:0:
309,84,28486,6,0,P|298:171|281:302,1,170.999995433807,0|0,3:1|0:1,0:1:0:0:
280,270,28958,1,8,0:1:0:0:
94,32,29431,1,0,3:1:0:0:
16,139,29667,1,0,3:1:0:0:
100,236,29903,2,0,P|118:303|130:364,1,113.999996955872,8|0,0:1|3:1,0:1:0:0:
190,156,30376,6,0,P|177:81|274:40,1,180.000006866455,2|8,3:1|0:1,0:1:0:0:
300,311,31321,2,0,P|373:259|348:178,1,180.000006866455,2|10,3:1|0:1,0:1:0:0:
247,261,32029,1,2,3:1:0:0:
420,335,32265,6,0,P|480:357|517:366,1,90.0000034332277,2|0,3:1|0:1,0:1:0:0:
449,227,32738,2,0,P|509:197|539:184,1,90.0000034332277,8|0,0:1|0:1,0:1:0:0:
400,98,33210,2,0,P|317:74|278:67,2,90.0000034332277,0|0|8,3:1|3:1|0:1,0:1:0:0:
326,196,33919,1,0,3:1:0:0:
210,79,34155,5,2,3:1:0:0:
84,161,34391,1,2,0:1:0:0:
174,280,34628,1,8,0:1:0:0:
305,192,34864,2,0,P|297:259|288:312,1,90.0000034332277,2|0,0:1|3:1,0:1:0:0:
164,291,35336,2,0,P|175:357|185:405,1,90.0000034332277,2|8,3:1|0:1,0:1:0:0:
63,372,35809,5,2,3:1:0:0:
63,372,36045,1,0,3:1:0:0:
5,223,36281,2,0,P|49:228|111:237,2,90.0000034332277,2|8|2,0:1|0:1|0:1,0:1:0:0:
135,128,36990,1,0,3:1:0:0:
135,128,37226,1,0,3:1:0:0:
205,247,37462,2,0,P|263:235|313:226,1,90.0000034332277,8|0,0:1|3:1,0:1:0:0:
433,139,37935,6,0,B|362:83|362:83|250:130,1,180.000006866455,2|8,3:1|0:1,0:1:0:0:
470,244,38880,2,0,P|498:299|474:346,1,90.0000034332277,2|0,3:1|3:1,0:1:0:0:
365,233,39352,2,0,P|317:243|263:265,1,90.0000034332277,10|0,0:1|3:1,0:1:0:0:
170,367,39825,6,0,P|114:313|128:239,1,135.000005149841,2|0,3:1|0:1,0:1:0:0:
111,244,40297,2,0,B|154:228|154:228|192:268,1,90.0000034332277,8|0,0:1|0:1,0:1:0:0:
26,224,40769,2,0,P|12:147|9:99,1,90.0000034332277,0|0,3:1|3:1,0:1:0:0:
66,16,41242,1,8,0:1:0:0:
169,89,41478,1,2,3:1:0:0:
273,30,41714,6,0,P|341:19|385:17,1,90.0000034332277,2|0,3:1|0:1,0:1:0:0:
246,152,42187,1,10,0:1:0:0:
246,152,42423,2,0,P|304:143|350:140,1,90.0000034332277,2|0,0:1|3:1,0:1:0:0:
206,281,42895,2,0,P|274:269|319:264,1,90.0000034332277,2|8,3:1|0:1,0:1:0:0:
428,313,43368,1,2,3:1:0:0:
468,188,43604,6,0,P|475:128|501:33,1,135.000005149841,2|0,3:1|0:1,0:1:0:0:
512,47,44077,2,0,P|523:92|477:121,1,90.0000034332277,8|0,0:1|0:1,0:1:0:0:
366,56,44549,1,0,3:1:0:0:
237,87,44785,1,0,3:1:0:0:
118,44,45021,2,0,P|87:89|111:125,1,90.0000034332277,8|0,0:1|3:1,0:1:0:0:
237,224,45494,6,0,P|232:146|222:78,1,135.000005149841,0|0,3:1|0:1,0:1:0:0:
237,87,45966,2,0,B|268:54|268:54|336:85,1,90.0000034332277,10|2,0:1|0:1,0:1:0:0:
118,44,46439,1,2,3:1:0:0:
33,139,46675,1,0,3:1:0:0:
33,139,46911,1,8,0:1:0:0:
110,230,47147,1,2,3:1:0:0:
110,230,47384,1,0,3:1:0:0:
227,202,47620,1,2,0:1:0:0:
227,202,47856,1,8,0:1:0:0:
312,284,48092,5,2,0:1:0:0:
312,284,48328,2,0,P|349:241|333:209,1,90.0000034332277,2|2,3:1|3:1,0:1:0:0:
202,308,48801,2,0,P|210:363|248:383,1,90.0000034332277,10|0,0:1|3:1,0:1:0:0:
400,353,49273,6,0,P|449:365|511:390,2,90.0000034332277,0|2|10,3:1|0:1|0:1,0:1:0:0:
477,263,49982,1,0,0:1:0:0:
403,183,50218,2,0,P|407:120|455:112,1,90.0000034332277,2|0,3:1|3:1,0:1:0:0:
325,34,50691,1,8,0:1:0:0:
219,65,50927,5,2,3:1:0:0:
219,65,51163,1,0,3:1:0:0:
114,28,51399,2,0,P|123:80|131:125,1,90.0000034332277,2|10,0:1|0:1,0:1:0:0:
26,97,51872,1,0,0:1:0:0:
0,219,52108,6,0,P|74:200|112:192,1,90.0000034332277,2|2,3:1|3:1,0:1:0:0:
186,334,52580,2,0,P|174:287|158:235,1,90.0000034332277,10|0,0:1|3:1,0:1:0:0:
291,238,53053,6,2,P|311:156|344:89,1,138.000002632141,6|0,3:1|0:1,0:1:0:0:
345,75,53407,1,0,0:1:0:0:
323,46,53525,1,10,0:1:0:0:
463,51,53762,1,0,0:1:0:0:
444,71,53880,1,0,3:1:0:0:
466,94,53998,2,2,P|520:94|546:115,2,69.0000013160706,2|2|0,0:1|0:1|3:1,0:1:0:0:
398,200,54470,2,2,P|403:274|456:318,1,138.000002632141,10|0,0:1|0:1,0:1:0:0:
313,347,54943,6,0,P|215:348|124:367,1,138.000002632141,0|0,3:1|3:1,0:1:0:0:
38,250,55415,2,0,P|106:259|155:268,2,69.0000013160706,8|0|0,0:1|3:1|0:1,0:1:0:0:
204,173,55888,1,0,0:1:0:0:
48,56,56124,1,0,3:1:0:0:
88,152,56360,1,8,0:1:0:0:
88,152,56596,1,0,3:1:0:0:
187,63,56832,6,2,P|271:49|431:48,1,207.000003948212,6|0,3:1|0:1,0:1:0:0:
421,58,57305,1,10,0:1:0:0:
436,78,57423,1,0,0:1:0:0:
432,96,57541,1,0,0:1:0:0:
483,196,57777,2,2,P|496:264|498:301,2,69.0000013160706,2|2|0,0:1|0:1|3:1,0:1:0:0:
342,229,58250,2,2,P|255:238|172:264,1,138.000002632141,10|0,0:1|0:1,0:1:0:0:
60,349,58722,5,0,3:1:0:0:
24,215,58958,1,0,3:1:0:0:
47,225,59077,1,0,0:1:0:0:
70,222,59195,2,0,P|75:148|67:116,2,69.0000013160706,8|0|0,0:1|3:1|0:1,0:1:0:0:
238,159,59667,2,0,P|224:98|237:56,2,69.0000013160706,0|0|0,0:1|0:1|3:1,0:1:0:0:
237,330,60140,1,10,0:1:0:0:
237,330,60376,1,0,3:1:0:0:
418,347,60612,6,2,P|365:227|294:268,1,207.000003948212,6|0,3:1|0:1,0:1:0:0:
307,260,61084,1,10,0:1:0:0:
326,279,61202,1,0,0:1:0:0:
344,272,61321,1,0,0:1:0:0:
183,157,61557,2,2,P|112:189|105:194,2,69.0000013160706,2|2|0,0:1|0:1|3:1,0:1:0:0:
314,36,62029,2,2,P|409:50|473:74,1,138.000002632141,10|0,0:1|0:1,0:1:0:0:
476,214,62502,5,0,3:1:0:0:
365,314,62738,1,0,3:1:0:0:
328,297,62856,1,0,0:1:0:0:
312,258,62974,1,8,0:1:0:0:
330,222,63092,1,0,3:1:0:0:
360,212,63210,1,0,0:1:0:0:
486,218,63447,2,0,P|473:304|459:391,1,138.000002632141,0|0,0:1|3:1,0:1:0:0:
203,309,63919,2,0,P|187:193|170:70,1,207.000003948212,8|0,0:1|0:1,0:1:0:0:
157,94,64391,6,2,P|167:172|281:145,1,207.000003948212,6|0,3:1|0:1,0:1:0:0:
279,138,64864,1,10,0:1:0:0:
262,126,64982,1,0,0:1:0:0:
250,132,65100,1,0,0:1:0:0:
111,244,65336,2,2,P|42:265|24:271,2,69.0000013160706,2|2|0,0:1|0:1|3:1,0:1:0:0:
319,253,65809,2,2,P|403:225|497:198,1,138.000002632141,10|0,0:1|0:1,0:1:0:0:
438,325,66281,5,0,3:1:0:0:
247,326,66517,1,0,3:1:0:0:
223,317,66636,1,0,0:1:0:0:
200,307,66754,2,0,P|209:373|214:410,2,69.0000013160706,8|0|0,0:1|3:1|0:1,0:1:0:0:
232,162,67226,1,0,0:1:0:0:
232,162,67462,1,0,3:1:0:0:
116,16,67699,2,0,P|126:80|134:133,1,102.000001945496,8|0,0:1|3:1,0:1:0:0:
354,134,68171,6,0,P|414:202|242:323,1,360.000013732911,0|0,3:1|3:1,0:1:0:0:
116,16,69588,2,0,P|131:101|136:128,1,90.0000034332277,8|0,0:1|3:1,0:1:0:0:
27,197,70061,2,0,P|42:250|95:254,1,90.0000034332277,0|0,3:1|0:1,0:1:0:0:
89,250,70415,1,0,0:1:0:0:
95,235,70533,1,8,0:1:0:0:
194,261,70769,1,0,0:1:0:0:
287,167,71006,2,0,P|299:228|306:266,1,90.0000034332277,0|0,3:1|3:1,0:1:0:0:
406,221,71478,2,0,P|415:265|423:309,1,90.0000034332277,8|0,0:1|3:1,0:1:0:0:
507,212,71951,6,0,P|491:143|513:108,1,90.0000034332277,0|0,3:1|0:1,0:1:0:0:
488,113,72305,1,0,0:1:0:0:
474,97,72423,1,8,0:1:0:0:
379,128,72659,1,0,0:1:0:0:
334,29,72895,2,0,P|271:44|220:57,1,90.0000034332277,0|0,3:1|3:1,0:1:0:0:
119,114,73368,2,0,P|201:133|241:142,1,90.0000034332277,8|0,0:1|3:1,0:1:0:0:
304,213,73840,6,0,P|299:324|299:379,1,135.000005149841,0|0,3:1|0:1,0:1:0:0:
309,362,74313,1,8,0:1:0:0:
387,293,74549,1,0,0:1:0:0:
210,224,74785,1,0,3:1:0:0:
210,224,75021,2,0,P|207:159|205:109,2,90.0000034332277,0|8|0,3:1|0:1|3:1,0:1:0:0:
113,327,75730,6,0,P|40:307|45:253,1,107.999996704102,0|0,3:1|0:1,0:1:0:0:
33,266,76084,1,0,0:1:0:0:
44,258,76202,1,8,0:1:0:0:
99,191,76439,1,0,3:1:0:0:
49,109,76675,2,0,P|138:94|174:93,1,107.999996704102,0|0,3:1|3:1,0:1:0:0:
286,8,77147,2,0,B|301:61|301:61|247:89,1,107.999996704102,8|0,0:1|3:1,0:1:0:0:
364,162,77620,6,0,P|435:167|509:182,1,107.999996704102,0|0,3:1|0:1,0:1:0:0:
495,193,77974,1,0,0:1:0:0:
501,208,78092,1,8,0:1:0:0:
398,283,78328,1,0,3:1:0:0:
265,182,78565,2,0,B|228:220|228:220|261:264,1,107.999996704102,0|0,3:1|3:1,0:1:0:0:
384,367,79037,6,0,P|386:316|386:275,1,77.9999964294435,8|0,0:1|3:1,0:1:0:0:
350,150,79510,2,0,P|342:72|187:77,1,240,0|8,3:1|0:1,0:1:0:0:
91,82,80218,2,0,P|101:132|135:146,1,90.0000034332277,0|0,3:1|3:1,0:1:0:0:
222,238,80691,1,0,3:1:0:0:
222,238,80927,2,0,P|260:193|242:146,1,90.0000034332277,8|0,0:1|3:1,0:1:0:0:
120,240,81399,6,0,P|113:303|124:356,1,102.000001945496,0|0,3:1|0:1,0:1:0:0:
9,249,81872,2,0,P|21:178|12:123,1,102.000001945496,8|0,0:1|3:1,0:1:0:0:
103,65,82344,1,0,3:1:0:0:
103,65,82580,1,0,3:1:0:0:
240,132,82817,2,0,P|171:140|124:146,1,102.000001945496,8|0,0:1|3:1,0:1:0:0:
277,223,83289,6,0,P|347:219|427:210,1,113.999996955872,0|0,3:1|0:1,0:1:0:0:
417,232,83643,1,0,0:1:0:0:
432,246,83762,1,8,0:1:0:0:
393,316,83998,1,0,3:1:0:0:
481,169,84234,2,0,P|496:103|473:56,1,113.999996955872,0|0,3:1|3:1,0:1:0:0:
299,10,84706,2,0,P|267:52|293:81,1,77.9999964294435,8|0,0:1|3:1,0:1:0:0:
390,214,85179,6,0,P|302:227|237:239,1,113.999996955872,0|0,3:1|0:1,0:1:0:0:
263,257,85533,1,0,0:1:0:0:
242,246,85651,2,0,P|166:240|115:240,1,113.999996955872,8|0,0:1|3:1,0:1:0:0:
39,166,86124,2,0,B|7:208|7:208|42:270,1,113.999996955872,0|0,3:1|3:1,0:1:0:0:
168,360,86596,1,8,0:1:0:0:
168,360,86832,1,0,3:1:0:0:
242,246,87069,6,0,P|245:165|250:113,1,113.999996955872,0|0,3:1|0:1,0:1:0:0:
254,116,87423,1,0,0:1:0:0:
263,105,87541,1,8,0:1:0:0:
378,74,87777,2,0,P|411:130|380:161,2,113.999996955872,0|0|0,3:1|3:1|3:1,0:1:0:0:
247,132,88486,1,8,0:1:0:0:
126,91,88722,5,0,3:1:0:0:
44,190,88958,1,0,3:1:0:0:
127,282,89195,2,0,P|117:358|115:377,2,56.9999984779358,0|0|8,0:1|0:1|0:1,0:1:0:0:
235,248,89667,1,0,3:1:0:0:
235,248,89903,2,0,P|245:320|252:369,1,113.999996955872,0|0,3:1|3:1,0:1:0:0:
348,287,90376,1,8,0:1:0:0:
413,202,90612,1,0,3:1:0:0:
348,88,90848,6,0,P|291:126|308:182,1,113.999996955872,2|0,3:1|0:1,0:1:0:0:
309,181,91202,1,0,0:1:0:0:
326,182,91321,1,8,0:1:0:0:
447,116,91557,1,0,3:1:0:0:
272,26,91793,2,0,P|201:33|129:37,1,113.999996955872,2|0,3:1|3:1,0:1:0:0:
67,134,92265,2,0,P|137:132|183:131,1,113.999996955872,10|2,0:1|3:1,0:1:0:0:
122,228,92738,5,2,3:1:0:0:
191,315,92974,1,0,0:1:0:0:
189,329,93092,1,0,0:1:0:0:
187,342,93210,1,8,0:1:0:0:
303,331,93447,1,0,3:1:0:0:
355,222,93683,2,0,P|444:237|488:246,1,113.999996955872,0|0,3:1|3:1,0:1:0:0:
321,141,94155,2,0,P|300:87|331:41,1,113.999996955872,8|0,0:1|3:1,0:1:0:0:
195,174,94628,6,0,P|180:101|133:81,1,113.999996955872,2|0,3:1|0:1,0:1:0:0:
127,91,94982,1,0,0:1:0:0:
120,108,95100,1,10,0:1:0:0:
22,28,95336,1,2,3:1:0:0:
0,175,95573,1,0,3:1:0:0:
41,333,95809,1,2,3:1:0:0:
105,238,96045,1,8,0:1:0:0:
240,366,96281,5,2,3:1:0:0:
202,282,96517,1,0,3:1:0:0:
344,279,96754,5,2,0:1:0:0:
347,257,96872,1,0,0:1:0:0:
352,233,96990,1,8,0:1:0:0:
462,313,97226,5,2,3:1:0:0:
462,313,97462,2,0,B|505:206|505:206|410:133,1,227.999993911743,0|8,3:1|0:1,0:1:0:0:
352,233,98171,1,0,3:1:0:0:
263,112,98407,6,0,P|196:133|96:179,1,170.999995433807,2|0,3:1|0:1,0:1:0:0:
96,191,98880,1,8,0:1:0:0:
0,137,99116,1,2,3:1:0:0:
99,46,99352,1,2,3:1:0:0:
202,163,99588,1,0,3:1:0:0:
96,191,99825,2,0,P|103:262|109:308,1,113.999996955872,8|2,0:1|3:1,0:1:0:0:
270,374,100297,6,0,P|281:303|291:245,1,113.999996955872,2|0,3:1|0:1,0:1:0:0:
303,249,100651,1,0,0:1:0:0:
316,239,100769,1,8,0:1:0:0:
202,163,101006,1,0,3:1:0:0:
329,111,101242,2,0,P|316:47|302:-15,2,113.999996955872,0|0|8,3:1|3:1|0:1,0:1:0:0:
443,194,101951,1,2,3:1:0:0:
371,289,102187,6,0,P|419:349|459:348,1,113.999996955872,2|2,3:1|0:1,0:1:0:0:
467,340,102541,1,0,0:1:0:0:
467,328,102659,1,10,0:1:0:0:
317,372,102895,1,2,3:1:0:0:
194,329,103132,2,0,L|67:363,2,113.999996955872,0|2|8,3:1|3:1|0:1,0:1:0:0:
112,232,103840,5,2,3:1:0:0:
112,232,104077,1,2,3:1:0:0:
97,102,104313,2,0,P|24:92|19:91,2,56.9999984779358,0|0|8,0:1|0:1|0:1,0:1:0:0:
192,21,104785,1,0,3:1:0:0:
287,89,105021,2,0,P|380:98|515:122,1,227.999993911743,0|8,3:1|0:1,0:1:0:0:
416,201,105730,5,0,3:1:0:0:
310,303,105966,2,0,P|294:211|311:176,1,135.000005149841,0|0,3:1|0:1,0:1:0:0:
327,175,106439,1,10,0:1:0:0:
409,302,106675,1,2,3:1:0:0:
215,279,106911,2,0,P|143:290|112:295,2,90.0000034332277,2|0|8,3:1|3:1|0:1,0:1:0:0:
297,365,107620,5,2,3:1:0:0:
297,365,107856,1,0,3:1:0:0:
317,250,108092,2,0,B|343:209|343:209|316:152,1,90.0000034332277,2|8,0:1|0:1,0:1:0:0:
214,116,108565,1,2,3:1:0:0:
196,108,108683,1,0,0:1:0:0:
184,120,108801,1,2,3:1:0:0:
113,204,109037,1,2,3:1:0:0:
219,258,109273,2,0,P|213:324|214:365,1,90.0000034332277,10|0,0:1|3:1,0:1:0:0:
317,250,109746,5,0,3:1:0:0:
414,354,109982,1,2,0:1:0:0:
422,343,110100,1,0,0:1:0:0:
428,329,110218,2,0,P|426:257|412:206,1,90.0000034332277,10|0,0:1|3:1,0:1:0:0:
405,115,110691,2,0,P|338:100|279:166,1,135.000005149841,2|0,3:1|0:1,0:1:0:0:
293,153,111163,1,8,0:1:0:0:
182,104,111399,5,2,3:1:0:0:
182,104,111636,1,0,3:1:0:0:
103,187,111872,2,0,P|49:172|26:174,2,45.0000017166138,2|0|10,0:1|0:1|0:1,0:1:0:0:
195,259,112344,1,0,3:1:0:0:
108,340,112580,2,0,B|75:309|75:309|103:269,1,90.0000034332277,2|2,3:1|3:1,0:1:0:0:
276,229,113053,2,0,B|315:261|315:261|290:317,1,90.0000034332277,10|0,0:1|3:1,0:1:0:0:
204,365,113525,6,2,P|193:274|160:185,1,138.000002632141,6|0,3:1|0:1,0:1:0:0:
175,63,113998,2,2,P|226:124|233:137,2,69.0000013160706,10|2|0,0:1|0:1|0:1,0:1:0:0:
314,87,114470,2,2,P|337:164|336:177,2,69.0000013160706,2|2|0,0:1|0:1|3:1,0:1:0:0:
431,185,114943,2,2,P|436:263|396:365,1,138.000002632141,10|0,0:1|0:1,0:1:0:0:
512,304,115415,5,0,3:1:0:0:
329,262,115651,1,0,3:1:0:0:
316,262,115769,1,0,0:1:0:0:
301,268,115888,2,0,P|214:288|101:313,1,138.000002632141,8|0,0:1|0:1,0:1:0:0:
45,235,116360,2,0,B|11:173|11:173|60:109,1,138.000002632141,0|0,0:1|3:1,0:1:0:0:
139,48,116832,2,0,B|261:-25|221:142|359:109,1,207.000003948212,8|0,0:1|0:1,0:1:0:0:
343,84,117305,5,6,3:1:0:0:
206,133,117541,1,0,0:1:0:0:
194,154,117659,1,0,0:1:0:0:
202,178,117777,2,2,P|202:267|210:351,1,138.000002632141,10|0,0:1|0:1,0:1:0:0:
376,310,118250,2,2,P|374:373|373:393,2,69.0000013160706,2|2|0,0:1|0:1|3:1,0:1:0:0:
311,196,118722,1,10,0:1:0:0:
311,196,118958,1,0,0:1:0:0:
384,103,119195,6,0,P|319:65|236:86,1,138.000002632141,0|0,3:1|3:1,0:1:0:0:
247,90,119549,1,0,0:1:0:0:
256,104,119667,1,8,0:1:0:0:
147,68,119903,1,0,0:1:0:0:
44,151,120140,6,0,P|119:192|183:176,1,138.000002632141,0|0,0:1|3:1,0:1:0:0:
279,226,120612,2,0,P|268:295|257:372,1,138.000002632141,10|0,0:1|3:1,0:1:0:0:
348,305,121084,5,6,3:1:0:0:
438,370,121321,1,0,0:1:0:0:
506,267,121557,1,10,0:1:0:0:
491,273,121675,1,0,0:1:0:0:
480,279,121793,1,0,0:1:0:0:
396,191,122029,2,2,P|316:194|305:195,2,69.0000013160706,2|2|0,0:1|0:1|3:1,0:1:0:0:
470,83,122502,2,2,P|389:61|315:45,1,138.000002632141,10|0,0:1|0:1,0:1:0:0:
168,25,122974,6,0,B|98:101|98:101|193:240,1,207.000003948212,0|0,3:1|0:1,0:1:0:0:
182,217,123447,2,0,P|181:305|180:322,2,69.0000013160706,8|0|0,0:1|3:1|0:1,0:1:0:0:
287,161,123919,1,0,0:1:0:0:
370,249,124155,1,0,3:1:0:0:
471,187,124391,2,0,B|519:122|519:122|439:31,1,138.000002632141,8|0,0:1|3:1,0:1:0:0:
349,26,124864,6,2,P|183:53|108:73,1,207.000003948212,6|0,3:1|0:1,0:1:0:0:
123,90,125336,2,2,P|50:126|29:138,2,69.0000013160706,10|2|0,0:1|0:1|0:1,0:1:0:0:
229,152,125809,2,0,P|222:237|214:325,2,138.000002632141,2|2|10,0:1|3:1|0:1,0:1:0:0:
353,127,126517,1,0,0:1:0:0:
417,226,126754,6,0,P|501:197|489:102,1,138.000002632141,0|0,3:1|3:1,0:1:0:0:
406,11,127226,2,0,P|437:86|455:89,2,69.0000013160706,8|0|0,0:1|3:1|0:1,0:1:0:0:
286,30,127699,2,0,P|199:47|132:67,1,138.000002632141,0|0,0:1|3:1,0:1:0:0:
35,156,128171,2,0,P|130:166|203:191,1,138.000002632141,10|0,0:1|3:1,0:1:0:0:
313,297,128643,6,2,P|301:206|321:99,1,138.000002632141,6|0,3:1|0:1,0:1:0:0:
322,146,128998,1,0,0:1:0:0:
346,143,129116,1,8,0:1:0:0:
489,127,129352,2,0,P|507:199|498:225,2,69.0000013160706,0|0|0,0:1|3:1|0:1,0:1:0:0:
462,278,129825,1,0,3:1:0:0:
462,278,130061,2,0,L|313:312,1,138.000002632141,8|0,0:1|0:1,0:1:0:0:
183,296,130533,5,0,3:1:0:0:
70,248,130769,2,0,P|44:318|64:346,2,69.0000013160706,0|0|8,3:1|0:1|0:1,0:1:0:0:
52,154,131242,1,0,0:1:0:0:
96,32,131478,2,0,P|178:59|187:78,2,69.0000013160706,0|0|0,0:1|0:1|3:1,0:1:0:0:
181,145,131951,2,0,P|260:168|338:92,1,138.000002632141,8|0,0:1|3:1,0:1:0:0:
411,26,132423,6,0,P|441:162|440:222,1,138.000002632141,6|0,3:1|0:1,0:1:0:0:
363,263,132895,2,2,P|358:340|356:345,2,69.0000013160706,10|2|0,0:1|0:1|0:1,0:1:0:0:
224,258,133368,1,2,0:1:0:0:
209,237,133486,1,0,0:1:0:0:
221,209,133604,1,0,3:1:0:0:
97,197,133840,2,2,P|92:99|116:37,1,138.000002632141,10|0,0:1|0:1,0:1:0:0:
252,17,134313,5,0,3:1:0:0:
321,91,134549,1,0,3:1:0:0:
327,108,134667,1,0,0:1:0:0:
329,121,134785,2,0,P|315:193|316:208,2,69.0000013160706,8|0|0,0:1|3:1|0:1,0:1:0:0:
445,91,135258,1,0,0:1:0:0:
445,91,135494,1,0,3:1:0:0:
474,197,135730,2,0,P|480:269|445:361,1,138.000002632141,10|0,0:1|3:1,0:1:0:0:
331,309,136202,6,2,P|208:332|80:365,1,207.000003948212,6|0,3:1|0:1,0:1:0:0:
88,346,136675,1,8,0:1:0:0:
8,265,136911,1,0,0:1:0:0:
0,249,137029,1,0,3:1:0:0:
16,236,137147,2,0,P|110:216|208:200,1,138.000002632141,0|0,0:1|3:1,0:1:0:0:
273,135,137620,2,0,B|323:185|323:185|288:259,1,138.000002632141,8|0,0:1|0:1,0:1:0:0:
154,186,138092,6,0,P|136:103|148:36,1,138.000002632141,0|0,3:1|3:1,0:1:0:0:
12,29,138565,2,0,P|22:109|16:123,2,69.0000013160706,8|0|0,0:1|3:1|0:1,0:1:0:0:
161,40,139037,2,0,P|262:34|318:40,1,138.000002632141,0|0,0:1|3:1,0:1:0:0:
439,99,139510,1,8,0:1:0:0:
371,208,139746,1,0,3:1:0:0:
256,149,139982,6,2,P|210:233|298:318,1,207.000003948212,6|0,3:1|0:1,0:1:0:0:
280,300,140454,2,0,P|206:257|65:378,2,276.000005264282,10|2|10,0:1|0:1|0:1,0:1:0:0:
480,317,141872,5,0,3:1:0:0:
375,275,142108,1,0,3:1:0:0:
369,260,142226,1,0,0:1:0:0:
366,244,142344,2,0,P|365:159|373:145,2,69.0000013160706,8|0|0,0:1|3:1|0:1,0:1:0:0:
248,192,142817,1,0,0:1:0:0:
138,140,143053,1,0,3:1:0:0:
21,91,143289,1,8,0:1:0:0:
21,91,143525,1,0,3:1:0:0:
