osu file format v14

[General]
AudioFilename: audio.mp3
AudioLeadIn: 0
PreviewTime: 113053
Countdown: 0
SampleSet: Soft
StackLeniency: 0.7
Mode: 0
LetterboxInBreaks: 0
WidescreenStoryboard: 0

[Editor]
Bookmarks: 7699,15258,30376,45494,53053,60612,68171,75730,90848,105966,113525,128643,143762
DistanceSpacing: 1.4
BeatDivisor: 8
GridSize: 32
TimelineZoom: 1.6

[Metadata]
Title:Let Go
TitleUnicode:Let Go
Artist:OLIVIA inspi' REIRA(TRAPNEST)
ArtistUnicode:OLIVIA inspi' REIRA(TRAPNEST)
Creator:Florescence
Version:Collab Insane
Source:NANA―ナナ―
Tags:Olivia Lufkin a little pain nana ナナ anime japanese english pop j-pop jpop rock jrock j-rock glam misho15_701_4_0 misho1570140 misho
BeatmapID:4083990
BeatmapSetID:1968929

[Difficulty]
HPDrainRate:5
CircleSize:4
OverallDifficulty:8
ApproachRate:8.8
SliderMultiplier:2.8
SliderTickRate:1

[Events]
//Background and Video events
0,0,"nana3.jpg",0,0
//Break Periods
//Storyboard Layer 0 (Background)
//Storyboard Layer 1 (Fail)
//Storyboard Layer 2 (Pass)
//Storyboard Layer 3 (Foreground)
//Storyboard Layer 4 (Overlay)
//Storyboard Sound Samples

[TimingPoints]
140,472.44094488189,4,2,1,41,1,0
140,-181.818181818181,4,2,1,41,0,0
7699,-117.647058823529,4,2,1,60,0,0
8171,-100,4,2,1,60,0,0
8643,-200,4,2,1,60,0,0
8880,-125,4,2,1,60,0,0
9588,-111.111111111111,4,2,1,60,0,0
10061,-90.9090909090909,4,2,1,60,0,0
10533,-111.111111111111,4,2,1,60,0,0
10769,-142.857142857143,4,2,1,60,0,0
11478,-100,4,2,1,60,0,0
11951,-166.666666666667,4,2,1,60,0,0
12659,-133.333333333333,4,2,1,60,0,0
12895,-83.3333333333333,4,2,1,60,0,0
13368,-125,4,2,1,60,0,0
13840,-83.3333333333333,4,2,1,60,0,0
14313,-333.333333333336,4,2,1,60,0,0
15258,-100,4,2,1,60,0,0
16202,-111.111111111111,4,2,1,60,0,0
16439,-133.333333333333,4,2,1,60,0,0
16675,-76.9230769230769,4,2,1,60,0,0
17147,-100,4,2,1,60,0,0
17620,-66.6666666666667,4,2,1,60,0,0
18092,-100,4,2,1,60,0,0
18328,-125,4,2,1,60,0,0
19037,-83.3333333333333,4,2,1,60,0,0
19510,-71.4285714285714,4,2,1,60,0,0
19982,-111.111111111111,4,2,1,60,0,0
20454,-90.9090909090909,4,2,1,60,0,0
21399,-76.9230769230769,4,2,1,60,0,0
22344,-133.333333333333,4,2,1,60,0,0
22817,-90.9090909090909,4,2,1,60,0,0
23289,-76.9230769230769,4,2,1,60,0,0
23762,-125,4,2,1,60,0,0
24234,-83.3333333333333,4,2,1,60,0,0
24706,-111.111111111111,4,2,1,60,0,0
26360,-133.333333333333,4,2,1,60,0,0
27069,-83.3333333333333,4,2,1,60,0,0
27541,-111.111111111111,4,2,1,60,0,0
27777,-133.333333333333,4,2,1,60,0,0
28486,-111.111111111111,4,2,1,60,0,0
28958,-66.6666666666667,4,2,1,60,0,0
30376,-133.333333333333,4,2,1,60,0,0
31321,-83.3333333333333,4,2,1,60,0,0
32265,-133.333333333333,4,2,1,60,0,0
33210,-83.3333333333333,4,2,1,60,0,0
33447,-133.333333333333,4,2,1,60,0,0
36990,-66.6666666666667,4,2,1,60,0,0
37699,-133.333333333333,4,2,1,60,0,0
38880,-66.6666666666667,4,2,1,60,0,0
39116,-100,4,2,1,60,0,0
39825,-133.333333333333,4,2,1,60,0,0
42659,-66.6666666666667,4,2,1,60,0,0
43368,-133.333333333333,4,2,1,60,0,0
44549,-66.6666666666667,4,2,1,60,0,0
45258,-133.333333333333,4,2,1,60,0,0
45494,-133.333333333333,4,2,1,66,0,0
45966,-105.263157894737,4,2,1,66,0,0
46439,-66.6666666666667,4,2,1,66,0,0
47147,-76.9230769230769,4,2,1,66,0,0
48092,-181.818181818181,4,2,1,66,0,0
48801,-71.4285714285714,4,2,1,66,0,0
49273,-66.6666666666667,4,2,1,66,0,0
49746,-133.333333333333,4,2,1,66,0,0
50927,-100,4,2,1,66,0,0
51399,-76.9230769230769,4,2,1,66,0,0
52108,-66.6666666666667,4,2,1,66,0,0
52580,-333.333333333333,4,2,1,66,0,0
53053,-58.8235294117647,4,2,1,77,0,0
53525,-71.4285714285714,4,2,1,77,0,0
53998,-133.333333333333,4,2,1,77,0,0
54470,-66.6666666666667,4,2,1,77,0,0
55415,-83.3333333333333,4,2,1,77,0,0
55888,-133.333333333333,4,2,1,77,0,0
56360,-181.818181818181,4,2,1,77,0,0
56832,-58.8235294117647,4,2,1,77,0,0
58250,-100,4,2,1,77,0,0
59195,-71.4285714285714,4,2,1,77,0,0
60140,-181.818181818181,4,2,1,77,0,0
60612,-75.5725375444366,4,2,1,77,0,0
61084,-133.333333333333,4,2,1,77,0,0
61557,-80,4,2,1,77,0,0
67699,-133.333333333333,4,2,1,77,0,0
68171,-133.333333333333,4,2,1,56,0,0
75730,-125,4,2,1,64,0,0
79037,-200,4,2,1,64,0,0
79510,-125,4,2,1,64,0,0
80927,-100,4,2,1,64,0,0
90848,-133.333333333333,4,2,1,64,0,0
90966,-133.333333333333,4,2,2,34,0,0
91084,-133.333333333333,4,2,3,25,0,0
91202,-133.333333333333,4,2,2,17,0,0
91321,-133.333333333333,4,2,1,65,0,0
91439,-133.333333333333,4,2,3,35,0,0
91557,-133.333333333333,4,2,2,16,0,0
91675,-133.333333333333,4,2,3,39,0,0
91793,-133.333333333333,4,2,1,64,0,0
92265,-100,4,2,1,64,0,0
97462,-100,4,2,1,64,0,0
105494,-153.846153846153,4,2,1,64,0,0
105966,-153.846153846153,4,2,1,69,0,0
107147,-100,4,2,1,69,0,0
108801,-66.6666666666667,4,2,1,69,0,0
109510,-133.333333333333,4,2,1,69,0,0
110218,-105.263157894737,4,2,1,69,0,0
111399,-133.333333333333,4,2,1,69,0,0
113053,-200,4,2,1,69,0,0
113525,-66.6666666666667,4,2,1,81,0,0
114943,-100,4,2,1,81,0,0
116596,-66.6666666666667,4,2,1,81,0,0
117305,-76.9230769230769,4,2,1,81,0,0
118722,-200,4,2,1,81,0,0
119195,-100,4,2,1,81,0,0
121084,-66.6666666666667,4,2,1,81,0,0
121557,-83.3333333333333,4,2,1,81,0,0
124391,-133.333333333333,4,2,1,81,0,0
124864,-80,4,2,1,81,0,0
126281,-250,4,2,1,81,0,0
128171,-133.333333333333,4,2,1,81,0,0
128643,-83.3333333333333,4,2,1,71,0,0
130061,-62.5,4,2,1,71,0,0
131478,-83.3333333333333,4,2,1,71,0,0
131951,-76.9230769230769,4,2,1,71,0,0
132895,-62.5,4,2,1,71,0,0
134549,-83.3333333333333,4,2,1,71,0,0
135730,-153.846153846153,4,2,1,71,0,0
136202,-58.8235294117647,4,2,1,71,0,0
137147,-100,4,2,1,71,0,0
139982,-62.5,4,2,1,71,0,0
140927,-83.3333333333333,4,2,1,71,0,0
142108,-100,4,2,1,71,0,0
142580,-66.6666666666667,4,2,1,71,0,0
143289,-166.666666666667,4,2,1,71,0,0

[Colours]
Combo1 : 195,195,195
Combo2 : 226,173,255
Combo3 : 249,172,174
Combo4 : 203,186,180
Combo5 : 159,210,223
Combo6 : 198,218,146
Combo7 : 225,164,113
Combo8 : 130,242,166

[HitObjects]
508,326,140,6,0,P|442:347|340:379,1,154.000004699707,0|0,0:1|0:1,0:1:0:0:
361,372,1084,1,0,0:1:0:0:
361,372,1321,1,0,0:1:0:0:
361,372,1793,1,0,0:1:0:0:
327,285,2029,6,0,P|384:266|492:233,1,154.000004699707,0|0,0:1|0:1,0:1:0:0:
361,372,2974,1,0,0:1:0:0:
361,372,3210,2,0,P|282:360|188:343,1,154.000004699707,0|0,0:1|0:1,0:1:0:0:
235,55,3919,6,0,P|265:127|293:199,1,154.000004699707,0|0,0:1|0:1,0:1:0:0:
361,372,4864,1,0,0:1:0:0:
292,198,5100,1,0,0:1:0:0:
292,198,5573,1,0,0:1:0:0:
235,55,5809,6,0,P|265:127|293:199,1,154.000004699707,0|0,0:1|0:1,0:1:0:0:
364,170,6754,2,0,P|318:188|278:204,1,77.0000023498536,0|0,0:1|0:1,0:1:0:0:
292,198,7462,1,0,0:1:0:0:
25,373,7699,6,0,P|92:337|185:340,1,119.000002269745,0|0,3:1|0:1,0:1:0:0:
400,373,8171,2,0,P|337:357|292:284,1,140,8|0,0:1|0:1,0:1:0:0:
468,166,8643,6,0,P|503:199|508:211,1,35,0|0,3:1|0:1,0:1:0:0:
368,221,8880,2,0,P|381:284|364:307,1,56,0|0,3:1|0:1,0:1:0:0:
248,239,9116,1,8,0:1:0:0:
248,239,9352,1,0,3:1:0:0:
3,88,9588,6,0,P|63:169|119:209,1,125.999996154785,0|0,3:1|0:1,0:1:0:0:
368,221,10061,2,0,P|257:195|184:163,1,154.000004699707,8|0,0:1|0:1,0:1:0:0:
2,87,10533,6,0,P|2:59|6:19,1,62.9999980773926,0|0,3:1|0:1,0:1:0:0:
78,117,10769,2,0,P|82:61|82:45,1,48.9999985046387,0|0,3:1|0:1,0:1:0:0:
149,149,11006,1,8,0:1:0:0:
220,180,11242,1,0,3:1:0:0:
298,209,11478,6,0,P|294:312|291:399,1,140,0|0,3:1|0:1,0:1:0:0:
302,42,11951,2,0,P|300:98|298:133,1,83.9999974365235,8|0,0:1|0:1,0:1:0:0:
381,233,12423,6,0,B|417:224|417:225|431:188,1,41.9999987182618,0|0,3:1|0:1,0:1:0:0:
385,148,12659,2,0,P|405:98|396:75,1,52.5000020027161,0|0,3:1|0:1,0:1:0:0:
298,125,12895,2,0,B|300:66|188:83|224:185|287:155,1,167.999994873047,8|0,0:1|3:1,0:1:0:0:
173,315,13368,6,0,P|119:248|111:206,1,112,0|0,3:1|0:1,0:1:0:0:
254,28,13840,2,0,P|311:97|274:161,1,167.999994873047,8|0,0:1|0:1,0:1:0:0:
326,336,14313,6,0,P|340:360|355:375,1,41.9999987182618,0|0,3:1|3:1,0:1:0:0:
122,274,14785,2,0,P|138:303|153:321,1,41.9999987182618,8|0,0:1|3:1,0:1:0:0:
0,64,15258,6,0,P|69:207|134:311,1,280,0|8,3:1|0:1,0:1:0:0:
110,49,16202,6,0,P|120:78|108:106,1,62.9999980773926,0|0,3:1|0:1,0:1:0:0:
44,209,16439,2,0,P|-3:183|-6:170,1,52.5000020027161,0|0,3:1|0:1,0:1:0:0:
162,217,16675,2,0,B|212:181|212:181|308:202|308:202|367:166,1,181.999991668702,8|0,0:1|3:1,0:1:0:0:
469,79,17147,2,0,P|451:162|420:309,1,210,0|0,3:1|0:1,0:1:0:0:
396,129,17620,6,0,P|459:232|506:349,1,210.000008010865,8|0,0:1|0:1,0:1:0:0:
260,134,18092,6,0,P|276:47|284:11,1,70,0|0,3:1|0:1,0:1:0:0:
135,82,18328,2,0,P|153:136|166:165,1,56,0|0,3:1|0:1,0:1:0:0:
29,83,18565,1,8,0:1:0:0:
396,129,18801,1,0,3:1:0:0:
29,83,19037,6,0,P|60:205|138:192,1,167.999994873047,0|0,3:1|0:1,0:1:0:0:
396,129,19510,2,0,P|313:192|265:304,1,195.999994018555,8|0,0:1|0:1,0:1:0:0:
117,364,19982,6,0,P|72:298|67:273,1,62.9999980773926,0|0,3:1|0:1,0:1:0:0:
126,356,20218,2,0,P|110:283|112:263,1,62.9999980773926,0|0,3:1|0:1,0:1:0:0:
80,211,20454,2,0,P|92:290|126:357,1,154.000004699707,8|0,0:1|3:1,0:1:0:0:
301,4,20927,6,0,P|238:70|200:249,1,231.000007049561,0|0,3:1|0:1,0:1:0:0:
312,148,21399,2,0,P|409:113|498:141,1,181.999991668702,8|0,0:1|0:1,0:1:0:0:
145,90,21872,5,0,3:1:0:0:
312,148,22108,1,0,3:1:0:0:
208,210,22344,2,0,P|207:251|206:280,1,52.5000020027161,8|0,0:1|0:1,0:1:0:0:
281,313,22580,1,0,3:1:0:0:
244,380,22817,6,0,P|251:297|333:229,1,154.000004699707,0|0,3:1|0:1,0:1:0:0:
204,80,23289,2,0,P|208:221|204:304,1,181.999991668702,8|0,0:1|0:1,0:1:0:0:
122,0,23762,6,0,P|121:60|88:92,1,56,0|0,3:1|0:1,0:1:0:0:
4,82,23998,2,0,P|30:42|57:42,1,56,0|0,3:1|0:1,0:1:0:0:
215,167,24234,2,0,P|111:171|72:117,1,167.999994873047,8|0,0:1|3:1,0:1:0:0:
512,351,24706,6,0,P|407:283|300:217,1,251.999992309571,0|8,3:1|0:1,0:1:0:0:
512,351,25651,1,0,3:1:0:0:
512,351,25888,1,0,3:1:0:0:
215,167,26124,1,8,0:1:0:0:
154,215,26360,2,0,P|178:279|180:286,1,52.5000020027161,0|0,3:1|0:1,0:1:0:0:
69,199,26596,2,0,P|91:140|99:124,1,52.5000020027161,0|0,3:1|0:1,0:1:0:0:
0,239,26832,1,0,0:1:0:0:
377,125,27069,6,0,P|295:145|214:166,1,167.999994873047,8|0,0:1|0:1,0:1:0:0:
379,7,27541,2,0,P|399:34|422:67,1,62.9999980773926,0|0,3:1|0:1,0:1:0:0:
461,177,27777,2,0,L|467:111,1,52.5000020027161,0|0,3:1|0:1,0:1:0:0:
511,67,28014,1,8,0:1:0:0:
511,67,28250,1,0,3:1:0:0:
386,225,28486,6,0,P|230:275|194:290,1,188.999994232178,0|0,3:1|0:1,0:1:0:0:
138,312,28958,2,0,P|262:338|371:364,1,210.000008010865,8|0,0:1|0:1,0:1:0:0:
250,366,29431,5,0,3:1:0:0:
275,293,29667,1,0,3:1:0:0:
212,74,29903,1,8,0:1:0:0:
225,1,30140,1,0,3:1:0:0:
437,29,30376,6,0,P|457:157|270:192,1,315.000012016297,2|0,3:1|0:1,0:1:0:0:
375,187,31321,6,0,P|417:200|442:316,1,167.999994873047,2|0,3:1|3:1,0:1:0:0:
416,321,31675,1,0,0:1:0:0:
455,384,31793,1,10,0:1:0:0:
279,285,32029,6,0,L|179:311,1,83.9999974365235,2|0,3:1|0:1,0:1:0:0:
8,381,32265,2,0,L|188:273,1,210.000008010865,2|8,3:1|0:1,0:1:0:0:
183,242,32974,1,0,0:1:0:0:
104,15,33210,6,0,P|89:40|70:106,1,83.9999974365235,2|0,3:1|0:1,0:1:0:0:
102,71,33447,2,0,P|90:40|53:24,1,52.5000020027161,2|0,3:1|0:1,0:1:0:0:
6,55,33683,1,8,0:1:0:0:
133,140,33919,2,0,L|199:118,1,52.5000020027161,0|0,3:1|0:1,0:1:0:0:
195,147,34155,6,0,B|246:121|249:172|313:143,1,105.000004005432,2|2,3:1|0:1,0:1:0:0:
351,96,34510,1,0,0:1:0:0:
305,35,34628,2,0,L|239:13,1,52.5000020027161,8|0,0:1|0:1,0:1:0:0:
297,149,34864,2,0,L|341:281,2,105.000004005432,2|0|2,0:1|3:1|3:1,0:1:0:0:
255,18,35573,1,8,0:1:0:0:
423,55,35809,6,0,P|483:32|507:-6,1,105.000004005432,2|0,3:1|3:1,0:1:0:0:
381,191,36281,2,0,P|411:226|469:213,1,105.000004005432,2|8,0:1|0:1,0:1:0:0:
456,201,36636,1,0,0:1:0:0:
478,323,36754,2,0,P|504:307|502:276,1,52.5000020027161,2|0,0:1|0:1,0:1:0:0:
402,301,36990,6,0,B|271:350|271:350|287:350|287:350|335:313,2,210.000008010865,2|2|8,3:1|3:1|0:1,0:1:0:0:
323,298,37699,2,0,B|333:274|333:274|332:270|332:270|342:249,1,52.5000020027161,0|0,3:1|0:1,0:1:0:0:
160,352,37935,6,0,P|65:364|125:202,1,315.000012016297,2|0,3:1|0:1,0:1:0:0:
98,272,38880,6,0,P|48:273|19:232,1,105.000004005432,2|0,3:1|0:1,0:1:0:0:
203,289,39116,2,0,P|143:205|49:162,1,210.000008010865,2|0,3:1|0:1,0:1:0:0:
8,193,39588,1,2,3:1:0:0:
144,6,39825,6,0,B|174:52|174:52|160:117,1,105.000004005432,2|0,3:1|0:1,0:1:0:0:
187,141,40179,1,0,0:1:0:0:
141,202,40297,1,8,0:1:0:0:
14,97,40533,1,0,0:1:0:0:
0,69,40651,1,0,0:1:0:0:
55,19,40769,5,2,3:1:0:0:
141,202,41006,2,0,P|91:194|41:173,2,105.000004005432,2|8|0,3:1|0:1|3:1,0:1:0:0:
160,207,41596,5,0,0:1:0:0:
246,228,41714,2,0,P|272:236|305:260,1,52.5000020027161,2|0,3:1|0:1,0:1:0:0:
307,258,41951,1,2,0:1:0:0:
333,280,42187,1,8,0:1:0:0:
405,304,42423,1,2,0:1:0:0:
503,379,42659,6,0,P|389:349|331:276,2,210.000008010865,2|2|8,3:1|3:1|0:1,0:1:0:0:
487,358,43250,1,0,0:1:0:0:
511,311,43368,2,0,P|487:319|473:341,1,52.5000020027161,2|0,3:1|0:1,0:1:0:0:
401,376,43604,6,0,P|372:283|313:200,1,157.500006008148,2|0,3:1|0:1,0:1:0:0:
276,198,44077,1,8,0:1:0:0:
220,45,44313,2,0,P|236:21|272:-7,1,52.5000020027161,0|0,0:1|0:1,0:1:0:0:
298,78,44549,6,0,B|266:90|266:90|162:45|162:45|178:111,2,210.000008010865,2|2|8,3:1|3:1|0:1,0:1:0:0:
314,75,45140,1,0,0:1:0:0:
309,58,45258,2,0,L|369:85,1,52.5000020027161,0|0,3:1|0:1,0:1:0:0:
467,92,45494,6,0,B|481:136|481:136|486:129|486:129|420:110,1,105.000004005432,0|0,3:1|0:1,0:1:0:0:
385,213,45966,2,0,P|398:287|399:304,1,66.4999982242585,10|0,0:1|0:1,0:1:0:0:
467,92,46202,2,0,P|486:11|489:6,1,66.4999982242585,2|0,0:1|0:1,0:1:0:0:
397,278,46439,6,0,P|299:214|209:241,2,210.000008010865,2|0|8,3:1|3:1|0:1,0:1:0:0:
63,126,47147,2,0,P|48:24|32:4,1,90.9999958343508,2|0,3:1|0:1,0:1:0:0:
76,145,47384,1,0,3:1:0:0:
405,252,47620,2,0,P|419:150|439:127,1,90.9999958343508,2|0,0:1|0:1,0:1:0:0:
397,278,47856,1,8,0:1:0:0:
168,363,48092,5,2,0:1:0:0:
397,278,48328,2,0,P|460:290|470:292,1,38.5000011749268,2|0,3:1|0:1,0:1:0:0:
76,145,48565,2,0,P|32:156|28:157,1,38.5000011749268,2|0,3:1|0:1,0:1:0:0:
168,363,48801,1,10,0:1:0:0:
168,363,49037,2,0,P|198:232|202:216,1,97.9999970092774,0|0,3:1|0:1,0:1:0:0:
189,321,49273,6,0,P|118:213|65:128,3,210.000008010865,0|2|10|0,3:1|0:1|0:1|0:1,0:1:0:0:
162,36,50218,2,0,B|153:62|153:62|121:62,1,52.5000020027161,2|0,3:1|0:1,0:1:0:0:
0,44,50454,2,0,P|75:52|150:66,1,105.000004005432,0|8,3:1|0:1,0:1:0:0:
392,71,50927,6,0,P|383:148|383:156,1,70,2|0,3:1|0:1,0:1:0:0:
473,123,51163,1,0,3:1:0:0:
38,284,51399,6,0,P|50:372|39:401,1,90.9999958343508,2|0,0:1|0:1,0:1:0:0:
55,362,51636,2,0,B|-28:311|30:282|81:290,1,90.9999958343508,10|0,0:1|0:1,0:1:0:0:
133,321,51872,1,0,0:1:0:0:
199,360,51990,1,0,0:1:0:0:
235,252,52108,6,0,B|358:278|416:189|296:333,1,210.000008010865,2|2,3:1|3:1,0:1:0:0:
105,189,52580,2,0,P|88:140|89:136,1,41.9999987182618,10|0,0:1|3:1,0:1:0:0:
323,2,53053,6,0,P|419:85|346:169,1,238.00000453949,6|2,3:1|0:1,0:1:0:0:
274,75,53407,1,0,0:1:0:0:
387,62,53525,2,2,P|229:111|144:141,1,195.999994018555,10|0,0:1|0:1,0:1:0:0:
105,189,53880,5,0,3:1:0:0:
81,219,53998,2,2,P|41:274|36:281,2,52.5000020027161,2|2|0,0:1|0:1|3:1,0:1:0:0:
320,301,54470,2,0,P|175:254|272:93,1,315.000012016297,10|0,0:1|0:1,0:1:0:0:
89,74,54943,5,0,3:1:0:0:
450,255,55179,1,0,3:1:0:0:
381,222,55297,1,0,0:1:0:0:
365,354,55415,6,0,B|371:374|371:374|403:319,1,83.9999974365235,8|0,0:1|3:1,0:1:0:0:
478,127,55651,2,0,B|473:108|473:108|438:168,1,83.9999974365235,0|0,0:1|3:1,0:1:0:0:
241,6,55888,6,0,P|273:102|288:152,1,105.000004005432,0|0,0:1|3:1,0:1:0:0:
474,327,56360,2,0,P|457:280|440:220,1,77.0000023498536,8|0,0:1|3:1,0:1:0:0:
45,342,56832,6,2,P|162:283|272:225,1,238.00000453949,6|0,3:1|0:1,0:1:0:0:
440,163,57187,1,0,0:1:0:0:
512,235,57305,1,10,0:1:0:0:
450,293,57423,1,0,0:1:0:0:
422,261,57541,1,0,0:1:0:0:
432,252,57659,1,0,3:1:0:0:
437,263,57777,6,2,P|317:198|170:127,1,238.00000453949,2|0,0:1|3:1,0:1:0:0:
262,303,58250,6,2,P|259:387|260:397,1,70,10|0,0:1|0:1,0:1:0:0:
226,152,58486,2,0,P|239:234|241:245,1,70,0|0,0:1|0:1,0:1:0:0:
254,61,58722,5,0,3:1:0:0:
254,61,58958,1,0,3:1:0:0:
55,351,59195,6,0,B|11:286|23:268|85:270,1,97.9999970092774,8|0,0:1|3:1,0:1:0:0:
186,317,59431,1,0,0:1:0:0:
151,336,59549,1,0,3:1:0:0:
268,360,59667,6,0,B|336:263|287:256|237:301,1,97.9999970092774,0|0,0:1|0:1,0:1:0:0:
146,319,59903,1,0,3:1:0:0:
181,342,60021,1,0,0:1:0:0:
206,222,60140,6,0,B|186:150|159:206|157:221,1,77.0000023498536,10|0,0:1|3:1,0:1:0:0:
225,226,60612,6,2,P|258:122|119:96,1,277.87870992961,6|0,3:1|0:1,0:1:0:0:
66,141,61084,1,10,0:1:0:0:
31,107,61202,1,0,0:1:0:0:
51,31,61321,1,0,0:1:0:0:
343,169,61557,6,2,L|431:189,1,87.5,2|0,0:1|0:1,0:1:0:0:
500,179,61793,1,0,3:1:0:0:
490,149,61911,1,0,0:1:0:0:
413,164,62029,2,2,P|387:197|395:263,1,87.5,10|0,0:1|0:1,0:1:0:0:
441,90,62265,5,0,0:1:0:0:
387,36,62384,5,0,0:1:0:0:
492,0,62502,5,0,3:1:0:0:
506,342,62738,5,0,3:1:0:0:
438,377,62974,1,8,0:1:0:0:
208,316,63210,6,0,L|167:303,2,43.75,0|0|0,0:1|0:1|3:1,0:1:0:0:
163,322,63447,2,0,B|239:369|263:290|329:314,2,175,0|0|8,0:1|3:1|0:1,0:1:0:0:
131,294,64037,1,0,0:1:0:0:
149,263,64155,1,0,3:1:0:0:
166,275,64273,1,0,0:1:0:0:
101,369,64391,6,2,P|6:332|28:263,1,175,6|0,3:1|0:1,0:1:0:0:
293,118,64864,2,2,P|314:83|334:27,1,87.5,10|0,0:1|0:1,0:1:0:0:
111,81,65100,1,0,0:1:0:0:
186,60,65218,1,0,3:1:0:0:
127,123,65336,6,2,P|106:158|86:214,1,87.5,2|0,0:1|0:1,0:1:0:0:
224,292,65573,2,0,P|190:269|148:226,1,87.5,0|0,3:1|0:1,0:1:0:0:
28,150,65809,6,2,P|148:246|259:225,1,262.5,10|0,0:1|0:1,0:1:0:0:
284,164,66281,1,0,3:1:0:0:
431,357,66517,5,0,3:1:0:0:
508,353,66636,1,0,0:1:0:0:
447,306,66754,1,8,0:1:0:0:
369,307,66872,1,0,3:1:0:0:
302,242,66990,1,0,3:1:0:0:
309,118,67226,5,0,3:1:0:0:
457,82,67462,5,0,0:0:0:0:
487,71,67699,6,0,P|501:74|529:85,6,26.2500010013581,8|0|0|0|0|0|0,0:1|0:0|0:0|0:0|0:0|0:0|0:0,0:0:0:0:
455,30,68171,1,0,0:0:0:0:
300,314,68643,2,0,P|364:321|370:364,1,105.000004005432,8|0,0:1|0:1,0:1:0:0:
448,256,69116,1,0,3:1:0:0:
448,256,69352,1,0,3:1:0:0:
448,256,69588,2,0,P|444:184|438:130,1,105.000004005432,8|0,0:1|3:1,0:1:0:0:
411,26,70061,5,0,3:1:0:0:
333,76,70297,1,0,0:1:0:0:
314,95,70415,1,0,0:1:0:0:
324,108,70533,1,8,0:1:0:0:
230,84,70769,1,0,0:1:0:0:
146,117,71006,1,0,3:1:0:0:
103,165,71242,1,0,3:1:0:0:
28,58,71478,5,8,0:1:0:0:
234,99,71714,1,0,3:1:0:0:
126,247,71951,6,0,P|123:168|114:31,1,210.000008010865,0|8,3:1|0:1,0:1:0:0:
114,37,72659,1,0,0:1:0:0:
46,296,72895,2,0,B|43:317|43:317|78:330|78:330|41:392,1,105.000004005432,0|0,3:1|3:1,0:1:0:0:
125,246,73368,2,0,B|116:200|73:180|13:230,1,105.000004005432,8|0,0:1|3:1,0:1:0:0:
257,318,73840,6,0,B|218:360|193:355|149:341,1,105.000004005432,0|0,3:1|0:1,0:1:0:0:
160,332,74195,1,0,0:1:0:0:
172,322,74313,1,8,0:1:0:0:
296,382,74549,1,0,0:1:0:0:
395,295,74785,2,0,B|511:268|511:268|467:286|467:286|428:318,1,210.000008010865,0|8,3:1|0:1,0:1:0:0:
493,234,75494,1,0,3:1:0:0:
273,335,75730,6,0,P|191:363|122:383,1,112,0|0,3:1|0:1,0:1:0:0:
190,345,76084,1,0,0:1:0:0:
273,347,76202,2,0,P|336:361|406:377,1,112,8|0,0:1|3:1,0:1:0:0:
74,331,76675,1,0,3:1:0:0:
74,331,76911,1,0,3:1:0:0:
256,154,77147,2,0,P|260:210|264:266,1,112,8|0,0:1|3:1,0:1:0:0:
253,33,77620,6,0,P|246:101|242:159,1,112,0|0,3:1|0:1,0:1:0:0:
256,154,77974,1,0,0:1:0:0:
280,132,78092,1,8,0:1:0:0:
174,98,78328,1,0,3:1:0:0:
353,54,78565,1,0,3:1:0:0:
386,119,78801,1,0,3:1:0:0:
174,98,79037,6,0,P|140:93|88:88,1,70,8|0,0:1|3:1,0:1:0:0:
466,66,79510,5,0,3:1:0:0:
466,66,79982,1,8,0:1:0:0:
466,66,80218,2,0,P|483:132|484:136,1,56,0|0,3:1|0:1,0:1:0:0:
429,187,80454,2,0,P|356:166|371:98,1,112,0|0,3:1|3:1,0:1:0:0:
22,344,80927,2,0,P|98:285|73:213,1,140,8|0,0:1|3:1,0:1:0:0:
113,361,81399,5,0,3:1:0:0:
113,361,81636,1,0,0:1:0:0:
113,361,81754,1,0,0:1:0:0:
113,361,81872,1,8,0:1:0:0:
96,249,82108,1,0,3:1:0:0:
125,167,82344,1,0,3:1:0:0:
201,143,82580,2,0,B|256:144|256:144|271:187|271:187|218:221,2,140,0|8|0,3:1|0:1|3:1,0:1:0:0:
297,142,83289,6,0,P|275:65|276:-7,1,140,0|0,3:1|0:1,0:1:0:0:
304,18,83643,1,0,0:1:0:0:
251,41,83762,1,8,0:1:0:0:
402,94,83998,1,0,3:1:0:0:
510,47,84234,2,0,P|501:152|473:239,2,140,0|0|8,3:1|3:1|0:1,0:1:0:0:
396,80,84943,1,0,3:1:0:0:
457,273,85179,6,0,P|396:231|405:149,1,140,0|0,3:1|0:1,0:1:0:0:
408,170,85533,1,0,0:1:0:0:
417,180,85651,1,8,0:1:0:0:
385,369,85888,5,0,3:1:0:0:
244,257,86124,2,0,P|220:183|231:166,1,70,0|0,3:1|0:1,0:1:0:0:
173,127,86360,2,0,B|208:91|253:90|258:99,1,70,0|0,3:1|0:1,0:1:0:0:
316,136,86596,1,8,0:1:0:0:
385,369,86832,1,0,3:1:0:0:
74,257,87069,6,0,L|43:332,1,70,0|0,3:1|0:1,0:1:0:0:
0,195,87305,2,0,L|89:166,1,70,0|0,0:1|0:1,0:1:0:0:
173,127,87541,2,0,P|70:81|29:62,2,140,8|0|0,0:1|3:1|3:1,0:1:0:0:
246,43,88250,2,0,P|272:136|291:201,1,140,0|8,3:1|0:1,0:1:0:0:
247,375,88722,6,0,P|206:353|234:315,1,70,0|0,3:1|0:1,0:1:0:0:
359,130,88958,2,0,P|415:179|387:270,1,140,0|0,3:1|0:1,0:1:0:0:
345,287,89313,1,0,0:1:0:0:
306,258,89431,1,8,0:1:0:0:
186,31,89667,5,0,3:1:0:0:
186,31,89903,2,0,P|172:132|162:218,1,140,0|0,3:1|3:1,0:1:0:0:
167,169,90376,1,8,0:1:0:0:
434,343,90612,2,0,P|448:261|450:242,1,70,0|0,3:1|0:1,0:1:0:0:
511,352,90848,6,2,B|316:131|293:407|101:293,1,420.000016021729,2|2,3:1|3:1,0:1:0:0:
249,257,92029,2,0,L|237:290,2,26.2500010013581,0|0|0,3:1|0:1|0:1,0:1:0:0:
62,226,92265,2,0,B|25:305|25:305|70:363,1,140,10|2,0:1|3:1,0:1:0:0:
256,330,92738,6,0,P|190:346|134:309,1,140,2|0,3:1|0:1,0:1:0:0:
135,217,93092,1,0,0:1:0:0:
163,192,93210,1,8,0:1:0:0:
132,95,93447,1,0,3:1:0:0:
218,12,93683,2,0,P|280:76|218:118,1,140,0|0,3:1|3:1,0:1:0:0:
3,84,94155,2,0,P|15:8|80:6,1,140,8|0,0:1|3:1,0:1:0:0:
46,152,94628,5,2,3:1:0:0:
119,128,94864,1,0,0:1:0:0:
119,128,94982,1,0,0:1:0:0:
119,128,95100,1,10,0:1:0:0:
182,177,95336,1,2,3:1:0:0:
182,177,95573,1,0,3:1:0:0:
259,210,95809,1,2,3:1:0:0:
337,177,96045,1,8,0:1:0:0:
426,197,96281,1,2,3:1:0:0:
511,162,96517,6,0,P|412:183|346:205,1,140,0|2,3:1|0:1,0:1:0:0:
311,234,96872,1,0,0:1:0:0:
274,269,96990,1,8,0:1:0:0:
227,358,97226,1,2,3:1:0:0:
386,293,97462,2,0,P|447:246|456:229,1,70,0|0,3:1|0:1,0:1:0:0:
501,253,97699,2,0,P|456:181|438:167,1,70,0|0,3:1|0:1,0:1:0:0:
511,162,97935,1,8,0:1:0:0:
502,56,98171,1,0,3:1:0:0:
293,17,98407,6,0,P|262:80|354:141,1,140,2|0,3:1|0:1,0:1:0:0:
368,170,98762,1,0,0:1:0:0:
411,134,98880,1,8,0:1:0:0:
295,134,99116,6,0,P|252:72|236:78,1,70,2|0,3:1|0:1,0:1:0:0:
153,25,99352,2,0,P|93:71|118:166,2,140,2|0|8,3:1|3:1|0:1,0:1:0:0:
368,170,100061,1,2,3:1:0:0:
43,285,100297,6,0,P|138:257|193:248,1,140,2|0,3:1|0:1,0:1:0:0:
289,266,100651,1,0,0:1:0:0:
262,226,100769,1,8,0:1:0:0:
258,136,101006,1,0,3:1:0:0:
426,48,101242,6,0,P|378:5|310:33,1,140,0|0,3:1|3:1,0:1:0:0:
496,337,101714,2,0,P|407:300|351:283,1,140,8|2,0:1|3:1,0:1:0:0:
94,172,102187,6,0,L|6:131,1,70,2|0,3:1|0:1,0:1:0:0:
139,169,102423,1,0,0:1:0:0:
156,182,102541,1,0,0:1:0:0:
155,198,102659,2,0,B|147:266|56:141|179:186,1,140,8|2,0:1|3:1,0:1:0:0:
193,299,103132,1,0,3:1:0:0:
193,299,103368,2,0,L|199:373,1,70,2|0,3:1|0:1,0:1:0:0:
281,321,103604,2,0,P|273:233|270:161,1,140,8|2,0:1|3:1,0:1:0:0:
241,17,104077,5,2,3:1:0:0:
271,96,104313,1,0,0:1:0:0:
276,90,104431,1,0,0:1:0:0:
281,87,104549,1,8,0:1:0:0:
358,121,104785,1,0,3:1:0:0:
446,115,105021,1,0,3:1:0:0:
345,137,105258,1,0,3:1:0:0:
271,96,105494,2,0,P|241:51|235:18,2,45.4999979171754,8|0|0,0:1|0:1|3:1,0:1:0:0:
389,244,105966,5,0,3:1:0:0:
389,244,106439,2,0,L|380:309,1,45.4999979171754,10|0,0:1|0:1,0:1:0:0:
417,357,106675,1,2,3:1:0:0:
310,303,106793,1,0,0:1:0:0:
245,340,106911,2,0,P|219:343|188:350,1,45.4999979171754,2|0,3:1|0:1,0:1:0:0:
62,383,107147,6,0,P|-7:318|18:260,2,140,0|8|2,3:1|0:1|3:1,0:1:0:0:
129,353,107738,1,0,0:1:0:0:
117,335,107856,2,0,P|123:300|133:258,1,70,0|0,3:1|0:1,0:1:0:0:
107,150,108092,1,2,0:1:0:0:
34,172,108210,1,0,0:1:0:0:
2,105,108328,6,0,P|7:70|15:36,1,70,8|0,0:1|0:1,0:1:0:0:
130,16,108565,6,0,P|138:50|144:84,1,70,2|0,3:1|0:1,0:1:0:0:
222,284,108801,6,0,P|239:189|276:53,2,210.000008010865,2|0|10,3:1|3:1|0:1,0:1:0:0:
279,28,109510,6,0,P|273:56|265:90,1,52.5000020027161,0|0,3:1|0:1,0:1:0:0:
245,358,109746,2,0,P|204:311|230:280,1,105.000004005432,0|2,3:1|0:1,0:1:0:0:
287,246,110100,5,0,0:1:0:0:
209,187,110218,2,0,P|172:194|138:206,1,66.4999982242585,10|0,0:1|0:1,0:1:0:0:
378,164,110454,5,0,3:1:0:0:
435,221,110573,1,0,0:1:0:0:
512,197,110691,1,2,3:1:0:0:
512,197,110927,1,0,3:1:0:0:
512,197,111163,1,8,0:1:0:0:
145,203,111399,6,0,P|122:189|90:178,1,52.5000020027161,2|0,3:1|0:1,0:1:0:0:
173,188,111636,1,0,3:1:0:0:
311,241,111872,6,0,P|285:256|244:263,1,52.5000020027161,2|0,0:1|0:1,0:1:0:0:
367,187,112108,6,0,P|341:172|300:165,1,52.5000020027161,10|0,0:1|0:1,0:1:0:0:
405,295,112344,1,0,3:1:0:0:
503,12,112580,6,0,P|490:62|471:112,1,105.000004005432,2|2,3:1|3:1,0:1:0:0:
478,44,112935,1,0,0:1:0:0:
465,24,113053,2,0,P|441:48|385:78,1,70,10|0,0:1|3:1,0:1:0:0:
272,144,113525,6,2,P|307:59|421:41,1,210.000008010865,6|0,3:1|0:1,0:1:0:0:
472,112,113880,1,0,0:1:0:0:
401,149,113998,2,2,P|373:121|411:51,1,105.000004005432,10|0,0:1|0:1,0:1:0:0:
505,254,114234,5,0,0:1:0:0:
432,297,114352,1,0,3:1:0:0:
507,273,114470,2,2,P|427:336|317:374,1,210.000008010865,2|0,0:1|3:1,0:1:0:0:
264,334,114825,1,0,0:1:0:0:
154,365,114943,6,2,P|111:376|68:381,1,70,10|0,0:1|0:1,0:1:0:0:
16,239,115179,1,0,0:1:0:0:
78,283,115297,1,0,0:1:0:0:
0,351,115415,5,0,3:1:0:0:
84,132,115651,2,0,P|61:69|6:5,2,140,0|8|0,3:1|0:1|0:1,0:1:0:0:
144,60,116242,1,0,3:1:0:0:
114,132,116360,2,0,P|123:169|141:203,1,70,0|0,0:1|0:1,0:1:0:0:
305,25,116596,6,0,P|202:47|198:141,2,210.000008010865,0|8|0,3:1|0:1|3:1,0:1:0:0:
512,230,117305,2,2,B|442:177|416:267|336:230,1,181.999991668702,6|0,3:1|0:1,0:1:0:0:
290,175,117659,1,0,0:1:0:0:
359,208,117777,2,2,P|370:252|379:297,1,90.9999958343508,10|0,0:1|0:1,0:1:0:0:
478,37,118014,2,0,P|469:81|457:125,1,90.9999958343508,0|0,0:1|3:1,0:1:0:0:
316,380,118250,6,2,P|241:323|265:243,1,181.999991668702,2|0,0:1|3:1,0:1:0:0:
420,369,118722,2,2,P|442:353|452:292,1,70,10|0,0:1|0:1,0:1:0:0:
210,314,119195,6,0,L|114:343,1,70,0|0,3:1|0:1,0:1:0:0:
81,377,119431,1,0,3:1:0:0:
18,335,119549,1,0,0:1:0:0:
141,307,119667,2,0,P|178:319|189:372,1,70,8|0,0:1|3:1,0:1:0:0:
255,384,119903,5,0,0:1:0:0:
273,367,120021,1,0,3:1:0:0:
292,293,120140,2,0,P|279:221|259:147,1,140,0|0,0:1|3:1,0:1:0:0:
224,108,120494,1,0,0:0:0:0:
176,48,120612,6,0,B|211:-11|302:16|291:69|244:88|228:17|262:13,1,140,10|0,0:1|3:1,0:1:0:0:
169,14,121084,2,2,P|69:41|67:138,1,210,6|0,3:1|0:1,0:1:0:0:
127,176,121439,1,0,0:1:0:0:
40,243,121557,2,2,P|1:201|19:166,1,83.9999974365235,10|0,0:1|0:1,0:1:0:0:
36,215,121793,2,0,B|58:249|58:249|18:264,1,83.9999974365235,0|0,0:1|3:1,0:1:0:0:
154,254,122029,5,2,0:1:0:0:
199,285,122147,1,0,0:1:0:0:
275,250,122265,1,0,3:1:0:0:
412,335,122502,6,2,L|497:361,1,83.9999974365235,10|0,0:1|0:1,0:1:0:0:
479,201,122738,1,0,0:1:0:0:
433,232,122856,1,0,0:1:0:0:
492,278,122974,1,0,3:1:0:0:
354,56,123210,6,0,B|307:47|317:73|258:65,1,83.9999974365235,0|0,3:1|0:1,0:1:0:0:
262,11,123447,2,0,P|301:20|342:48,1,83.9999974365235,8|0,0:1|3:1,0:1:0:0:
427,80,123683,1,0,0:1:0:0:
225,378,123919,5,0,0:1:0:0:
170,325,124037,1,0,0:1:0:0:
190,252,124155,1,0,3:1:0:0:
325,202,124391,2,0,P|357:207|403:267,1,105.000004005432,8|0,0:1|3:1,0:1:0:0:
87,336,124864,6,2,P|78:254|84:159,1,175,6|0,3:1|0:1,0:1:0:0:
111,138,125218,1,0,0:1:0:0:
43,78,125336,2,2,P|12:104|6:164,1,87.5,10|0,0:1|0:1,0:1:0:0:
163,69,125573,5,0,0:1:0:0:
96,16,125691,1,0,3:1:0:0:
176,28,125809,2,2,P|256:94|250:162,1,175,2|0,0:1|3:1,0:1:0:0:
202,380,126281,2,2,P|184:344|196:313,1,56,10|0,0:1|0:1,0:1:0:0:
213,350,126754,1,0,3:1:0:0:
288,291,126990,5,0,3:1:0:0:
309,307,127108,1,0,0:1:0:0:
359,281,127226,1,8,0:1:0:0:
317,212,127344,1,0,3:1:0:0:
248,248,127462,1,0,0:1:0:0:
93,174,127699,5,0,0:1:0:0:
191,8,127935,5,0,3:1:0:0:
394,110,128171,6,0,P|425:127|505:150,1,105.000004005432,10|0,0:1|3:1,0:1:0:0:
499,130,128525,1,0,0:1:0:0:
411,153,128643,1,6,3:1:0:0:
177,110,128880,2,0,B|161:98|161:98|223:83,1,83.9999974365235,0|0,0:1|0:1,0:1:0:0:
290,143,129116,2,0,B|311:69|311:69|305:71,1,83.9999974365235,8|0,0:1|0:1,0:1:0:0:
216,192,129352,6,0,P|236:290|241:393,2,167.999994873047,0|0|0,0:1|0:1|3:1,0:1:0:0:
361,373,130061,2,0,B|401:262|83:375|257:359,1,224,8|0,0:1|0:1,0:1:0:0:
13,37,130533,5,0,3:1:0:0:
85,68,130769,1,0,3:1:0:0:
100,80,130888,1,0,0:1:0:0:
106,98,131006,2,0,P|70:141|29:106,2,112,8|0|0,0:1|3:1|0:1,0:1:0:0:
91,327,131478,5,0,0:1:0:0:
97,298,131596,1,0,0:1:0:0:
141,247,131714,1,0,3:1:0:0:
141,247,131951,2,0,P|262:204|353:206,1,181.999991668702,8|0,0:1|3:1,0:1:0:0:
224,360,132423,5,6,3:1:0:0:
314,202,132659,1,0,0:1:0:0:
291,150,132777,1,0,0:1:0:0:
213,143,132895,1,10,0:1:0:0:
289,247,133014,5,0,0:1:0:0:
289,247,133132,1,0,0:1:0:0:
289,247,133250,1,0,3:1:0:0:
291,150,133368,6,0,P|225:13|147:47,1,224,2|0,0:1|3:1,0:1:0:0:
379,249,133722,5,0,0:0:0:0:
388,361,133840,2,2,P|433:245|522:271,1,224,10|0,0:1|0:1,0:1:0:0:
262,253,134313,5,0,3:1:0:0:
21,146,134549,6,0,P|56:168|65:208,2,83.9999974365235,0|0|8,3:1|0:1|0:1,0:1:0:0:
0,188,134903,1,0,3:1:0:0:
85,144,135021,1,0,0:1:0:0:
154,135,135140,1,0,3:1:0:0:
154,135,135258,5,0,0:1:0:0:
154,135,135494,1,0,3:1:0:0:
226,169,135730,2,0,P|260:187|264:148,1,90.9999958343508,10|0,0:1|3:1,0:1:0:0:
414,30,136202,6,2,P|404:131|502:103,1,238.00000453949,4|2,3:1|0:1,0:1:0:0:
422,127,136557,1,0,0:1:0:0:
459,178,136675,2,0,P|437:308|437:309,1,119.000002269745,8|0,0:1|0:1,0:1:0:0:
254,354,136911,5,0,0:1:0:0:
290,324,137029,1,0,3:1:0:0:
245,286,137147,2,0,P|234:198|234:178,3,70,0|0|0|0,0:1|0:1|3:1|0:1,0:1:0:0:
140,140,137620,6,0,P|133:203|78:178,1,140,8|0,0:1|0:1,0:1:0:0:
288,211,137974,1,0,0:0:0:0:
367,260,138092,6,0,P|242:219|180:196,1,140,0|0,3:1|3:1,0:1:0:0:
323,88,138565,5,8,0:1:0:0:
314,98,138683,1,0,3:1:0:0:
306,108,138801,1,0,0:1:0:0:
121,67,139037,6,0,P|154:136|158:143,1,70,0|0,0:1|0:1,0:1:0:0:
108,74,139273,2,0,P|148:142|153:154,1,70,0|0,3:1|0:1,0:1:0:0:
4,334,139510,6,0,P|86:284|140:260,1,140,8|0,0:1|3:1,0:1:0:0:
0,136,139982,6,2,P|142:156|284:161,1,224,6|0,3:1|0:1,0:1:0:0:
360,186,140336,1,0,0:1:0:0:
465,146,140454,1,10,0:1:0:0:
373,55,140573,5,0,0:1:0:0:
370,68,140691,1,0,0:1:0:0:
367,80,140809,1,0,3:1:0:0:
477,158,140927,6,2,P|506:272|507:280,2,83.9999974365235,2|2|0,0:1|0:1|3:1,0:1:0:0:
224,309,141399,6,2,P|288:259|368:277,1,167.999994873047,10|2,0:1|0:1,0:1:0:0:
224,309,141872,5,0,3:1:0:0:
236,15,142108,6,0,P|208:101|203:114,1,70,0|0,3:1|0:1,0:1:0:0:
315,142,142344,1,8,0:1:0:0:
219,117,142462,1,0,3:1:0:0:
88,192,142580,6,0,B|185:99|185:99|97:52,2,210.000008010865,0|0|0,0:1|0:1|3:1,0:1:0:0:
384,56,143289,6,0,P|425:63|467:71,1,83.9999974365235,8|0,0:1|3:1,0:1:0:0:
