osu file format v14

[General]
AudioFilename: audio.mp3
AudioLeadIn: 0
PreviewTime: 51990
Countdown: 0
SampleSet: Normal
StackLeniency: 0.7
Mode: 1
LetterboxInBreaks: 0
WidescreenStoryboard: 1

[Editor]
Bookmarks: 18104,39922,52877,70468,87922
DistanceSpacing: 0.2
BeatDivisor: 4
GridSize: 32
TimelineZoom: 5.999997

[Metadata]
Title:Heading to Over (TV Size)
TitleUnicode:Heading to Over (TV Size)
Artist:OLDCODEX
ArtistUnicode:OLDCODEX
Creator:radar
Version:Muzukashii
Source:Free!-Dive to the Future-
Tags:spoes Japanese rock Anime Opening OP Pool Swimsuit Male Vocal
BeatmapID:2365554
BeatmapSetID:1132528

[Difficulty]
HPDrainRate:6
CircleSize:5
OverallDifficulty:5
ApproachRate:5
SliderMultiplier:1.4
SliderTickRate:1

[Events]
//Background and Video events
0,0,"men.jpg",0,-60
//Break Periods
//Storyboard Layer 0 (Background)
//Storyboard Layer 1 (Fail)
//Storyboard Layer 2 (Pass)
//Storyboard Layer 3 (Foreground)
//Storyboard Layer 4 (Overlay)
//Storyboard Sound Samples

[TimingPoints]
718,272.727272727273,4,1,0,80,1,0
39990,-90.9090909090909,4,1,0,80,0,1
44354,-100,4,1,0,80,0,0
48718,-90.9090909090909,4,1,0,80,0,0
51990,-100,4,1,0,80,0,0
52945,-90.9090909090909,4,1,0,80,0,1
70536,-100,4,1,0,80,0,0
72990,-95.2380952380952,4,1,0,80,0,0
74763,-95.2380952380952,4,1,0,80,0,1
74899,-90.9090909090909,4,1,0,80,0,1
83490,-90.9090909090909,4,1,0,80,0,0
83627,-100,4,1,0,80,0,0
87990,-90.9090909090909,4,1,0,80,0,0

[HitObjects]
73,273,718,5,8,0:0:0:0:
73,273,854,1,0,0:0:0:0:
76,272,2899,1,8,0:0:0:0:
76,272,3036,1,0,0:0:0:0:
71,290,5081,1,8,0:0:0:0:
71,290,5354,1,0,0:0:0:0:
71,290,5490,1,8,0:0:0:0:
71,290,5627,1,0,0:0:0:0:
71,290,5763,1,0,0:0:0:0:
71,290,5899,1,8,0:0:0:0:
71,290,6172,1,0,0:0:0:0:
71,290,6308,1,0,0:0:0:0:
71,290,6445,1,8,0:0:0:0:
71,290,6581,1,8,0:0:0:0:
71,290,6718,1,0,0:0:0:0:
105,49,7127,1,12,0:0:0:0:
79,290,7399,1,8,0:0:0:0:
79,290,7536,1,0,0:0:0:0:
79,290,7672,1,8,0:0:0:0:
79,290,7740,1,8,0:0:0:0:
79,290,7808,1,8,0:0:0:0:
79,290,7945,1,8,0:0:0:0:
79,290,8081,1,0,0:0:0:0:
92,296,8218,1,8,0:0:0:0:
92,296,8286,1,8,0:0:0:0:
92,296,8354,1,8,0:0:0:0:
92,296,8490,1,0,0:0:0:0:
92,296,8627,1,0,0:0:0:0:
92,296,8763,1,8,0:0:0:0:
108,280,8899,1,8,0:0:0:0:
87,16,9308,1,12,0:0:0:0:
101,291,9581,1,0,0:0:0:0:
100,291,9718,1,8,0:0:0:0:
101,291,9990,1,0,0:0:0:0:
101,291,10263,1,8,0:0:0:0:
100,291,10399,1,0,0:0:0:0:
101,291,10672,1,0,0:0:0:0:
101,291,10808,1,8,0:0:0:0:
101,291,11081,1,8,0:0:0:0:
114,298,11218,1,8,0:0:0:0:
114,298,11354,1,0,0:0:0:0:
103,27,11490,1,12,0:0:0:0:
122,291,11763,1,0,0:0:0:0:
122,295,11899,1,8,0:0:0:0:
122,291,12172,1,8,0:0:0:0:
122,291,12445,1,8,0:0:0:0:
126,295,12718,1,0,0:0:0:0:
126,295,12990,1,8,0:0:0:0:
126,295,13263,1,8,0:0:0:0:
126,295,13536,1,0,0:0:0:0:
98,15,13672,1,12,0:0:0:0:
117,298,13945,1,0,0:0:0:0:
117,298,14081,1,8,0:0:0:0:
126,297,14354,1,8,0:0:0:0:
126,297,14627,1,8,0:0:0:0:
126,287,14763,1,0,0:0:0:0:
122,304,15036,1,0,0:0:0:0:
122,304,15172,1,8,0:0:0:0:
122,304,15308,1,0,0:0:0:0:
122,304,15445,1,8,0:0:0:0:
122,304,15718,1,8,0:0:0:0:
94,0,15854,1,4,0:0:0:0:
117,300,16127,1,0,0:0:0:0:
117,300,16263,1,8,0:0:0:0:
117,300,16536,1,0,0:0:0:0:
119,288,16808,1,0,0:0:0:0:
105,271,16945,1,0,0:0:0:0:
105,271,17081,1,8,0:0:0:0:
105,271,17218,1,0,0:0:0:0:
105,271,17354,1,8,0:0:0:0:
105,271,17627,1,0,0:0:0:0:
116,269,17763,1,8,0:0:0:0:
116,269,17831,1,8,0:0:0:0:
116,269,17899,1,8,0:0:0:0:
82,23,18172,1,12,0:0:0:0:
121,281,18718,1,8,0:0:0:0:
121,281,18854,1,0,0:0:0:0:
115,286,19127,1,0,0:0:0:0:
115,298,19536,1,0,0:0:0:0:
115,298,19808,1,8,0:0:0:0:
108,296,19945,1,0,0:0:0:0:
108,296,20218,1,8,0:0:0:0:
88,26,20354,1,4,0:0:0:0:
100,308,20899,1,8,0:0:0:0:
105,287,21036,1,0,0:0:0:0:
112,311,21308,1,0,0:0:0:0:
112,309,21581,1,0,0:0:0:0:
112,309,21718,1,8,0:0:0:0:
112,311,21990,1,8,0:0:0:0:
112,309,22127,1,8,0:0:0:0:
112,309,22399,1,0,0:0:0:0:
97,14,22536,1,12,0:0:0:0:
126,317,22808,1,0,0:0:0:0:
131,297,23354,1,0,0:0:0:0:
131,295,23627,1,0,0:0:0:0:
142,290,23899,1,8,0:0:0:0:
142,288,24172,1,8,0:0:0:0:
142,288,24445,1,0,0:0:0:0:
107,29,24718,1,12,0:0:0:0:
120,288,25127,1,8,0:0:0:0:
120,288,25263,1,8,0:0:0:0:
120,288,25399,1,0,0:0:0:0:
120,288,25536,1,8,0:0:0:0:
87,33,25808,1,12,0:0:0:0:
132,289,26081,1,0,0:0:0:0:
132,289,26218,1,8,0:0:0:0:
145,286,26490,1,8,0:0:0:0:
98,21,26763,1,4,0:0:0:0:
139,292,27172,1,8,0:0:0:0:
139,292,27445,1,8,0:0:0:0:
139,292,27718,1,0,0:0:0:0:
146,292,27854,1,0,0:0:0:0:
139,292,27990,1,8,0:0:0:0:
139,292,28263,1,8,0:0:0:0:
139,292,28536,1,0,0:0:0:0:
139,292,28672,1,8,0:0:0:0:
142,0,28945,1,4,0:0:0:0:
130,297,29354,1,8,0:0:0:0:
130,297,29627,1,8,0:0:0:0:
130,297,29899,1,0,0:0:0:0:
130,297,30036,1,0,0:0:0:0:
130,297,30172,1,8,0:0:0:0:
130,297,30445,1,8,0:0:0:0:
130,297,30718,1,0,0:0:0:0:
130,297,30854,1,8,0:0:0:0:
120,20,31127,1,4,0:0:0:0:
134,304,31399,1,0,0:0:0:0:
134,304,31536,1,8,0:0:0:0:
134,304,31808,1,8,0:0:0:0:
134,304,32081,1,0,0:0:0:0:
146,304,32354,1,8,0:0:0:0:
147,304,32627,1,8,0:0:0:0:
143,316,32899,1,0,0:0:0:0:
143,316,33036,1,0,0:0:0:0:
143,315,33172,1,8,0:0:0:0:
143,316,33445,1,0,0:0:0:0:
144,311,33718,1,8,0:0:0:0:
144,311,33990,1,8,0:0:0:0:
144,311,34263,1,0,0:0:0:0:
146,302,34536,1,8,0:0:0:0:
145,299,34808,1,8,0:0:0:0:
145,299,34945,1,8,0:0:0:0:
146,302,35081,1,0,0:0:0:0:
146,302,35218,1,8,0:0:0:0:
145,299,35490,1,0,0:0:0:0:
145,299,35558,1,0,0:0:0:0:
145,299,35627,1,0,0:0:0:0:
137,295,36036,1,0,0:0:0:0:
137,295,36172,1,8,0:0:0:0:
137,295,36308,1,0,0:0:0:0:
101,277,36718,1,0,0:0:0:0:
125,291,36854,1,8,0:0:0:0:
101,277,37127,1,0,0:0:0:0:
101,277,37263,1,8,0:0:0:0:
114,264,37399,1,0,0:0:0:0:
113,274,37672,1,8,0:0:0:0:
101,277,37808,1,0,0:0:0:0:
101,277,38081,1,0,0:0:0:0:
101,277,38218,1,0,0:0:0:0:
101,277,38354,1,8,0:0:0:0:
101,277,38627,1,0,0:0:0:0:
101,277,38899,1,8,0:0:0:0:
101,277,39172,1,0,0:0:0:0:
101,277,39308,1,0,0:0:0:0:
95,281,39445,1,8,0:0:0:0:
95,281,39581,1,0,0:0:0:0:
106,33,39990,1,12,0:0:0:0:
96,297,40127,1,0,0:0:0:0:
96,297,40263,1,8,0:0:0:0:
96,297,40331,1,8,0:0:0:0:
96,297,40399,1,8,0:0:0:0:
98,295,40536,1,0,0:0:0:0:
96,297,40672,1,0,0:0:0:0:
102,301,40808,1,8,0:0:0:0:
102,301,40945,1,8,0:0:0:0:
99,312,41218,1,0,0:0:0:0:
99,312,41354,1,8,0:0:0:0:
99,312,41490,1,0,0:0:0:0:
99,312,41627,1,8,0:0:0:0:
104,308,41899,1,8,0:0:0:0:
104,322,42036,1,0,0:0:0:0:
98,302,42172,1,8,0:0:0:0:
98,302,42240,1,8,0:0:0:0:
98,302,42308,1,8,0:0:0:0:
91,317,42445,1,0,0:0:0:0:
82,330,42581,1,0,0:0:0:0:
91,318,42718,1,8,0:0:0:0:
91,318,42786,1,8,0:0:0:0:
91,318,42854,1,8,0:0:0:0:
91,317,42990,1,0,0:0:0:0:
91,317,43127,1,8,0:0:0:0:
98,306,43263,1,0,0:0:0:0:
99,297,43536,1,8,0:0:0:0:
103,328,43672,1,0,0:0:0:0:
106,319,43808,1,8,0:0:0:0:
106,319,43945,1,0,0:0:0:0:
104,28,44081,1,12,0:0:0:0:
108,55,44354,1,4,0:0:0:0:
115,301,44763,1,0,0:0:0:0:
115,301,44899,1,8,0:0:0:0:
115,301,45445,1,0,0:0:0:0:
115,301,45581,1,8,0:0:0:0:
115,301,45854,1,0,0:0:0:0:
115,301,45990,1,8,0:0:0:0:
115,301,46127,1,0,0:0:0:0:
115,301,46399,1,8,0:0:0:0:
129,17,46536,1,4,0:0:0:0:
125,297,46808,1,0,0:0:0:0:
125,297,46945,1,0,0:0:0:0:
125,297,47081,1,8,0:0:0:0:
125,297,47218,1,0,0:0:0:0:
125,297,47627,1,0,0:0:0:0:
125,297,47763,1,8,0:0:0:0:
125,297,47899,1,0,0:0:0:0:
125,297,48036,1,8,0:0:0:0:
125,297,48308,1,0,0:0:0:0:
94,24,48718,1,12,0:0:0:0:
105,263,48854,1,0,0:0:0:0:
111,281,48922,1,0,0:0:0:0:
111,281,48990,1,0,0:0:0:0:
111,281,49127,1,8,0:0:0:0:
105,290,49399,1,0,0:0:0:0:
105,290,49536,1,8,0:0:0:0:
129,295,49672,1,0,0:0:0:0:
129,295,49740,1,0,0:0:0:0:
105,290,49808,1,0,0:0:0:0:
114,287,49945,1,8,0:0:0:0:
114,287,50218,1,0,0:0:0:0:
114,287,50354,1,8,0:0:0:0:
114,287,50490,1,0,0:0:0:0:
102,10,50763,1,12,0:0:0:0:
104,288,51172,1,8,0:0:0:0:
104,288,51308,1,0,0:0:0:0:
104,288,51445,1,8,0:0:0:0:
104,288,51581,1,0,0:0:0:0:
104,288,51649,1,0,0:0:0:0:
104,288,51718,1,0,0:0:0:0:
99,10,51854,1,12,0:0:0:0:
92,266,52536,1,8,0:0:0:0:
92,266,52672,1,8,0:0:0:0:
92,266,52808,1,8,0:0:0:0:
83,6,52945,1,4,0:0:0:0:
80,286,53218,1,0,0:0:0:0:
84,285,53354,1,8,0:0:0:0:
84,285,53490,1,8,0:0:0:0:
80,286,53627,1,0,0:0:0:0:
80,286,53763,1,8,0:0:0:0:
80,286,53899,1,0,0:0:0:0:
97,33,54036,1,12,0:0:0:0:
68,286,54308,1,0,0:0:0:0:
68,285,54445,1,8,0:0:0:0:
68,286,54718,1,8,0:0:0:0:
68,286,54854,1,8,0:0:0:0:
68,286,54990,1,0,0:0:0:0:
68,285,55127,1,0,0:0:0:0:
107,14,55263,1,12,0:0:0:0:
75,304,55536,1,8,0:0:0:0:
69,311,55672,1,0,0:0:0:0:
78,312,55808,1,8,0:0:0:0:
88,309,55945,1,0,0:0:0:0:
77,329,56013,1,0,0:0:0:0:
88,309,56081,1,0,0:0:0:0:
99,16,56218,1,12,0:0:0:0:
91,296,56627,1,8,0:0:0:0:
91,296,56763,1,0,0:0:0:0:
91,296,56899,1,8,0:0:0:0:
100,285,57036,1,0,0:0:0:0:
100,285,57104,1,0,0:0:0:0:
100,285,57172,1,0,0:0:0:0:
109,16,57445,1,12,0:0:0:0:
108,289,57718,1,0,0:0:0:0:
108,289,57854,1,8,0:0:0:0:
138,283,58127,1,8,0:0:0:0:
118,285,58263,1,0,0:0:0:0:
119,284,58399,1,0,0:0:0:0:
105,15,58536,1,12,0:0:0:0:
125,291,58808,1,8,0:0:0:0:
125,291,58945,1,8,0:0:0:0:
125,291,59081,1,0,0:0:0:0:
136,285,59218,1,0,0:0:0:0:
125,291,59354,1,8,0:0:0:0:
126,27,59627,1,12,0:0:0:0:
140,280,59763,1,0,0:0:0:0:
140,280,59831,1,0,0:0:0:0:
140,280,59899,1,0,0:0:0:0:
140,280,60036,1,8,0:0:0:0:
143,285,60172,1,0,0:0:0:0:
143,285,60308,1,8,0:0:0:0:
143,285,60445,1,8,0:0:0:0:
126,25,60581,1,4,0:0:0:0:
154,284,60990,1,8,0:0:0:0:
154,284,61127,1,0,0:0:0:0:
154,284,61263,1,8,0:0:0:0:
154,284,61399,1,0,0:0:0:0:
154,284,61468,1,0,0:0:0:0:
154,284,61536,1,0,0:0:0:0:
122,28,61672,1,12,0:0:0:0:
140,280,62081,1,8,0:0:0:0:
151,294,62218,1,0,0:0:0:0:
151,294,62354,1,8,0:0:0:0:
151,294,62490,1,8,0:0:0:0:
151,294,62627,1,0,0:0:0:0:
107,40,62763,1,12,0:0:0:0:
126,306,63036,1,0,0:0:0:0:
126,306,63172,1,8,0:0:0:0:
126,306,63445,1,0,0:0:0:0:
126,306,63581,1,0,0:0:0:0:
126,306,63718,1,8,0:0:0:0:
143,8,63990,1,4,0:0:0:0:
131,294,64263,1,8,0:0:0:0:
131,294,64399,1,0,0:0:0:0:
131,294,64536,1,8,0:0:0:0:
131,294,64672,1,0,0:0:0:0:
132,284,64808,1,0,0:0:0:0:
115,22,64945,1,12,0:0:0:0:
135,290,65218,1,0,0:0:0:0:
135,290,65354,1,8,0:0:0:0:
135,290,65490,1,0,0:0:0:0:
135,290,65627,1,0,0:0:0:0:
151,283,65763,1,8,0:0:0:0:
151,283,65831,1,8,0:0:0:0:
151,283,65899,1,8,0:0:0:0:
126,22,66036,1,4,0:0:0:0:
122,281,66445,1,8,0:0:0:0:
122,281,66581,1,0,0:0:0:0:
132,283,66718,1,8,0:0:0:0:
132,283,66786,1,8,0:0:0:0:
132,283,66854,1,8,0:0:0:0:
132,283,66990,1,0,0:0:0:0:
132,283,67127,1,8,0:0:0:0:
135,274,67263,1,0,0:0:0:0:
135,274,67331,1,0,0:0:0:0:
135,274,67399,1,0,0:0:0:0:
135,274,67536,1,8,0:0:0:0:
135,274,67672,1,0,0:0:0:0:
135,274,67740,1,0,0:0:0:0:
135,274,67808,1,0,0:0:0:0:
135,274,67945,1,8,0:0:0:0:
135,274,68081,1,8,0:0:0:0:
122,269,68218,1,0,0:0:0:0:
112,31,68354,1,12,0:0:0:0:
124,264,68763,1,8,0:0:0:0:
124,264,69036,1,8,0:0:0:0:
124,264,69308,1,0,0:0:0:0:
124,264,69581,1,0,0:0:0:0:
124,264,69718,1,0,0:0:0:0:
140,259,69854,1,0,0:0:0:0:
124,264,70127,1,0,0:0:0:0:
91,10,70536,1,12,0:0:0:0:
130,281,71081,1,0,0:0:0:0:
130,281,71627,1,0,0:0:0:0:
130,281,72036,1,0,0:0:0:0:
130,281,72308,1,0,0:0:0:0:
130,281,72445,1,8,0:0:0:0:
115,10,72718,1,4,0:0:0:0:
140,294,72990,1,8,0:0:0:0:
140,294,73058,1,8,0:0:0:0:
140,294,73127,1,8,0:0:0:0:
140,294,73263,1,0,0:0:0:0:
137,302,73399,1,0,0:0:0:0:
137,302,73536,1,8,0:0:0:0:
137,302,73672,1,0,0:0:0:0:
137,303,73808,1,8,0:0:0:0:
137,303,73945,1,8,0:0:0:0:
129,302,74081,1,0,0:0:0:0:
129,302,74149,1,0,0:0:0:0:
129,302,74218,1,0,0:0:0:0:
129,302,74354,1,8,0:0:0:0:
129,302,74490,1,0,0:0:0:0:
126,303,74627,1,0,0:0:0:0:
121,30,74763,1,12,0:0:0:0:
129,302,75172,1,8,0:0:0:0:
128,297,75308,1,0,0:0:0:0:
128,297,75445,1,8,0:0:0:0:
129,302,75581,1,8,0:0:0:0:
129,302,75718,1,0,0:0:0:0:
112,21,75854,1,12,0:0:0:0:
128,303,76127,1,0,0:0:0:0:
129,302,76263,1,8,0:0:0:0:
129,302,76399,1,0,0:0:0:0:
138,297,76468,1,0,0:0:0:0:
128,303,76536,1,0,0:0:0:0:
128,303,76672,1,8,0:0:0:0:
128,303,76808,1,0,0:0:0:0:
103,27,76945,1,12,0:0:0:0:
127,300,77218,1,0,0:0:0:0:
122,295,77354,1,8,0:0:0:0:
122,291,77627,1,8,0:0:0:0:
122,291,77899,1,8,0:0:0:0:
126,295,78172,1,0,0:0:0:0:
126,295,78445,1,8,0:0:0:0:
126,295,78718,1,8,0:0:0:0:
126,295,78990,1,0,0:0:0:0:
98,15,79127,1,12,0:0:0:0:
125,303,79536,1,8,0:0:0:0:
125,303,79672,1,8,0:0:0:0:
125,303,79808,1,0,0:0:0:0:
125,303,79945,1,8,0:0:0:0:
125,303,80081,1,0,0:0:0:0:
142,22,80218,1,12,0:0:0:0:
125,303,80627,1,8,0:0:0:0:
125,303,80763,1,0,0:0:0:0:
125,303,80831,1,0,0:0:0:0:
125,303,80899,1,0,0:0:0:0:
125,303,81036,1,8,0:0:0:0:
125,303,81172,1,0,0:0:0:0:
159,2,81308,1,12,0:0:0:0:
125,303,81581,1,0,0:0:0:0:
125,303,81718,1,8,0:0:0:0:
125,303,81854,1,0,0:0:0:0:
125,303,81990,1,8,0:0:0:0:
125,289,82127,1,8,0:0:0:0:
125,290,82263,1,0,0:0:0:0:
126,290,82399,1,8,0:0:0:0:
121,292,82672,1,8,0:0:0:0:
119,290,82740,1,8,0:0:0:0:
121,292,82808,1,8,0:0:0:0:
125,290,82945,1,0,0:0:0:0:
126,290,83081,1,8,0:0:0:0:
127,290,83218,1,0,0:0:0:0:
127,290,83354,1,0,0:0:0:0:
123,9,83490,1,12,0:0:0:0:
145,281,83899,1,8,0:0:0:0:
145,281,84172,1,8,0:0:0:0:
157,298,84581,1,0,0:0:0:0:
157,298,84718,1,8,0:0:0:0:
157,297,84990,1,8,0:0:0:0:
157,298,85127,1,0,0:0:0:0:
157,298,85195,1,0,0:0:0:0:
157,298,85263,1,0,0:0:0:0:
157,298,85399,1,8,0:0:0:0:
157,298,85536,1,8,0:0:0:0:
120,19,85808,1,4,0:0:0:0:
139,289,86218,1,0,0:0:0:0:
139,289,86354,1,8,0:0:0:0:
139,289,86490,1,0,0:0:0:0:
139,289,86763,1,0,0:0:0:0:
139,289,86899,1,8,0:0:0:0:
139,289,87036,1,0,0:0:0:0:
139,289,87172,1,0,0:0:0:0:
139,289,87308,1,0,0:0:0:0:
139,289,87445,1,0,0:0:0:0:
139,289,87581,1,8,0:0:0:0:
139,289,87718,1,8,0:0:0:0:
139,289,87854,1,8,0:0:0:0:
105,24,87990,1,4,0:0:0:0:
