osu file format v14

[General]
AudioFilename: audio.mp3
AudioLeadIn: 0
PreviewTime: 52089
Countdown: 0
SampleSet: Soft
StackLeniency: 0.4
Mode: 0
LetterboxInBreaks: 0
WidescreenStoryboard: 1

[Editor]
DistanceSpacing: 1.5
BeatDivisor: 4
GridSize: 4
TimelineZoom: 1.7

[Metadata]
Title:Heading to Over (TV Size)
TitleUnicode:Heading to Over (TV Size)
Artist:OLDCODEX
ArtistUnicode:OLDCODEX
Creator:Lobelia
Version:Hard
Source:Free!-Dive to the Future-
Tags:Kanor Sandrew Regraz Ryuusei Aika YORKE. Ta_2 eba opening
BeatmapID:1708184
BeatmapSetID:812980

[Difficulty]
HPDrainRate:5
CircleSize:3.5
OverallDifficulty:6
ApproachRate:8
SliderMultiplier:1.2
SliderTickRate:1

[Events]
//Background and Video events
0,0,"free.jpg",0,0
Video,-400,"free.avi"
//Break Periods
//Storyboard Layer 0 (Background)
//Storyboard Layer 1 (Fail)
//Storyboard Layer 2 (Pass)
//Storyboard Layer 3 (Foreground)
//Storyboard Sound Samples

[TimingPoints]
680,272.727272727273,4,2,2,80,1,0
680,-100,4,2,2,80,0,0
952,-100,4,2,1,60,0,0
2861,-100,4,2,2,80,0,0
3134,-100,4,2,1,60,0,0
5043,-100,4,2,1,60,0,0
6680,-100,4,2,2,80,0,0
7089,-100,4,2,1,60,0,0
8861,-100,4,2,2,80,0,0
9133,-100,4,2,1,60,0,0
11043,-100,4,2,2,80,0,0
11316,-100,4,2,1,60,0,0
15407,-100,4,2,2,80,0,0
15680,-100,4,2,1,60,0,0
18134,-100,4,2,2,60,0,0
24680,-100,4,2,2,60,0,0
35589,-125,4,2,1,40,0,0
39952,-100,4,2,2,60,0,0
44043,-100,4,2,1,60,0,0
44316,-125,4,2,1,40,0,0
48680,-100,4,2,2,60,0,0
51816,-100,4,2,1,80,0,0
52089,-100,4,2,1,40,0,0
52498,-100,4,2,2,80,0,0
52907,-100,4,2,2,80,0,1
61640,272.727272727273,4,2,2,80,1,1
61776,272.727272727273,4,2,2,80,1,1
70503,-125,4,2,1,50,0,0
73217,272.727272727273,4,2,2,50,1,0
73217,-125,4,2,2,50,0,0
73762,-125,4,2,2,80,0,0
74717,-100,4,2,1,60,0,0
76489,-100,4,2,2,80,0,0
76762,-100,4,2,1,60,0,0
78671,-100,4,2,2,80,0,0
78944,-100,4,2,1,60,0,0
79089,272.727272727273,4,2,2,60,1,0
79225,272.727272727273,4,2,2,60,1,0
80861,-100,4,2,2,80,0,0
81134,-100,4,2,1,60,0,0
87952,-100,4,2,1,30,0,0

[Colours]
Combo1 : 158,158,80
Combo2 : 82,73,188
Combo3 : 66,67,94
Combo4 : 221,185,77
Combo5 : 141,54,104

[HitObjects]
100,61,680,5,8,0:0:0:0:
100,61,816,1,8,0:0:0:0:
43,130,952,2,0,P|23:192|51:247,1,120,2|0,0:0|0:0,0:0:0:0:
114,183,1361,2,0,L|190:178,1,60,2|0,0:0|0:0,0:0:0:0:
256,216,1634,1,2,0:0:0:0:
256,216,1770,6,0,L|251:288,1,60,2|0,0:0|0:0,0:0:0:0:
317,337,2043,2,0,L|378:344,1,60,2|0,0:0|0:0,0:0:0:0:
447,287,2316,2,0,L|453:219,1,60,2|0,0:0|0:0,0:0:0:0:
392,159,2589,2,0,L|323:153,1,60,2|0,0:0|0:0,0:0:0:0:
269,90,2861,5,8,0:0:0:0:
269,90,2998,1,8,0:0:0:0:
196,37,3134,2,0,B|138:27|138:27|77:45,1,120,2|0,0:0|0:0,0:0:0:0:
143,115,3543,2,0,L|147:184,1,60,2|0,0:0|0:0,0:0:0:0:
152,265,3816,1,2,0:0:0:0:
152,265,3952,6,0,P|176:297|201:313,1,60,2|0,0:0|0:0,0:0:0:0:
280,325,4225,2,0,P|312:321|346:306,1,60,2|0,0:0|0:0,0:0:0:0:
413,261,4498,2,0,L|408:194,1,60,2|0,0:0|0:0,0:0:0:0:
464,131,4770,2,0,L|458:58,1,60,2|0,0:0|0:0,0:0:0:0:
393,9,5043,6,0,L|267:6,1,120,6|0,0:0|1:0,0:0:0:0:
208,69,5452,1,0,0:0:0:0:
208,69,5589,2,0,B|193:129|225:129|209:194,1,120,0|0,1:0|1:0,0:0:0:0:
123,163,5998,1,0,0:0:0:0:
123,163,6134,6,0,P|127:225|175:270,1,120,2|0,1:2|1:0,0:0:0:0:
255,264,6543,1,0,0:0:0:0:
327,210,6680,1,10,0:0:0:0:
265,292,6816,2,0,L|264:360,1,60,10|0,0:0|0:0,0:0:0:0:
369,366,7089,6,0,P|361:309|361:231,1,120,6|0,0:0|0:0,0:0:0:0:
443,212,7498,2,0,P|463:189|478:149,1,60,2|0,1:2|0:0,0:0:0:0:
449,76,7770,1,2,1:2:0:0:
371,28,7907,2,0,L|303:30,1,60,2|2,0:0|1:2,0:0:0:0:
238,83,8180,1,0,0:0:0:0:
238,83,8248,1,0,0:0:0:0:
238,83,8316,6,0,L|169:83,1,60,0|0,1:0|0:0,0:0:0:0:
87,82,8589,2,0,P|86:51|94:15,1,60,0|0,1:0|0:0,0:0:0:0:
133,161,8861,2,0,P|134:195|131:225,1,60,10|10,0:0|0:0,0:0:0:0:
62,279,9134,1,0,0:0:0:0:
62,279,9270,6,0,L|249:267,1,180,6|0,0:0|1:0,0:0:0:0:
387,373,9952,2,0,B|368:317|405:312|385:247,1,120,0|0,1:0|1:0,0:0:0:0:
309,208,10361,6,0,P|359:210|360:101,1,180,6|0,0:0|1:0,0:0:0:0:
368,105,11043,1,10,0:0:0:0:
279,122,11180,2,0,L|204:124,1,60,10|0,0:0|0:0,0:0:0:0:
146,175,11452,6,0,L|166:49,1,120,6|0,0:0|0:0,0:0:0:0:
77,31,11861,2,0,L|66:101,1,60,2|0,1:2|0:0,0:0:0:0:
52,179,12134,2,0,L|39:248,1,60,2|0,1:2|0:0,0:0:0:0:
26,327,12407,1,2,1:2:0:0:
26,327,12680,6,0,L|98:322,1,60,6|0,0:0|0:0,0:0:0:0:
175,319,12952,2,0,L|248:313,1,60,0|0,1:0|0:0,0:0:0:0:
325,310,13225,1,10,0:0:0:0:
325,310,13361,2,0,L|387:306,1,60,10|0,0:0|0:0,0:0:0:0:
454,363,13634,6,0,P|437:296|462:190,1,180,6|0,0:0|1:0,0:0:0:0:
328,68,14316,2,0,P|350:127|331:181,1,120,0|0,1:0|1:0,0:0:0:0:
260,124,14725,6,0,B|140:134|140:134|168:63,1,180,6|0,0:0|1:0,0:0:0:0:
161,78,15407,1,10,0:0:0:0:
188,181,15543,2,0,P|192:214|192:246,1,60,10|0,0:0|0:0,0:0:0:0:
119,294,15816,6,0,P|170:327|228:322,1,120,6|0,0:0|0:0,0:0:0:0:
280,249,16225,2,0,P|316:240|342:239,1,60,2|0,1:2|0:0,0:0:0:0:
411,292,16498,2,0,L|406:355,2,60,2|0|2,1:2|0:0|1:2,0:0:0:0:
487,243,16907,6,0,L|472:116,1,120,6|0,0:0|0:0,0:0:0:0:
412,56,17316,2,0,P|378:51|338:54,1,60,0|0,1:0|0:0,0:0:0:0:
282,109,17589,2,0,P|248:112|218:110,1,60,2|0,1:2|0:0,0:0:0:0:
137,79,17861,1,0,1:0:0:0:
137,79,18134,6,0,L|125:206,1,120,4|0,0:0|0:0,0:0:0:0:
256,323,18680,1,0,0:0:0:0:
256,323,18816,2,0,L|323:317,1,60,0|0,0:0|0:0,0:0:0:0:
395,359,19089,6,0,B|413:315|389:267|389:267|420:247|447:273|419:313,1,180,2|0,0:0|0:0,0:0:0:0:
307,170,19770,1,0,0:0:0:0:
307,170,19907,2,0,L|310:105,1,60,0|0,0:0|0:0,0:0:0:0:
395,81,20180,1,0,0:0:0:0:
395,81,20316,6,0,L|389:217,1,120,6|0,0:0|0:0,0:0:0:0:
221,135,20861,2,0,P|189:142|155:137,2,60,0|0|0,0:0|0:0|0:0,0:0:0:0:
240,46,21270,1,0,0:0:0:0:
240,46,21407,6,0,P|182:34|113:55,1,120,0|0,0:0|0:0,0:0:0:0:
33,204,21952,1,0,0:0:0:0:
33,204,22089,2,0,L|40:272,1,60,0|0,0:0|0:0,0:0:0:0:
115,311,22361,1,2,0:0:0:0:
115,311,22498,6,0,P|156:312|181:307,1,60,4|0,0:0|0:0,0:0:0:0:
226,235,22770,2,0,P|225:296|265:338,2,120
402,193,23589,6,0,L|410:118,1,60,0|0,0:0|0:0,0:0:0:0:
322,106,23861,2,0,L|315:175,1,60,0|0,0:0|0:0,0:0:0:0:
224,196,24134,2,0,L|238:70,1,120
302,24,24543,1,0,0:0:0:0:
185,48,24680,6,0,L|55:41,1,120,8|0,0:0|0:0,0:0:0:0:
4,145,25089,2,0,L|128:136,1,120,8|0,0:0|0:0,0:0:0:0:
229,191,25498,2,0,P|233:236|229:272,1,60,8|0,0:0|0:0,0:0:0:0:
167,312,25770,6,0,L|108:308,2,60,12|0|8,0:0|0:0|0:0,0:0:0:0:
248,364,26180,1,8,0:0:0:0:
424,333,26452,2,0,P|421:292|419:259,1,60,12|0,0:0|0:0,0:0:0:0:
486,212,26725,6,0,P|441:224|350:195,1,120,0|2,0:0|0:0,0:0:0:0:
312,139,27134,2,0,P|319:109|332:76,1,60,2|0,0:0|0:0,0:0:0:0:
278,221,27407,2,0,P|245:222|215:218,1,60,2|0,0:0|0:0,0:0:0:0:
147,161,27680,1,2,0:0:0:0:
147,161,27816,1,0,0:0:0:0:
202,248,27952,6,0,L|184:371,1,120,2|2,0:0|0:0,0:0:0:0:
67,228,28498,1,2,0:0:0:0:
67,228,28634,2,0,P|44:180|37:156,1,60,2|0,0:0|0:0,0:0:0:0:
84,79,28907,6,0,L|208:69,1,120,6|0,0:0|0:0,0:0:0:0:
293,63,29316,1,2,0:0:0:0:
293,63,29589,2,0,P|324:48|353:23,1,60,2|0,0:0|0:0,0:0:0:0:
203,69,29861,2,0,P|171:57|139:53,1,60,2|2,0:0|0:0,0:0:0:0:
256,142,30134,6,0,P|259:204|268:273,1,120,2|2,0:0|0:0,0:0:0:0:
431,334,30680,1,2,0:0:0:0:
431,334,30816,2,0,L|442:266,1,60,2|0,0:0|0:0,0:0:0:0:
461,186,31089,6,0,B|401:171|401:208|344:194,1,120,6|0,0:0|0:0,0:0:0:0:
369,107,31498,2,0,L|383:39,1,60,2|0,0:0|0:0,0:0:0:0:
298,12,31770,2,0,L|272:142,1,120,2|2,0:0|0:0,0:0:0:0:
274,129,32316,6,0,P|238:112|153:124,1,120,2|0,0:0|0:0,0:0:0:0:
160,120,32861,2,0,L|182:253,1,120,2|0,0:0|0:0,0:0:0:0:
179,238,33407,6,0,P|138:228|108:227,1,60,6|0,0:0|0:0,0:0:0:0:
101,315,33680,2,0,P|140:327|166:330,1,60,2|0,0:0|0:0,0:0:0:0:
245,306,33952,2,0,B|308:315|302:286|366:298,1,120,2|2,0:0|0:0,0:0:0:0:
363,297,34498,6,0,P|412:320|474:301,1,120,6|2,0:0|0:0,0:0:0:0:
420,228,34907,2,0,L|432:103,1,120,2|2,0:0|0:0,0:0:0:0:
367,44,35316,1,2,0:0:0:0:
367,44,35452,1,2,0:0:0:0:
294,97,35589,6,0,B|246:106|255:81|197:90,1,96,6|0,0:0|0:0,0:0:0:0:
119,209,36134,2,0,L|112:113,1,96,8|0,0:0|0:0,0:0:0:0:
31,233,36680,5,0,1:0:0:0:
31,233,36816,2,0,P|55:276|96:297,1,96,0|0,1:0|0:0,0:0:0:0:
179,275,37225,2,0,L|295:263,1,96,8|0,0:0|0:0,0:0:0:0:
341,324,37634,6,0,P|328:258|385:197,1,144,4|0,0:0|0:0,0:0:0:0:
500,269,38316,2,0,P|453:290|400:267,1,96,8|8,0:0|0:0,0:0:0:0:
260,175,38861,6,0,P|259:126|272:79,1,96,8|8,0:0|0:0,0:0:0:0:
286,1,39270,1,0,0:0:0:0:
286,1,39407,1,8,0:0:0:0:
351,56,39543,2,0,P|378:74|416:138,1,96,10|2,0:0|0:0,0:0:0:0:
352,193,39952,6,0,L|339:315,1,120,14|0,0:0|0:0,0:0:0:0:
256,348,40361,1,0,0:0:0:0:
256,348,40498,2,0,B|240:322|246:286|246:286|254:227,1,120,8|0,0:0|0:0,0:0:0:0:
200,151,40907,2,0,L|202:87,1,60
44,178,41316,6,0,L|40:240,1,60,0|0,1:0|1:0,0:0:0:0:
31,327,41589,2,0,P|55:349|106:297,1,120,10|0,0:0|0:0,0:0:0:0:
106,300,42134,6,0,B|162:321|162:321|225:305,1,120,12|0,0:0|0:0,0:0:0:0:
377,216,42680,2,0,L|369:139,1,60,8|0,0:0|0:0,0:0:0:0:
281,166,42952,2,0,L|289:230,1,60,0|0,0:0|0:0,0:0:0:0:
339,300,43225,6,0,P|401:306|449:277,1,120,10|10,0:0|0:0,0:0:0:0:
477,99,43770,1,10,0:0:0:0:
477,99,43907,1,0,0:0:0:0:
417,31,44043,2,0,L|346:26,1,60,10|0,0:0|0:0,0:0:0:0:
281,76,44316,6,0,B|238:70|238:70|225:82|225:82|185:77,1,96,6|0,0:0|0:0,0:0:0:0:
51,115,44861,2,0,L|60:213,1,96,8|0,0:0|0:0,0:0:0:0:
180,290,45407,5,2,0:0:0:0:
180,290,45543,2,0,L|166:189,1,96,8|0,0:0|0:0,0:0:0:0:
243,144,45952,2,0,P|270:146|330:189,1,96,8|0,0:0|0:0,0:0:0:0:
354,266,46361,1,0,0:0:0:0:
354,266,46498,6,0,L|390:114,1,144,6|0,0:0|0:0,0:0:0:0:
409,40,47043,1,8,0:0:0:0:
409,40,47316,2,0,P|434:50|452:65,1,48,8|0,0:0|0:0,0:0:0:0:
474,145,47589,6,0,L|461:200,2,48,8|0|8,0:0|0:0|0:0,0:0:0:0:
387,125,47998,2,0,L|330:132,1,48,0|8,0:0|0:0,0:0:0:0:
269,182,48270,2,0,L|211:176,1,48,10|0,0:0|0:0,0:0:0:0:
134,165,48543,1,2,0:0:0:0:
48,151,48680,6,0,P|53:197|112:250,1,120,6|8,0:0|0:0,0:0:0:0:
134,165,49089,2,0,L|124:43,1,120,6|8,0:0|0:0,0:0:0:0:
209,14,49498,1,6,0:0:0:0:
342,134,49770,5,8,0:0:0:0:
409,73,49907,2,0,P|362:48|288:65,1,120,6|8,0:0|0:0,0:0:0:0:
342,134,50316,2,0,L|331:200,1,60,10|10,0:0|0:0,0:0:0:0:
506,236,50725,6,0,L|486:108,1,120,14|0,0:0|0:0,0:0:0:0:
409,73,51134,1,8,0:0:0:0:
324,232,51407,2,0,P|288:229|255:232,1,60,8|8,0:0|0:0,0:0:0:0:
198,304,51680,1,8,0:0:0:0:
121,235,51816,2,0,L|112:166,1,60,6|0,0:0|0:0,0:0:0:0:
62,100,52089,5,0,0:0:0:0:
62,100,52225,2,0,L|74:35,1,60,0|0,0:0|0:0,0:0:0:0:
190,33,52498,6,0,L|255:24,1,60
347,76,52770,1,0,0:0:0:0:
347,76,52907,6,0,B|372:131|372:131|345:207,1,120,14|0,0:0|0:0,0:0:0:0:
223,159,53316,2,0,P|247:143|277:136,1,60,8|0,0:0|0:0,0:0:0:0:
275,235,53589,2,0,L|406:226,1,120,8|10,0:0|0:0,0:0:0:0:
480,199,53998,6,0,B|493:259|459:259|473:319,1,120,6|0,0:0|0:0,0:0:0:0:
391,357,54407,2,0,P|360:357|322:350,1,60,8|0,0:0|0:0,0:0:0:0:
247,318,54680,2,0,P|205:356|143:357,1,120,8|8,0:0|0:0,0:0:0:0:
144,357,55225,6,0,L|131:233,1,120,14|8,0:0|0:0,0:0:0:0:
51,195,55634,2,0,P|58:162|78:135,1,60,2|8,0:0|0:0,0:0:0:0:
40,55,55907,2,0,P|74:47|104:52,1,60,2|10,0:0|0:0,0:0:0:0:
169,152,56180,6,0,B|230:166|225:129|292:149,1,120,6|0,0:0|0:0,0:0:0:0:
255,232,56589,2,0,L|251:295,1,60,8|0,0:0|0:0,0:0:0:0:
324,343,56861,2,0,P|360:345|388:338,1,60,8|0,0:0|0:0,0:0:0:0:
472,329,57134,2,0,P|485:301|494:262,1,60,8|0,0:0|0:0,0:0:0:0:
424,213,57407,6,0,L|419:75,1,120,14|8,0:0|0:0,0:0:0:0:
389,8,57816,2,0,B|329:33|359:58|291:84,1,120,2|2,0:0|0:0,0:0:0:0:
297,81,58361,1,2,0:0:0:0:
223,28,58498,6,0,L|98:24,1,120,14|8,0:0|0:0,0:0:0:0:
47,95,58907,1,0,0:0:0:0:
47,95,59043,2,0,P|40:145|47:221,1,120,8|8,0:0|0:0,0:0:0:0:
86,294,59452,1,0,0:0:0:0:
86,294,59589,6,0,P|127:284|211:293,1,120,14|8,0:0|0:0,0:0:0:0:
275,346,59998,2,0,P|261:294|287:233,1,120,2|2,0:0|0:0,0:0:0:0:
351,297,60407,1,10,0:0:0:0:
422,351,60543,6,0,P|440:303|405:227,1,120,6|0,0:0|0:0,0:0:0:0:
356,175,60952,2,0,L|362:112,1,60,8|0,0:0|0:0,0:0:0:0:
422,47,61225,2,0,L|497:40,2,60,8|8|8,0:0|0:0|0:0,0:0:0:0:
336,109,61640,6,0,L|208:93,1,120,6|0,0:0|0:0,0:0:0:0:
146,150,62048,2,0,P|139:188|138:216,1,60,8|0,0:0|0:0,0:0:0:0:
209,264,62321,2,0,L|281:250,1,60,8|0,0:0|0:0,0:0:0:0:
357,240,62594,1,8,0:0:0:0:
423,300,62730,6,0,P|447:248|428:186,1,120,6|0,0:0|0:0,0:0:0:0:
347,155,63139,2,0,L|356:86,1,60,8|0,0:0|0:0,0:0:0:0:
294,27,63412,1,8,0:0:0:0:
294,27,63548,1,0,0:0:0:0:
217,75,63685,2,0,L|208:141,1,60,8|0,0:0|0:0,0:0:0:0:
269,200,63957,6,0,L|143:192,1,120,14|8,0:0|0:0,0:0:0:0:
70,236,64366,2,0,P|53:284|73:355,1,120,2|2,0:0|0:0,0:0:0:0:
69,349,64912,6,0,B|140:330|131:364|190:346,1,120,6|0,0:0|0:0,0:0:0:0:
255,287,65321,2,0,P|289:279|325:281,1,60,8|0,0:0|0:0,0:0:0:0:
400,304,65594,1,8,0:0:0:0:
400,304,65730,2,0,L|397:372,1,60,2|10,0:0|0:0,0:0:0:0:
481,273,66003,6,0,L|461:143,1,120,6|0,0:0|0:0,0:0:0:0:
400,89,66412,2,0,P|366:82|330:81,1,60,10|0,0:0|0:0,0:0:0:0:
266,132,66685,2,0,P|234:138|201:140,1,60,10|0,0:0|0:0,0:0:0:0:
123,106,66957,2,0,L|135:40,1,60,10|0,0:0|0:0,0:0:0:0:
39,145,67230,5,14,0:0:0:0:
39,145,67366,2,0,L|50:272,1,120,2|0,0:0|0:0,0:0:0:0:
111,330,67776,2,0,L|179:322,1,60,10|0,0:0|0:0,0:0:0:0:
240,265,68048,2,0,P|276:276|308:290,1,60,8|0,0:0|0:0,0:0:0:0:
371,335,68321,5,14,0:0:0:0:
371,335,68457,2,0,L|442:327,1,60,2|8,0:0|0:0,0:0:0:0:
476,250,68730,2,0,P|440:231|356:222,1,120,2|0,0:0|0:0,0:0:0:0:
362,221,69276,6,0,L|375:89,1,120,6|6,0:0|0:0,0:0:0:0:
207,29,69821,2,0,L|210:95,1,60,6|0,0:0|0:0,0:0:0:0:
271,155,70094,2,0,P|208:141|135:167,1,120,6|0,0:0|0:0,0:0:0:0:
96,222,70503,6,0,L|101:329,1,96,6|0,0:0|0:0,0:0:0:0:
236,366,71048,2,0,L|231:267,1,96,8|0,0:0|0:0,0:0:0:0:
354,195,71594,6,0,L|359:296,1,96,0|0,0:0|0:0,0:0:0:0:
493,342,72139,2,0,L|485:228,1,96,8|0,0:0|0:0,0:0:0:0:
475,101,72685,6,0,P|439:87|377:79,1,96,4|0,0:0|0:0,0:0:0:0:
297,60,73094,1,0,0:0:0:0:
297,60,73217,2,0,P|271:73|197:73,1,96,8|0,0:0|0:0,0:0:0:0:
129,28,73626,1,0,0:0:0:0:
129,28,73762,6,0,L|117:137,1,96,12|8,0:0|0:0,0:0:0:0:
117,221,74171,1,0,0:0:0:0:
117,221,74307,2,0,P|151:231|218:227,1,96,8|8,0:0|0:0,0:0:0:0:
248,146,74717,6,0,L|236:333,1,180,6|0,0:0|1:0,0:0:0:0:
409,377,75398,2,0,P|394:329|356:263,1,120,0|0,1:0|1:0,0:0:0:0:
275,235,75807,6,0,P|351:243|458:193,1,180,6|0,0:0|1:0,0:0:0:0:
445,204,76489,1,10,1:2:0:0:
440,98,76626,2,0,L|436:36,1,60,10|0,0:0|0:0,0:0:0:0:
341,24,76898,6,0,B|312:79|312:79|192:69,1,180,6|2,0:0|1:2,0:0:0:0:
102,55,77444,1,0,0:0:0:0:
102,55,77580,2,0,L|89:123,1,60,2|0,1:2|0:0,0:0:0:0:
36,185,77853,2,0,L|47:253,1,60,2|0,1:2|0:0,0:0:0:0:
118,316,78126,6,0,P|149:315|182:304,1,60,2|0,1:2|0:0,0:0:0:0:
253,258,78398,2,0,P|284:262|319:273,1,60,2|0,1:2|0:0,0:0:0:0:
371,338,78671,1,10,1:2:0:0:
446,289,78807,2,0,L|451:217,1,60,10|2,0:0|1:2,0:0:0:0:
376,174,79089,6,0,B|359:110|393:119|379:45,1,120,6|0,0:0|0:0,0:0:0:0:
293,78,79497,2,0,L|231:87,1,60,0|0,1:0|0:0,0:0:0:0:
159,35,79770,2,0,L|91:32,1,60,0|0,1:0|0:0,0:0:0:0:
34,95,80043,1,0,1:0:0:0:
102,180,80179,6,0,P|128:239|101:309,1,120,6|0,0:0|0:0,0:0:0:0:
38,243,80588,1,0,1:0:0:0:
176,229,80725,1,2,0:0:0:0:
176,229,80861,2,0,L|304:211,1,120,10|2,1:2|1:2,0:0:0:0:
384,200,81270,6,0,P|376:254|328:298,1,120,6|0,0:0|0:0,0:0:0:0:
294,212,81679,2,0,L|302:134,1,60,2|0,1:2|0:0,0:0:0:0:
237,87,81952,2,0,L|227:18,2,60,2|0|2,1:2|0:0|1:2,0:0:0:0:
366,90,82361,6,0,P|404:83|492:86,1,120,6|0,0:0|0:0,0:0:0:0:
504,173,82770,2,0,P|503:212|491:244,1,60,2|0,1:2|0:0,0:0:0:0:
420,280,83043,2,0,P|396:314|371:330,1,60,0|0,1:0|0:0,0:0:0:0:
296,293,83315,2,0,P|262:300|224:301,1,60,0|0,1:0|0:0,0:0:0:0:
153,265,83588,6,0,L|140:126,1,120,4|2,0:0|0:0,0:0:0:0:
193,71,83997,1,2,0:0:0:0:
275,107,84134,1,2,1:2:0:0:
356,69,84270,2,0,P|365:131|334:178,1,120,2|0,1:2|0:0,0:0:0:0:
275,107,84679,6,0,L|273:35,1,60,2|0,1:2|0:0,0:0:0:0:
191,11,84952,2,0,L|192:70,1,60,2|0,1:2|0:0,0:0:0:0:
141,145,85225,2,0,P|106:140|75:139,1,60,2|0,1:2|0:0,0:0:0:0:
74,229,85497,2,0,P|104:235|141:236,1,60,2|2,1:2|0:0,0:0:0:0:
219,209,85770,6,0,P|222:246|220:277,3,60,6|0|2|2,0:0|0:0|1:2|0:0,0:0:0:0:
311,268,86315,2,0,P|307:301|307:333,3,60,2|0|0|2,1:2|0:0|1:2|0:0,0:0:0:0:
393,350,86861,6,0,P|410:317|418:286,1,60,2|2,0:0|0:0,0:0:0:0:
478,229,87134,2,0,P|478:199|470:156,1,60,2|2,0:0|0:0,0:0:0:0:
452,81,87406,2,0,L|390:74,1,60,2|2,0:0|0:0,0:0:0:0:
323,133,87679,2,0,L|254:136,1,60,2|2,0:0|0:0,0:0:0:0:
173,136,87952,5,10,0:0:0:0:
