osu file format v14

[General]
AudioFilename: audio.mp3
AudioLeadIn: 0
PreviewTime: 51014
Countdown: 0
SampleSet: Normal
StackLeniency: 0.7
Mode: 0
LetterboxInBreaks: 0
WidescreenStoryboard: 0

[Editor]
DistanceSpacing: 0.8
BeatDivisor: 4
GridSize: 4
TimelineZoom: 1

[Metadata]
Title:Heading to Over (TV Size)
TitleUnicode:Heading to Over (TV Size)
Artist:OLDCODEX
ArtistUnicode:OLDCODEX
Creator:HabiHolic
Version:Extra
Source:Free!-Dive to the Future-
Tags:
BeatmapID:1708276
BeatmapSetID:814648

[Difficulty]
HPDrainRate:7
CircleSize:4
OverallDifficulty:8
ApproachRate:9.3
SliderMultiplier:1.6
SliderTickRate:1

[Events]
//Background and Video events
0,0,"thumb-1920-693714.png",0,0
//Break Periods
//Storyboard Layer 0 (Background)
//Storyboard Layer 1 (Fail)
//Storyboard Layer 2 (Pass)
//Storyboard Layer 3 (Foreground)
//Storyboard Sound Samples

[TimingPoints]
84,272.727272727273,4,2,0,60,1,0
84,-133.333333333333,4,2,0,60,0,0
4174,272.727272727273,4,1,1,80,1,0
17264,-133.333333333333,4,1,1,60,0,0
23810,-100,4,1,1,80,0,0
69628,-133.333333333333,4,1,1,80,0,0
71810,-100,4,1,1,80,0,0

[Colours]
Combo1 : 81,78,216
Combo2 : 117,135,238
Combo3 : 98,182,232

[HitObjects]
84,208,84,6,0,P|88:172|84:144,1,60.0000022888184,2|0,0:0|0:0,0:0:0:0:
32,68,356,1,0,0:0:0:0:
176,124,493,2,0,L|240:116,1,60.0000022888184,2|0,0:0|0:0,0:0:0:0:
388,40,765,2,0,L|324:48,1,60.0000022888184,2|0,0:0|0:0,0:0:0:0:
256,204,1038,1,0,0:0:0:0:
352,240,1174,6,0,P|356:208|352:180,1,60.0000022888184,2|0,0:0|0:0,0:0:0:0:
264,32,1447,2,0,P|260:64|264:92,1,60.0000022888184,2|0,0:0|0:0,0:0:0:0:
428,128,1720,1,0,0:0:0:0:
268,184,1856,1,0,0:0:0:0:
400,320,1993,2,0,L|464:308,1,60.0000022888184,8|0,3:0|0:0,0:0:0:0:
296,364,2265,6,0,L|228:352,1,60.0000022888184,2|0,0:0|0:0,0:0:0:0:
160,280,2538,1,0,0:0:0:0:
240,156,2674,2,0,P|244:188|240:220,1,60.0000022888184,2|0,0:0|0:0,0:0:0:0:
152,100,2947,2,0,P|149:70|153:40,1,60.0000022888184,2|0,0:0|0:0,0:0:0:0:
248,12,3220,1,0,0:0:0:0:
356,108,3356,6,0,L|296:96,1,60.0000022888184,2|0,0:0|0:0,0:0:0:0:
144,212,3629,2,0,L|204:200,1,60.0000022888184,2|0,0:0|0:0,0:0:0:0:
296,280,3902,1,2,0:0:0:0:
352,132,4038,1,0,0:0:0:0:
452,248,4174,6,0,L|372:228,1,80,8|0,0:0|0:0,0:0:0:0:
216,176,4446,1,8,0:0:0:0:
252,364,4583,1,0,0:0:0:0:
232,148,4719,1,8,0:0:0:0:
180,296,4855,1,0,0:0:0:0:
92,120,4992,2,0,L|104:200,1,80,8|0,0:0|0:0,0:0:0:0:
276,240,5264,5,8,0:0:0:0:
156,308,5401,1,0,0:0:0:0:
272,376,5537,2,0,L|352:364,1,80,8|0,0:0|0:0,0:0:0:0:
472,260,5810,2,0,L|392:248,1,80,8|0,0:0|0:0,0:0:0:0:
332,160,6083,1,8,0:0:0:0:
444,16,6219,6,0,P|472:88|445:162,1,160,4|0,0:0|0:0,0:0:0:0:
244,240,6628,2,0,L|160:224,1,80,8|0,0:0|0:0,0:0:0:0:
84,208,6833,1,0,0:0:0:0:
84,208,6901,1,8,0:0:0:0:
16,104,7037,1,0,0:0:0:0:
32,300,7174,1,8,0:0:0:0:
96,48,7310,1,8,3:0:0:0:
112,364,7446,6,0,L|196:352,1,80,8|8,0:0|3:0,0:0:0:0:
372,212,7719,2,0,L|288:224,1,80,8|4,0:0|3:0,0:0:0:0:
184,124,7992,1,8,0:0:0:0:
304,20,8128,2,0,P|312:64|304:100,1,80,0|4,0:0|3:0,0:0:0:0:
168,240,8401,6,0,L|4:212,1,160,4|0,0:0|0:0,0:0:0:0:
236,352,8810,2,0,L|324:336,1,80,8|0,0:0|0:0,0:0:0:0:
500,240,9083,2,0,L|412:224,1,80
256,96,9355,1,8,0:0:0:0:
328,24,9492,6,0,P|356:97|329:170,1,160,4|0,0:0|0:0,0:0:0:0:
240,220,9901,1,8,0:0:0:0:
116,120,10037,1,0,0:0:0:0:
180,288,10174,1,0,0:0:0:0:
200,72,10310,1,0,0:0:0:0:
20,160,10446,1,8,0:0:0:0:
104,344,10583,6,0,L|272:320,1,160,4|0,0:0|0:0,0:0:0:0:
432,240,10992,2,0,P|384:232|352:224,1,80,8|0,0:0|0:0,0:0:0:0:
200,124,11264,2,0,P|248:116|280:108,1,80,8|0,0:0|0:0,0:0:0:0:
416,52,11537,2,0,L|408:144,1,80,8|0,0:0|0:0,0:0:0:0:
256,308,11810,2,0,L|249:228,1,80,8|0,0:0|0:0,0:0:0:0:
112,68,12083,2,0,L|105:147,1,80,8|0,0:0|0:0,0:0:0:0:
136,316,12355,1,8,0:0:0:0:
64,256,12492,1,0,0:0:0:0:
48,344,12628,1,8,0:0:0:0:
116,172,12764,6,0,L|280:196,1,160,4|0,0:0|0:0,0:0:0:0:
364,148,13174,2,0,P|372:108|364:68,1,80,8|0,0:0|0:0,0:0:0:0:
252,268,13446,2,0,P|244:308|252:348,1,80
344,304,13719,1,8,0:0:0:0:
440,184,13855,6,0,L|268:164,1,160,4|0,0:0|0:0,0:0:0:0:
216,88,14264,1,8,0:0:0:0:
124,232,14401,1,0,0:0:0:0:
88,32,14537,2,0,L|104:124,1,80
132,256,14810,1,8,0:0:0:0:
280,160,14946,6,0,B|364:148|348:208|440:180,1,160,4|0,0:0|0:0,0:0:0:0:
400,100,15355,1,8,0:0:0:0:
308,252,15492,1,0,0:0:0:0:
328,32,15628,2,0,L|244:44,1,80
100,176,15901,2,0,L|184:164,1,80,8|0,0:0|0:0,0:0:0:0:
348,120,16174,5,8,0:0:0:0:
284,308,16310,1,0,0:0:0:0:
444,252,16446,2,0,P|400:252|360:232,1,80,8|0,0:0|0:0,0:0:0:0:
236,52,16719,2,0,L|248:144,1,80,8|8,0:0|3:0,0:0:0:0:
196,344,16992,2,0,L|56:320,1,120,8|0,0:0|0:0,0:0:0:0:
48,316,17264,6,0,P|56:280|56:252,1,60.0000022888184
144,224,17537,2,0,P|132:196|115:171,1,60.0000022888184
32,120,17810,1,0,0:0:0:0:
128,16,17946,2,0,L|120:88,1,60.0000022888184
208,144,18219,6,0,P|265:155|318:129,1,120.000004577637
392,72,18628,2,0,L|380:8,1,60.0000022888184
476,128,18901,2,0,L|464:192,1,60.0000022888184
384,240,19174,1,0,0:0:0:0:
496,320,19310,1,0,0:0:0:0:
375,260,19446,6,0,P|318:270|271:235,1,120.000004577637
256,120,19855,1,0,0:0:0:0:
352,104,19992,2,0,L|340:172,1,60.0000022888184
160,128,20264,2,0,L|172:60,1,60.0000022888184
48,12,20537,6,0,L|64:136,1,120.000004577637
120,216,20946,1,0,0:0:0:0:
68,295,21083,2,0,P|38:296|8:289,1,60.0000022888184,0|8,0:0|3:0,0:0:0:0:
132,188,21355,1,4,3:0:0:0:
168,368,21492,1,0,0:0:0:0:
232,248,21628,6,0,L|208:120,1,120.000004577637
308,24,22037,1,0,0:0:0:0:
308,24,22174,2,0,L|296:88,1,60.0000022888184
376,180,22446,2,0,L|387:121,1,60.0000022888184
480,192,22719,6,0,L|452:312,1,120.000004577637
372,360,23128,1,0,0:0:0:0:
300,296,23264,2,0,P|268:296|240:304,1,60.0000022888184
156,352,23537,2,0,L|88:340,1,60.0000022888184
16,212,23810,6,0,P|90:231|151:183,1,160,4|8,0:0|0:0,0:3:0:0:
152,60,24219,1,0,0:0:0:0:
52,40,24355,2,0,L|68:124,1,80
240,292,24628,2,0,L|254:213,1,80,8|0,0:0|0:0,0:0:0:0:
232,92,24901,5,12,0:0:0:0:
356,180,25037,1,0,0:0:0:0:
304,20,25174,1,0,0:0:0:0:
452,140,25310,2,0,L|440:260,1,120,12|0,0:0|0:0,0:0:0:0:
376,324,25583,2,0,B|312:308|324:352|256:332,1,120,12|0,0:0|0:0,0:0:0:0:
195,263,25855,6,0,P|171:188|190:112,1,160
272,48,26264,2,0,L|360:60,1,80,8|0,0:0|0:0,0:0:0:0:
476,204,26537,2,0,L|388:192,1,80,8|0,0:0|0:0,0:0:0:0:
252,309,26810,2,0,L|332:320,1,80,8|0,0:0|0:0,0:0:0:0:
175,192,27083,6,0,P|110:233|36:212,1,160,8|8,0:0|0:0,0:0:0:0:
96,136,27492,1,0,0:0:0:0:
256,24,27628,2,0,L|244:108,1,80
216,296,27901,1,0,0:0:0:0:
464,240,28037,6,0,B|376:268|396:196|312:220,1,160,4|0,0:0|0:0,0:0:0:0:
152,168,28446,2,0,P|144:128|152:88,1,80,8|0,0:0|0:0,0:0:0:0:
236,272,28719,2,0,P|244:312|236:352,1,80,8|0,0:0|0:0,0:0:0:0:
144,312,28992,1,8,0:0:0:0:
248,164,29128,1,0,0:0:0:0:
76,232,29264,6,0,L|-4:216,1,80,8|0,0:0|0:0,0:0:0:0:
200,84,29537,2,0,L|280:68,1,80,8|0,0:0|0:0,0:0:0:0:
400,16,29810,1,0,0:0:0:0:
365,224,29946,2,0,P|353:187|360:148,1,80,0|8,0:0|0:0,0:0:0:0:
488,128,30219,6,0,L|472:296,1,160,4|0,0:0|0:0,0:0:0:0:
388,356,30628,1,8,0:0:0:0:
268,216,30764,1,0,0:0:0:0:
372,376,30901,1,0,0:0:0:0:
336,152,31037,1,0,0:0:0:0:
196,276,31174,2,0,L|112:256,1,80,8|0,0:0|0:0,0:0:0:0:
12,144,31446,6,0,P|88:160|144:104,1,160,0|8,0:0|0:0,0:0:0:0:
180,20,31855,1,0,0:0:0:0:
268,168,31992,2,0,L|252:256,1,80
368,352,32264,2,0,L|384:264,1,80,8|0,0:0|0:0,0:0:0:0:
488,104,32537,6,0,B|404:80|424:152|332:120,1,160,4|8,0:0|0:0,0:0:0:0:
252,48,32946,1,0,0:0:0:0:
172,112,33083,2,0,B|180:152|180:152|172:192,1,80
328,280,33355,2,0,B|320:241|320:241|328:201,1,80,8|0,0:0|0:0,0:0:0:0:
404,336,33628,6,0,L|244:316,1,160
156,224,34037,1,8,0:0:0:0:
256,72,34174,2,0,P|264:112|256:152,1,80
172,108,34446,1,0,0:0:0:0:
336,28,34583,1,0,0:0:0:0:
320,219,34719,6,0,P|432:211|481:312,1,240,4|0,0:0|0:0,0:0:0:0:
220,260,35264,2,0,P|212:220|220:180,1,80,8|0,0:0|0:0,0:0:0:0:
360,28,35537,2,0,P|368:68|360:108,1,80
219,181,35810,5,0,0:0:0:0:
72,128,35946,2,0,L|160:116,1,80
216,40,36219,1,0,0:0:0:0:
12,52,36355,2,0,L|36:216,1,160,8|0,0:0|0:0,0:0:0:0:
116,276,36764,6,0,B|200:268|180:328|268:312,1,160,4|0,0:0|0:0,0:0:0:0:
348,256,37174,2,0,P|356:216|348:176,1,80,8|0,0:0|0:0,0:0:0:0:
208,24,37446,2,0,P|200:64|208:104,1,80
296,64,37719,1,8,0:0:0:0:
132,164,37855,1,0,0:0:0:0:
300,264,37992,6,0,L|384:248,1,80,8|0,0:0|0:0,0:0:0:0:
320,168,38264,1,8,3:0:0:0:
216,332,38401,2,0,L|132:316,1,80,8|0,0:0|0:0,0:0:0:0:
24,224,38674,1,0,0:0:0:0:
152,92,38810,2,0,P|160:136|152:172,1,80,8|0,3:0|0:0,0:0:0:0:
80,32,39083,6,0,L|244:56,1,160,0|8,0:0|0:0,0:0:0:0:
320,128,39492,1,0,0:0:0:0:
416,88,39628,2,0,P|420:48|416:8,1,80,8|0,0:0|0:0,0:0:0:0:
224,168,39901,2,0,P|220:208|224:248,1,80,8|0,0:0|0:0,0:0:0:0:
304,316,40174,6,0,L|388:300,1,80,8|0,0:0|0:0,0:0:0:0:
160,368,40446,2,0,L|72:352,1,80,8|0,0:0|0:0,0:0:0:0:
28,264,40719,1,8,0:0:0:0:
136,156,40855,1,0,0:0:0:0:
16,276,40992,1,8,0:0:0:0:
60,88,41128,1,0,0:0:0:0:
112,280,41264,6,0,L|196:268,1,80,8|0,0:0|0:0,0:0:0:0:
335,120,41537,2,0,L|256:132,1,80,8|0,0:0|0:0,0:0:0:0:
160,92,41810,2,0,P|152:48|160:12,1,80,8|0,0:0|0:0,0:0:0:0:
252,224,42083,2,0,P|259:263|251:302,1,80,8|0,0:0|0:0,0:0:0:0:
76,272,42355,6,0,L|168:264,1,80,8|0,0:0|0:0,0:0:0:0:
408,160,42628,2,0,L|316:152,1,80,8|0,3:0|0:0,0:0:0:0:
208,72,42901,1,4,3:0:0:0:
112,172,43037,1,0,0:0:0:0:
132,12,43174,1,8,0:0:0:0:
172,248,43310,1,0,0:0:0:0:
336,128,43446,6,0,P|448:136|490:32,1,240,4|0,0:0|0:0,0:0:0:0:
255,52,43992,2,0,P|227:124|257:197,1,160,8|0,0:0|0:0,0:0:0:0:
332,256,44401,1,0,0:0:0:0:
332,256,44537,6,0,L|416:240,1,80,8|0,0:0|0:0,0:0:0:0:
212,352,44810,2,0,L|124:336,1,80
39,259,45083,2,0,P|16:184|36:108,1,160,8|0,0:0|0:0,0:0:0:0:
116,40,45492,1,0,0:0:0:0:
272,184,45628,6,0,B|228:208|228:208|112:176,1,160,4|0,0:0|0:0,0:0:0:0:
204,104,46037,1,0,0:0:0:0:
332,20,46174,2,0,P|340:60|332:104,1,80,8|0,0:0|0:0,0:0:0:0:
444,224,46446,2,0,P|438:184|446:145,1,80
508,304,46719,5,8,0:0:0:0:
360,276,46855,2,0,L|272:256,1,80
216,184,47128,1,0,0:0:0:0:
256,344,47264,1,8,0:0:0:0:
296,136,47401,1,0,0:0:0:0:
244,368,47537,1,0,0:0:0:0:
88,224,47674,1,8,3:0:0:0:
88,224,47742,1,8,3:0:0:0:
88,223,47810,6,0,P|108:147|88:70,1,160,8|4,0:0|3:0,0:0:0:0:
180,20,48219,2,0,L|344:40,1,160,8|4,0:0|3:0,0:0:0:0:
452,152,48628,2,0,L|288:132,1,160,8|4,0:0|3:0,0:0:0:0:
212,196,49037,5,8,0:0:0:0:
96,88,49174,1,0,0:0:0:0:
140,256,49310,1,4,3:0:0:0:
192,20,49446,2,0,P|200:60|188:104,1,80,8|0,0:0|0:0,0:0:0:0:
48,168,49719,1,4,3:0:0:0:
240,224,49855,6,0,L|400:208,1,160,4|0,0:0|0:0,0:0:0:0:
452,120,50264,1,8,0:0:0:0:
420,308,50401,1,0,0:0:0:0:
368,64,50537,1,8,0:0:0:0:
196,240,50674,1,0,0:0:0:0:
192,256,50742,1,0,0:0:0:0:
188,272,50810,1,8,0:0:0:0:
148,144,50946,6,0,P|205:195|282:184,1,160,4|0,0:0|0:0,0:0:0:0:
360,108,51355,1,8,0:0:0:0:
328,276,51492,1,0,0:0:0:0:
276,48,51628,1,8,0:0:0:0:
464,152,51764,2,0,L|448:240,1,80,8|8,0:0|0:0,0:0:0:0:
236,336,52037,6,0,B|152:320|168:376|80:352,1,160,4|0,0:0|0:0,0:0:0:0:
20,272,52446,2,0,P|12:232|16:192,1,80,8|0,0:0|0:0,0:0:0:0:
168,72,52719,2,0,P|171:111|163:150,1,80
80,104,52992,1,8,0:0:0:0:
256,28,53128,6,0,L|424:52,1,160,4|0,0:0|0:0,0:0:0:0:
484,168,53537,2,0,L|400:156,1,80,8|0,0:0|0:0,0:0:0:0:
256,252,53810,2,0,L|336:264,1,80
196,164,54083,1,8,0:0:0:0:
224,348,54219,1,0,0:0:0:0:
47,255,54355,6,0,P|27:179|43:101,1,160,4|8,0:0|0:0,0:0:0:0:
144,36,54764,2,0,L|224:48,1,80
340,180,55037,2,0,L|260:168,1,80
452,100,55310,6,0,P|436:172|456:256,1,160,4|0,0:0|0:0,0:0:0:0:
384,332,55719,2,0,L|300:316,1,80,8|0,0:0|0:0,0:0:0:0:
204,228,55992,1,8,0:0:0:0:
356,132,56128,1,0,0:0:0:0:
240,60,56264,2,0,L|256:148,1,80,8|0,0:0|0:0,0:0:0:0:
175,247,56537,6,0,P|100:236|48:293,1,160,4|8,0:0|0:0,0:0:0:0:
280,296,56946,2,0,P|288:256|280:216,1,80
136,60,57219,2,0,P|128:99|136:138,1,80,0|8,0:0|0:0,0:0:0:0:
308,104,57492,6,0,B|392:88|376:152|468:120,1,160,4|0,0:0|0:0,0:0:0:0:
252,28,57901,2,0,L|272:196,1,160,8|0,0:0|0:0,0:0:0:0:
224,288,58310,1,0,0:0:0:0:
372,352,58446,2,0,L|384:272,1,80,8|0,0:0|0:0,0:0:0:0:
336,180,58719,5,8,0:0:0:0:
472,240,58855,1,0,0:0:0:0:
432,96,58992,1,8,0:0:0:0:
248,224,59128,2,0,B|188:212|188:212|152:224|152:224|88:208,1,160,8|0,0:0|0:0,0:0:0:0:
132,128,59537,1,8,0:0:0:0:
323,16,59674,6,0,P|303:92|330:166,1,160,4|0,0:0|0:0,0:0:0:0:
488,80,60083,2,0,L|396:88,1,80,8|0,0:0|0:0,0:0:0:0:
216,268,60355,2,0,L|308:260,1,80
376,256,60560,1,0,0:0:0:0:
376,256,60628,1,8,0:0:0:0:
151,359,60764,6,0,P|111:292|122:215,1,160,4|0,0:0|0:0,0:0:0:0:
232,60,61174,2,0,L|220:144,1,80,8|0,0:0|0:0,0:0:0:0:
328,288,61446,2,0,L|339:208,1,80
420,152,61719,1,8,0:0:0:0:
384,368,61855,6,0,P|320:323|242:334,1,160,4|0,0:0|0:0,0:0:0:0:
156,368,62264,1,8,0:0:0:0:
56,244,62401,1,0,0:0:0:0:
176,144,62537,2,0,P|184:184|176:224,1,80
64,96,62810,2,0,P|56:56|64:17,1,80,8|0,0:0|0:0,0:0:0:0:
276,80,63083,6,0,L|440:56,1,160,4|8,0:0|0:0,0:0:0:0:
499,240,63492,2,0,P|422:233|377:170,1,160
472,152,63901,1,8,0:0:0:0:
368,316,64037,6,0,B|304:304|304:304|272:316|272:316|208:300,1,160,4|0,0:0|0:0,0:0:0:0:
128,224,64446,2,0,P|120:180|124:140,1,80,8|0,0:0|0:0,0:0:0:0:
204,68,64719,1,0,0:0:0:0:
300,192,64855,2,0,L|216:180,1,80,0|8,0:0|0:0,0:0:0:0:
407,124,65128,6,0,P|392:201|418:276,1,160,4|0,0:0|0:0,0:0:0:0:
344,344,65537,1,8,0:0:0:0:
188,248,65674,1,0,0:0:0:0:
304,160,65810,2,0,L|288:240,1,80,8|0,0:0|0:0,0:0:0:0:
104,364,66083,2,0,L|88:285,1,80,8|0,0:0|0:0,0:0:0:0:
64,120,66355,5,8,0:0:0:0:
224,172,66492,1,0,0:0:0:0:
112,44,66628,1,8,0:0:0:0:
144,256,66764,1,0,0:0:0:0:
144,256,66833,1,0,0:0:0:0:
144,256,66901,1,8,0:0:0:0:
196,88,67037,1,0,0:0:0:0:
320,268,67174,2,0,L|240:248,1,80,8|0,0:0|0:0,0:0:0:0:
180,56,67446,5,4,0:0:0:0:
304,24,67583,2,0,L|288:112,1,80,0|8,0:0|3:0,0:0:0:0:
440,284,67855,2,0,L|412:124,1,160,8|0,3:0|0:0,0:0:0:0:
472,48,68264,1,4,3:0:0:0:
300,200,68401,2,0,P|256:200|216:184,1,80,8|0,0:0|0:0,0:0:0:0:
112,272,68674,2,0,P|156:272|196:288,1,80,8|4,3:0|3:0,0:0:0:0:
40,364,68946,6,0,L|12:200,1,160,8|0,3:0|0:0,0:0:0:0:
112,48,69355,2,0,L|100:132,1,80,8|0,0:0|0:0,0:0:0:0:
192,256,69628,5,4,0:0:0:0:
192,256,70174,2,0,L|316:240,1,120.000004577637
392,292,70583,1,0,0:0:0:0:
487,180,70719,6,0,P|430:189|384:154,1,120.000004577637,8|0,3:0|0:0,0:0:0:0:
360,56,71128,1,4,3:0:0:0:
240,164,71264,2,0,L|172:152,1,60.0000022888184,8|0,0:0|0:0,0:0:0:0:
72,132,71537,1,8,3:0:0:0:
72,132,71810,5,8,3:0:0:0:
300,72,71946,1,0,0:0:0:0:
116,48,72083,5,8,3:0:0:0:
316,100,72219,1,0,0:0:0:0:
168,260,72355,5,8,3:0:0:0:
228,16,72492,1,0,0:0:0:0:
272,228,72628,5,8,3:0:0:0:
80,140,72764,1,0,0:0:0:0:
80,140,72833,1,0,0:0:0:0:
80,140,72901,6,0,P|88:180|80:224,1,80,8|0,0:0|0:0,0:0:0:0:
188,352,73174,2,0,P|182:312|190:273,1,80,8|0,0:0|0:0,0:0:0:0:
260,204,73446,1,8,0:0:0:0:
356,328,73583,2,0,L|276:316,1,80,0|8,0:0|3:0,0:0:0:0:
28,220,73855,6,0,P|103:238|163:189,1,160,4|0,0:0|0:0,0:0:0:0:
64,48,74264,2,0,L|80:132,1,80,8|0,0:0|0:0,0:0:0:0:
252,224,74537,2,0,L|266:145,1,80
208,64,74810,1,8,0:0:0:0:
380,24,74946,6,0,L|400:184,1,160,4|0,0:0|0:0,0:0:0:0:
336,264,75355,1,8,0:0:0:0:
492,196,75492,1,0,0:0:0:0:
476,360,75628,2,0,P|432:360|396:344,1,80
296,168,75901,1,8,0:0:0:0:
468,112,76037,6,0,L|448:276,1,160,4|0,0:0|0:0,0:0:0:0:
276,352,76446,1,8,0:0:0:0:
120,244,76583,1,0,0:0:0:0:
248,152,76719,2,0,P|256:192|248:232,1,80,8|0,0:0|0:0,0:0:0:0:
144,96,76992,2,0,P|136:56|144:17,1,80,8|0,0:0|0:0,0:0:0:0:
232,56,77264,5,8,0:0:0:0:
84,176,77401,1,0,0:0:0:0:
264,256,77537,2,0,L|352:244,1,80,8|0,0:0|0:0,0:0:0:0:
424,168,77810,1,8,0:0:0:0:
316,40,77946,2,0,P|312:80|320:120,1,80
240,284,78219,6,0,L|80:256,1,160,4|0,0:0|0:0,0:0:0:0:
16,124,78628,2,0,L|100:140,1,80,8|0,0:0|0:0,0:0:0:0:
184,72,78901,1,0,0:0:0:0:
128,240,79037,1,0,0:0:0:0:
88,20,79174,1,8,0:0:0:0:
268,132,79310,6,0,L|240:300,1,160,4|0,0:0|0:0,0:0:0:0:
364,364,79719,2,0,L|348:280,1,80,8|0,0:0|0:0,0:0:0:0:
456,176,79992,2,0,L|472:260,1,80
496,80,80264,1,8,0:0:0:0:
360,200,80401,6,0,P|280:200|224:144,1,160,4|0,0:0|0:0,0:0:0:0:
336,28,80810,2,0,L|316:105,1,80,8|0,0:0|0:0,0:0:0:0:
152,236,81083,2,0,L|132:158,1,80,8|0,0:0|0:0,0:0:0:0:
180,64,81355,1,8,0:0:0:0:
36,164,81492,1,0,0:0:0:0:
256,240,81628,6,0,L|336:228,1,80,8|0,0:0|0:0,0:0:0:0:
412,212,81833,1,0,0:0:0:0:
412,212,81901,1,8,0:0:0:0:
308,112,82037,1,0,0:0:0:0:
344,336,82174,1,8,0:0:0:0:
156,232,82310,1,0,0:0:0:0:
184,24,82446,2,0,L|200:116,1,80,8|0,3:0|0:0,0:0:0:0:
179,259,82719,6,0,P|103:247|47:300,1,160,4|0,0:0|0:0,0:0:0:0:
272,308,83128,1,0,0:0:0:0:
272,308,83264,2,0,P|280:268|272:224,1,80,8|0,0:0|0:0,0:0:0:0:
152,64,83537,2,0,P|146:103|154:142,1,80
332,152,83810,5,8,0:0:0:0:
424,108,83946,1,0,0:0:0:0:
500,184,84083,1,0,0:0:0:0:
448,272,84219,1,0,0:0:0:0:
348,252,84355,2,0,L|264:236,1,80,8|0,0:0|0:0,0:0:0:0:
128,116,84628,2,0,L|212:132,1,80
28,32,84901,6,0,L|48:200,1,160,4|0,0:0|0:0,0:0:0:0:
108,320,85310,1,0,0:0:0:0:
236,216,85446,2,0,P|196:216|152:232,1,80,8|0,0:0|0:0,0:0:0:0:
88,336,85719,1,0,0:0:0:0:
24,160,85855,1,0,0:0:0:0:
224,244,85992,5,8,0:0:0:0:
152,80,86128,1,0,0:0:0:0:
360,152,86264,2,0,L|272:140,1,80
144,56,86537,1,8,0:0:0:0:
120,284,86674,1,0,0:0:0:0:
0,144,86810,2,0,L|12:236,1,80
40,368,87083,5,4,3:0:0:0:
