osu file format v14

[General]
AudioFilename: audio.mp3
AudioLeadIn: 0
PreviewTime: 58079
Countdown: 0
SampleSet: Soft
StackLeniency: 0.7
Mode: 0
LetterboxInBreaks: 0
WidescreenStoryboard: 0

[Editor]
Bookmarks: 370,7698,15026,22354,29682,37011,44339,51667,58995,66324,73652,80980,88308
DistanceSpacing: 0.6
BeatDivisor: 8
GridSize: 4
TimelineZoom: 1

[Metadata]
Title:Feed A
TitleUnicode:フィードA
Artist:OLDCODEX
ArtistUnicode:オルドコデックス
Creator:SgggE
Version:Normal
Source:ゴッドイーター
Tags:GOD EATER Opening Anime OP Theme TV Size Nyu38
BeatmapID:935939
BeatmapSetID:434315

[Difficulty]
HPDrainRate:5
CircleSize:4
OverallDifficulty:4
ApproachRate:5
SliderMultiplier:1.2
SliderTickRate:1

[Events]
//Background and Video events
0,0,"BG.jpg",0,0
Video,0,"GOD EATER Opening.mp4"
//Break Periods
//Storyboard Layer 0 (Background)
//Storyboard Layer 1 (Fail)
//Storyboard Layer 2 (Pass)
//Storyboard Layer 3 (Foreground)
//Storyboard Sound Samples

[TimingPoints]
370,458.015267175573,4,2,1,75,1,0
7698,-100,4,2,1,75,0,1
15026,-100,4,2,1,75,0,0
58995,-100,4,2,1,75,0,1
73623,-100,4,2,1,75,0,0
73652,-100,4,2,1,75,0,1
88308,-100,4,2,1,75,0,0

[Colours]
Combo1 : 165,122,84
Combo2 : 156,75,75
Combo3 : 106,125,125
Combo4 : 145,145,145

[HitObjects]
124,140,370,6,0,L|216:148,1,90,4|0,1:2|1:0,0:0:0:0:
288,212,1057,2,0,L|380:220,1,90,0|0,1:0|1:0,0:0:0:0:
136,152,2202,2,0,L|228:160,1,90,4|0,1:2|1:0,0:0:0:0:
300,224,2889,2,0,L|392:232,1,90,0|0,1:0|1:0,0:0:0:0:
389,231,4034,6,0,P|352:152|388:72,2,180,6|10|10,0:0|0:0|0:0,0:0:0:0:
316,296,5637,1,2,0:0:0:0:
316,296,5751,1,2,0:0:0:0:
316,296,5866,2,0,B|256:288|256:288|200:304|200:304|144:272|84:296,1,240,6|10,0:0|0:0,0:0:0:0:
83,296,7698,6,0,L|91:176,1,120,6|2,0:0|0:0,0:0:0:0:
164,112,8385,1,2,0:0:0:0:
164,112,8614,2,0,P|224:108|272:140,1,120,2|10,0:0|0:0,0:0:0:0:
364,176,9530,5,6,0:0:0:0:
392,272,9759,1,2,0:0:0:0:
392,272,9988,2,0,P|284:253|271:140,1,240,2|2,0:0|0:0,0:0:0:0:
188,88,11362,6,0,B|144:80|144:80|68:96,2,120,6|2|10,0:0|0:0|0:0,0:0:0:0:
271,139,12736,2,0,P|296:192|352:212,1,120,0|2,0:0|0:0,0:0:0:0:
436,256,13652,1,10,0:0:0:0:
460,164,13881,1,2,0:0:0:0:
460,164,14110,2,0,P|460:104|424:60,1,120,2|10,0:0|0:0,0:0:0:0:
324,44,15026,5,6,0:0:0:0:
236,176,15484,1,2,0:0:0:0:
236,176,15713,2,0,L|228:296,2,120,0|0|0,1:0|1:0|1:0,0:0:0:0:
308,144,16858,2,0,P|248:144|212:100,1,120,2|2,0:0|0:0,0:0:0:0:
268,48,17545,2,0,L|148:56,1,120,0|0,1:0|1:0,0:0:0:0:
60,188,18461,1,0,1:0:0:0:
60,188,18576,1,0,0:0:0:0:
60,188,18690,6,0,B|120:212|176:164|240:188,1,180,6|0,0:0|1:0,0:0:0:0:
344,312,19835,1,0,1:0:0:0:
344,312,20064,2,0,P|400:296|424:244,1,120,2|2,0:0|0:0,0:0:0:0:
336,108,20980,1,2,0:0:0:0:
336,108,21209,2,0,P|276:96|224:120,1,120,0|0,1:0|1:0,0:0:0:0:
100,220,22125,1,0,1:0:0:0:
100,220,22240,1,0,0:0:0:0:
100,220,22354,6,0,P|148:292|236:292,1,180,6|0,0:0|1:0,0:0:0:0:
384,236,23499,2,0,L|392:116,1,120,0|0,1:0|1:0,0:0:0:0:
328,72,24186,2,0,P|248:104|176:56,1,180,2|0,0:0|1:0,0:0:0:0:
72,176,25331,1,0,1:0:0:0:
164,312,25789,1,0,1:0:0:0:
164,312,26018,6,0,P|220:332|276:316,1,120,6|2,0:0|0:0,0:0:0:0:
360,260,26705,1,0,1:0:0:0:
360,260,26934,2,0,L|356:140,1,120,2|2,0:0|0:0,0:0:0:0:
276,84,27621,1,0,1:0:0:0:
276,84,27850,2,0,P|188:92|136:164,1,180,6|10,0:0|0:0,0:0:0:0:
268,256,28995,2,0,L|276:316,2,60,2|8|4,0:0|0:3|0:3,0:0:0:0:
228,188,29682,6,0,P|276:220|336:216,1,120,6|2,0:0|0:0,0:0:0:0:
392,272,30370,2,0,P|412:216|392:160,1,120,10|10,0:0|0:0,0:0:0:0:
368,88,31057,2,0,L|428:92,2,60,2|10|2,0:0|0:0|0:0,0:0:0:0:
216,36,31973,5,2,0:0:0:0:
168,188,32431,1,2,0:0:0:0:
260,316,32889,1,2,0:0:0:0:
348,276,33347,2,0,P|344:188|408:132,2,180,6|10|2,0:0|0:0|0:0,0:0:0:0:
264,316,34950,1,10,0:0:0:0:
264,316,35179,6,0,B|212:320|192:272|192:272|140:288|112:252,1,180,2|10,0:0|0:0,0:0:0:0:
136,152,36324,2,0,L|128:32,1,120,10|10,0:0|0:0,0:0:0:0:
200,0,37011,6,0,B|248:0|280:36|280:36|256:80|272:124,1,180,6|10,0:0|0:0,0:0:0:0:
420,176,38156,2,0,B|412:208|412:208|420:264|420:264|412:304,1,120,10|10,0:0|0:0,0:0:0:0:
352,344,38843,2,0,P|268:324|256:240,1,180,2|10,0:0|0:0,0:0:0:0:
168,108,39988,1,10,0:0:0:0:
60,224,40446,1,10,0:0:0:0:
60,224,40560,1,0,0:0:0:0:
60,224,40675,6,0,P|84:308|168:332,1,180,6|10,0:0|0:0,0:0:0:0:
316,272,41820,1,2,0:0:0:0:
316,272,42049,2,0,L|308:152,1,120,10|2,0:0|0:0,0:0:0:0:
232,92,42736,1,2,0:0:0:0:
232,92,42965,2,0,P|172:88|128:48,1,120,2|2,0:0|0:0,0:0:0:0:
84,152,43881,1,10,0:0:0:0:
129,222,44339,6,0,B|153:166|153:166|129:50,1,180,6|0,0:0|1:0,0:0:0:0:
280,104,45713,1,0,1:0:0:0:
356,44,45942,1,2,0:0:0:0:
356,44,46171,2,0,P|372:132|312:192,1,180,6|0,0:0|1:0,0:0:0:0:
184,288,47545,1,0,1:0:0:0:
104,344,47774,1,2,0:0:0:0:
104,344,48003,6,0,B|64:288|144:232|104:172,1,180,6|0,0:0|1:0,0:0:0:0:
236,80,49377,1,0,1:0:0:0:
316,132,49835,5,6,0:0:0:0:
316,132,51209,1,2,0:0:0:0:
404,88,51667,6,0,B|324:100|280:24|280:24|256:68|204:68,1,240,6|2,0:0|0:0,0:0:0:0:
136,136,52812,1,2,0:0:0:0:
136,136,53041,2,0,P|136:196|172:240,1,120,10|2,0:0|0:0,0:0:0:0:
220,324,53728,1,2,0:0:0:0:
220,324,53957,2,0,L|344:316,1,120,10|2,0:0|0:0,0:0:0:0:
420,260,54873,1,10,0:0:0:0:
380,172,55102,1,2,0:0:0:0:
380,172,55217,1,0,0:0:0:0:
380,172,55331,6,0,P|296:152|272:68,1,180,6|10,0:0|0:0,0:0:0:0:
184,28,56247,1,2,0:0:0:0:
184,28,56476,2,0,L|64:40,1,120,10|10,0:0|0:0,0:0:0:0:
32,112,57163,2,0,P|64:160|56:220,2,120,0|2|10,1:0|0:0|0:0,0:0:0:0:
32,112,58995,6,0,P|92:120|144:96,1,120,6|2,0:0|0:0,0:0:0:0:
216,128,59682,2,0,L|224:248,1,120,0|0,1:0|1:0,0:0:0:0:
376,312,60599,1,0,1:0:0:0:
376,312,60828,2,0,P|348:264|364:204,1,120,2|2,0:0|0:0,0:0:0:0:
320,116,61744,1,2,0:0:0:0:
232,80,62202,1,2,0:0:0:0:
156,136,62431,1,0,0:0:0:0:
156,136,62660,6,0,P|204:212|288:216,1,180,6|0,0:0|1:0,0:0:0:0:
380,244,63576,1,0,0:0:0:0:
380,244,63805,2,0,L|368:124,1,120,0|0,1:0|1:0,0:0:0:0:
296,60,64492,1,0,0:0:0:0:
296,60,64721,2,0,P|240:76|184:56,1,120,0|0,1:0|1:0,0:0:0:0:
104,112,65408,1,0,0:0:0:0:
104,112,65637,2,0,P|104:172|136:220,1,120,0|0,1:0|1:0,0:0:0:0:
200,268,66324,6,0,B|244:292|284:260|284:260|320:296|368:280,1,180,6|0,0:0|1:0,0:0:0:0:
444,180,67469,1,0,1:0:0:0:
376,72,67927,1,0,1:0:0:0:
260,120,68385,1,0,1:0:0:0:
176,216,68843,2,0,P|228:240|256:296,1,120,0|0,1:0|1:0,0:0:0:0:
416,328,69759,1,0,1:0:0:0:
416,328,69873,1,2,0:0:0:0:
416,328,69988,6,0,P|432:240|380:172,2,180,6|10|2,0:0|0:0|0:0,0:0:0:0:
320,312,71591,1,2,0:0:0:0:
320,312,71705,1,0,0:0:0:0:
320,312,71820,2,0,P|240:280|220:196,2,180,6|10|2,0:0|0:0|0:0,0:0:0:0:
384,240,73652,6,0,P|356:188|368:128,1,120,6|10,0:0|0:0,0:0:0:0:
288,72,74339,1,2,0:0:0:0:
288,72,74453,1,10,0:0:0:0:
288,72,74568,2,0,L|168:80,1,120,2|10,0:0|0:0,0:0:0:0:
116,156,75484,1,2,0:0:0:0:
176,232,75942,2,0,P|280:276|372:204,1,240,10|10,0:0|0:0,0:0:0:0:
328,120,77316,6,0,P|272:100|240:52,1,120,6|10,0:0|0:0,0:0:0:0:
148,28,78003,1,2,0:0:0:0:
148,28,78118,1,10,0:0:0:0:
148,28,78232,2,0,P|88:32|48:72,1,120,2|10,0:0|0:0,0:0:0:0:
72,164,79148,1,2,0:0:0:0:
156,208,79606,1,10,0:0:0:0:
240,164,80064,2,0,P|296:148|356:164,1,120,2|10,0:0|0:0,0:0:0:0:
400,248,80980,5,6,0:0:0:0:
488,208,81438,2,0,B|452:140|492:64|492:64|444:80|404:56,1,240,10|10,0:0|0:0,0:0:0:0:
324,112,82583,1,0,0:0:0:0:
324,112,82812,2,0,P|304:196|356:268,2,180,2|10|10,0:0|0:0|0:0,0:0:0:0:
176,176,84644,6,0,L|188:268,1,90,4|8,1:2|1:2,0:0:0:0:
335,201,85331,2,0,L|323:109,2,90,0|8|0,1:0|1:2|1:0,0:0:0:0:
284,284,86247,1,8,1:2:0:0:
187,265,86476,6,0,P|147:249|119:213,1,90,4|8,1:2|1:2,0:0:0:0:
204,76,87163,2,0,P|244:88|276:124,1,90,8|0,1:2|1:0,0:0:0:0:
284,284,87850,2,0,L|344:288,1,60,10|2,0:0|0:0,0:0:0:0:
432,248,88308,5,4,1:2:0:0:
