osu file format v14

[General]
AudioFilename: audio.MP3
AudioLeadIn: 0
PreviewTime: 48253
Countdown: 1
SampleSet: Soft
StackLeniency: 0.2
Mode: 0
LetterboxInBreaks: 0
WidescreenStoryboard: 1

[Editor]
Bookmarks: 799,5162,9526,13889,22617,31344,40071,44435,48662,57389,66253,76071,85889
DistanceSpacing: 1.2
BeatDivisor: 4
GridSize: 32
TimelineZoom: 3.199999

[Metadata]
Title:Dried Up Youthful Fame (TV size)
TitleUnicode:Dried Up Youthful Fame (TV size)
Artist:OLDCODEX
ArtistUnicode:OLDCODEX
Creator:Lumael
Version:Light Insane
Source:Free!-Eternal Summer-
Tags:iwatobi swim club swimming op opening theme
BeatmapID:1523311
BeatmapSetID:721420

[Difficulty]
HPDrainRate:6
CircleSize:4
OverallDifficulty:7
ApproachRate:9
SliderMultiplier:1.6
SliderTickRate:1

[Events]
//Background and Video events
Video,220,"FreeOP.avi"
0,0,"Free!.full.1769817.jpg",0,0
//Break Periods
//Storyboard Layer 0 (Background)
//Storyboard Layer 1 (Fail)
//Storyboard Layer 2 (Pass)
//Storyboard Layer 3 (Foreground)
//Storyboard Sound Samples

[TimingPoints]
799,272.727272727273,4,2,0,70,1,0
799,-125,4,2,0,70,0,0
5162,-100,4,2,0,80,0,0
13889,-125,4,2,0,80,0,0
22617,-100,4,2,0,80,0,0
31344,-125,4,2,0,80,0,0
37889,-100,4,2,0,80,0,0
44435,-400,4,2,0,80,0,0
45526,-125,4,2,0,80,0,0
48662,-83.3333333333333,4,2,0,85,0,1
61889,-90.9090909090909,4,2,0,85,0,1
66253,-400,4,2,0,80,0,0
66799,-100,4,2,0,80,0,0
84799,-400,4,2,0,80,0,0
85889,-133.333333333333,4,2,0,80,0,0

[Colours]
Combo1 : 0,0,160
Combo2 : 125,43,132
Combo3 : 255,128,0
Combo4 : 214,41,41
Combo5 : 235,103,245
Combo6 : 0,128,64

[HitObjects]
30,348,799,6,0,P|21:309|34:273,1,64,2|0,0:0|0:0,0:0:0:0:
59,198,1071,2,0,P|68:159|55:123,1,64,0|0,0:0|0:0,0:0:0:0:
0,29,1344,2,0,L|74:22,1,64,2|0,0:0|0:0,0:0:0:0:
215,78,1617,2,0,L|141:71,1,64,0|0,0:0|0:0,0:0:0:0:
303,21,1889,6,0,P|363:2|423:20,1,128,2|0,0:0|0:0,0:0:0:0:
424,159,2299,2,0,P|355:178|292:150,1,128,2|0,0:0|0:0,0:0:0:0:
303,21,2708,2,0,P|338:63|342:92,1,64,0|0,0:0|0:0,0:0:0:0:
303,159,2980,6,0,P|312:212|301:239,1,64,2|0,0:0|0:0,0:0:0:0:
230,284,3253,2,0,P|211:335|188:353,1,64,0|0,0:0|0:0,0:0:0:0:
78,294,3526,2,0,P|55:266|47:231,1,64,2|0,0:0|0:0,0:0:0:0:
90,117,3799,5,4,1:0:0:0:
90,117,3935,1,0,3:0:0:0:
33,52,4071,1,0,3:0:0:0:
33,52,4139,1,0,3:0:0:0:
33,52,4208,2,0,L|23:17,2,32,0|0|0,3:0|0:0|0:0,0:0:0:0:
90,117,4480,5,0,3:0:0:0:
147,51,4617,2,0,L|225:46,1,64,4|0,1:2|3:0,0:0:0:0:
361,109,4889,2,0,L|289:104,1,64,0|0,3:0|3:0,0:0:0:0:
437,31,5162,5,0,0:0:0:0:
436,30,5299,2,0,P|473:108|435:187,1,160,0|0,1:0|0:0,0:0:0:0:
281,103,5708,2,0,L|366:109,1,80,0|0,1:0|0:0,0:0:0:0:
226,46,5980,2,0,L|134:51,1,80,0|0,1:0|0:0,0:0:0:0:
28,192,6253,5,0,0:0:0:0:
28,192,6389,2,0,P|38:253|143:298,1,160,0|0,1:0|0:0,0:0:0:0:
116,121,6799,2,0,L|124:217,1,80,0|0,1:0|0:0,0:0:0:0:
12,0,7071,2,0,L|4:96,1,80,0|0,1:0|0:0,0:0:0:0:
187,46,7344,5,0,0:0:0:0:
187,46,7480,2,0,B|271:67|271:67|360:44,1,160,0|0,1:0|0:0,0:0:0:0:
483,120,7889,2,0,P|496:162|486:205,1,80,0|0,1:0|0:0,0:0:0:0:
383,366,8162,2,0,P|372:322|386:280,1,80,0|0,1:0|0:0,0:0:0:0:
283,204,8435,1,0,3:0:0:0:
244,181,8503,1,0,3:0:0:0:
200,174,8571,1,0,3:0:0:0:
156,182,8639,1,0,3:0:0:0:
117,204,8707,1,0,3:0:0:0:
196,331,8844,5,0,3:0:0:0:
196,331,8912,1,0,3:0:0:0:
196,331,8980,2,0,L|200:267,3,40,2|0|2|0,3:2|3:0|3:2|3:0,0:0:0:0:
117,204,9253,2,0,L|113:140,3,40,2|0|2|0,3:2|0:0|3:2|3:0,0:0:0:0:
173,69,9526,6,0,B|214:97|214:97|348:81,1,160,6|0,0:0|1:0,0:0:0:0:
466,12,9935,1,0,0:0:0:0:
466,12,10071,2,0,P|484:63|462:105,1,80,0|0,0:0|0:0,0:0:0:0:
328,159,10344,2,0,P|314:117|330:73,1,80,0|0,1:0|0:0,0:0:0:0:
421,207,10617,6,0,P|353:261|268:244,1,160,0|0,0:0|1:0,0:0:0:0:
173,356,11026,1,0,0:0:0:0:
173,356,11162,2,0,L|267:348,1,80,0|0,0:0|3:0,0:0:0:0:
147,226,11435,2,0,L|57:218,1,80,0|0,1:0|0:0,0:0:0:0:
170,71,11708,6,0,B|232:66|232:66|277:81|277:81|364:74,1,160,0|0,0:0|1:0,0:0:0:0:
479,8,12117,1,0,0:0:0:0:
479,8,12253,2,0,B|490:54|490:54|479:98,1,80,0|0,0:0|0:0,0:0:0:0:
330,154,12526,2,0,B|319:112|319:112|331:58,1,80,0|0,1:0|0:0,0:0:0:0:
439,210,12799,6,0,P|388:261|361:266,1,80,6|0,0:0|3:0,0:0:0:0:
257,200,13071,2,0,P|187:181|161:190,1,80,0|4,3:0|0:0,0:0:0:0:
157,341,13344,2,0,P|197:298|203:257,1,80,0|0,3:0|3:0,0:0:0:0:
109,265,13617,1,6,3:2:0:0:
109,265,13685,1,0,3:0:0:0:
109,265,13753,1,0,3:0:0:0:
262,352,13889,6,0,P|328:375|394:351,1,128,4|0,0:0|0:0,0:0:0:0:
428,288,14299,1,2,0:0:0:0:
383,215,14435,2,0,P|375:173|389:124,1,64,0|2,1:0|0:0,0:0:0:0:
443,86,14708,1,0,0:0:0:0:
304,16,14844,6,0,L|148:22,1,128,2|0,0:0|0:0,0:0:0:0:
119,98,15253,2,0,P|80:78|63:37,1,64,0|0,0:0|0:0,0:0:0:0:
189,141,15526,2,0,P|168:170|136:184,1,64,0|0,1:0|3:0,0:0:0:0:
93,186,15730,1,0,3:0:0:0:
93,186,15799,2,0,P|52:166|32:128,1,64,0|0,3:0|0:0,0:0:0:0:
114,34,16071,6,0,L|120:117,1,64,6|0,0:0|0:0,0:0:0:0:
240,210,16344,1,0,0:0:0:0:
240,210,16480,2,0,L|234:293,1,64,2|0,0:0|1:0,0:0:0:0:
81,329,16753,2,0,B|117:324|117:324|162:330,1,64,2|0,0:0|0:0,0:0:0:0:
325,339,17026,6,0,B|390:352|390:352|462:338,1,128,2|0,0:0|0:0,0:0:0:0:
431,257,17435,1,0,3:0:0:0:
431,257,17503,1,0,3:0:0:0:
431,257,17571,1,0,3:0:0:0:
484,114,17708,2,0,L|481:186,1,64,2|0,1:2|0:0,0:0:0:0:
387,25,17980,2,0,L|390:96,1,64,0|0,0:0|0:0,0:0:0:0:
431,257,18253,6,0,P|377:277|290:243,1,128,6|0,0:0|0:0,0:0:0:0:
250,200,18662,2,0,P|226:235|224:275,1,64,2|0,0:0|1:0,0:0:0:0:
333,183,18935,2,0,P|314:144|281:122,1,64,2|0,0:0|0:0,0:0:0:0:
186,206,19208,1,2,0:0:0:0:
186,206,19344,6,0,L|277:196,1,64,0|0,0:0|0:0,0:0:0:0:
101,284,19617,2,0,L|10:274,1,64,0|0,0:0|0:0,0:0:0:0:
40,121,19889,2,0,P|63:157|65:207,1,64,0|0,1:0|0:0,0:0:0:0:
16,335,20162,2,0,P|23:299|43:270,1,64,2|2,0:0|0:0,0:0:0:0:
177,316,20435,5,6,0:0:0:0:
92,330,20571,1,0,0:0:0:0:
159,224,20708,2,0,L|239:230,1,64,0|0,0:0|0:0,0:0:0:0:
23,151,20980,2,0,L|94:145,1,64,0|0,1:0|0:0,0:0:0:0:
160,88,21253,2,0,P|185:55|185:7,1,64,0|0,0:0|0:0,0:0:0:0:
12,23,21526,6,0,L|24:171,1,128,0|0,3:0|3:0,0:0:0:0:
72,221,21935,1,0,3:0:0:0:
72,221,22003,1,0,3:0:0:0:
72,221,22071,5,0,1:0:0:0:
17,288,22208,1,0,3:0:0:0:
149,277,22344,5,0,1:0:0:0:
136,362,22480,1,0,3:0:0:0:
245,248,22617,6,0,B|343:215|338:291|435:246,1,160,6|0,0:0|1:0,0:0:0:0:
479,161,23026,1,2,0:0:0:0:
479,161,23162,2,0,P|493:117|475:69,1,80,2|0,0:0|0:0,0:0:0:0:
385,23,23435,1,2,1:2:0:0:
305,21,23571,6,0,L|395:23,1,80,2|0,0:0|0:0,0:0:0:0:
231,93,23844,1,0,0:0:0:0:
231,93,23980,2,0,L|142:95,1,80,2|0,1:2|0:0,0:0:0:0:
42,52,24253,2,0,P|29:94|43:136,1,80,2|0,3:2|3:0,0:0:0:0:
145,171,24526,2,0,P|158:128|146:86,1,80,2|0,1:2|0:0,0:0:0:0:
52,283,24799,5,6,0:0:0:0:
52,283,24935,2,0,L|149:292,1,80,0|2,0:0|1:2,0:0:0:0:
307,364,25208,2,0,L|210:373,1,80,2|0,0:0|0:0,0:0:0:0:
326,278,25480,2,0,P|365:297|389:335,1,80,2|0,0:0|1:0,0:0:0:0:
228,267,25753,6,0,L|238:78,1,160,2|0,0:0|0:0,0:0:0:0:
325,23,26162,2,0,L|337:127,1,80,0|0,1:0|0:0,0:0:0:0:
138,111,26435,2,0,L|146:20,1,80,2|0,0:0|0:0,0:0:0:0:
179,195,26708,2,0,P|136:209|94:196,1,80,2|0,1:2|3:0,0:0:0:0:
260,293,26980,6,0,P|333:265|407:291,1,160,6|2,0:0|1:2,0:0:0:0:
482,199,27389,2,0,B|497:164|497:164|487:91,1,80,2|0,0:0|0:0,0:0:0:0:
407,291,27662,2,0,B|392:326|392:326|399:377,1,80,2|0,0:0|1:0,0:0:0:0:
379,197,27935,1,2,0:0:0:0:
379,197,28071,6,0,B|344:212|344:212|292:204,1,80,0|0,0:0|0:0,0:0:0:0:
289,96,28344,2,0,B|324:81|324:81|375:88,1,80,2|0,1:2|0:0,0:0:0:0:
195,137,28617,2,0,P|179:95|193:52,1,80,2|0,0:0|0:0,0:0:0:0:
289,96,28889,2,0,P|301:138|286:179,1,80,2|0,1:2|0:0,0:0:0:0:
114,228,29162,5,6,0:0:0:0:
193,234,29299,2,0,L|95:226,1,80,2|2,0:2|1:2,0:0:0:0:
299,344,29571,2,0,L|209:351,1,80,2|0,0:0|0:0,0:0:0:0:
436,253,29844,2,0,L|338:245,1,80,2|0,0:0|1:0,0:0:0:0:
486,345,30117,6,0,B|465:313|465:313|478:162,1,160,2|0,0:0|0:0,0:0:0:0:
341,79,30526,2,0,B|294:70|294:70|243:79,1,80,0|0,1:0|3:0,0:0:0:0:
57,175,30799,2,0,B|104:184|104:184|145:176,1,80,0|0,1:0|3:0,0:0:0:0:
106,0,31071,2,0,L|112:95,1,80,0|0,1:0|3:0,0:0:0:0:
207,241,31344,6,0,L|201:327,1,64,6|0,0:0|0:0,0:0:0:0:
288,320,31617,2,0,L|293:248,1,64,0|0,0:0|0:0,0:0:0:0:
389,133,31889,2,0,L|394:204,1,64,0|0,1:0|0:0,0:0:0:0:
480,197,32162,2,0,L|474:125,1,64,0|0,0:0|0:0,0:0:0:0:
347,61,32435,6,0,P|315:92|307:128,1,64,0|0,0:0|1:0,0:0:0:0:
314,203,32708,2,0,P|326:236|353:259,1,64,0|0,0:0|0:0,0:0:0:0:
440,253,32980,2,0,P|467:229|479:196,1,64,0|0,1:0|0:0,0:0:0:0:
475,109,33253,2,0,P|462:75|435:52,1,64,0|0,1:0|1:0,0:0:0:0:
247,32,33526,6,0,L|172:36,1,64,0|0,0:0|0:0,0:0:0:0:
197,119,33799,2,0,L|122:123,1,64,0|0,0:0|0:0,0:0:0:0:
6,226,34071,6,0,L|81:230,1,64,0|0,1:0|0:0,0:0:0:0:
56,313,34344,2,0,L|131:317,1,64,0|0,0:0|0:0,0:0:0:0:
248,240,34617,5,0,0:0:0:0:
259,325,34753,1,0,1:0:0:0:
342,185,34889,5,0,0:0:0:0:
331,270,35025,1,0,0:0:0:0:
438,158,35162,5,0,1:0:0:0:
411,239,35298,1,0,0:0:0:0:
495,360,35435,2,0,L|405:366,1,64,0|0,1:0|1:0,0:0:0:0:
259,325,35708,6,0,L|330:329,1,64,6|0,0:0|0:0,0:0:0:0:
334,243,35980,2,0,L|262:238,1,64,0|0,0:0|0:0,0:0:0:0:
149,359,36253,2,0,L|77:363,1,64,0|0,1:0|0:0,0:0:0:0:
74,277,36525,2,0,L|145:272,1,64,0|0,0:0|0:0,0:0:0:0:
209,129,36799,5,0,0:0:0:0:
215,214,36935,1,0,1:0:0:0:
290,77,37071,5,0,0:0:0:0:
296,162,37207,1,0,0:0:0:0:
198,47,37344,2,0,P|146:70|133:89,1,64,0|0,1:0|0:0,0:0:0:0:
215,214,37617,2,0,P|267:191|280:172,1,64,0|0,1:0|1:0,0:0:0:0:
113,181,37889,6,0,L|106:273,1,80,6|0,1:2|0:0,0:0:0:0:
18,45,38162,1,0,0:0:0:0:
18,45,38299,2,0,L|24:134,1,80,0|0,1:0|0:0,0:0:0:0:
214,69,38571,1,0,0:0:0:0:
214,69,38708,2,0,B|171:61|171:61|121:73,1,80,0|0,1:0|0:0,0:0:0:0:
301,150,38980,6,0,B|383:174|383:174|461:149,1,160,6|0,1:2|0:0,0:0:0:0:
380,89,39389,1,0,1:0:0:0:
302,150,39526,1,0,3:0:0:0:
302,150,39594,1,0,3:0:0:0:
302,150,39662,1,0,3:0:0:0:
414,297,39799,5,0,1:0:0:0:
400,190,39935,1,0,3:0:0:0:
269,299,40071,6,0,P|356:326|420:290,1,160,6|0,0:0|1:0,0:0:0:0:
345,153,40480,1,0,0:0:0:0:
345,153,40617,2,0,L|339:257,1,80,0|0,0:0|0:0,0:0:0:0:
463,133,40889,2,0,L|458:44,1,80,0|0,1:0|0:0,0:0:0:0:
283,55,41162,6,0,P|321:65|359:54,1,80,2|0,0:2|0:0,0:0:0:0:
173,40,41435,2,0,P|134:29|96:40,1,80,2|0,1:2|0:0,0:0:0:0:
127,209,41708,2,0,L|135:114,1,80,2|0,0:0|0:0,0:0:0:0:
164,290,41980,2,0,P|121:300|76:282,1,80,2|0,1:2|0:0,0:0:0:0:
223,220,42253,6,0,P|254:298|211:370,1,160,6|0,0:0|1:0,0:0:0:0:
164,290,42662,1,0,0:0:0:0:
180,131,42799,1,0,0:0:0:0:
180,131,42935,2,0,P|224:122|264:134,2,80,0|0|0,0:0|1:0|0:0,0:0:0:0:
311,206,43344,6,0,P|345:166|352:126,1,80,2|0,1:2|3:0,0:0:0:0:
252,23,43617,1,2,1:2:0:0:
257,130,43753,1,0,3:0:0:0:
435,50,43889,2,0,L|341:43,1,80,2|0,1:2|3:0,0:0:0:0:
177,135,44162,2,0,L|271:128,1,80,2|0,1:2|3:0,0:0:0:0:
109,99,44435,6,0,B|92:137|109:170|109:170|101:190|101:190|109:214|104:237,1,140,6|0,0:0|3:0,0:0:0:0:
95,258,45458,1,0,3:0:0:0:
95,258,45526,6,0,L|182:250,1,64,0|0,1:0|0:0,0:0:0:0:
28,354,45799,1,2,0:0:0:0:
28,354,45935,2,0,L|99:360,1,64,0|0,1:0|0:0,0:0:0:0:
253,317,46208,1,2,0:0:0:0:
253,317,46344,2,0,L|324:323,1,64,0|0,1:0|0:0,0:0:0:0:
471,238,46617,5,0,1:0:0:0:
478,301,46753,2,0,L|468:215,1,64,0|0,1:0|0:0,0:0:0:0:
397,120,47026,2,0,L|405:48,1,64,0|0,1:0|3:0,0:0:0:0:
302,193,47299,1,0,3:0:0:0:
302,193,47367,1,0,3:0:0:0:
302,193,47435,1,0,3:0:0:0:
293,75,47571,1,0,3:0:0:0:
329,280,47708,6,0,P|296:286|251:272,1,64,0|0,1:0|0:0,0:0:0:0:
89,206,47980,2,0,P|120:199|151:205,1,64,4|0,1:2|0:0,0:0:0:0:
28,322,48253,1,0,3:0:0:0:
28,322,48321,1,0,3:0:0:0:
28,322,48389,2,0,L|21:274,2,32,0|0|0,3:0|3:0|3:0,0:0:0:0:
89,206,48662,6,0,P|132:125|94:40,1,191.999994140625,6|0,0:0|0:0,0:0:0:0:
174,117,49071,2,0,P|225:132|270:118,1,95.9999970703126,0|0,1:0|0:0,0:0:0:0:
473,20,49344,1,2,0:0:0:0:
453,132,49480,1,0,0:0:0:0:
357,66,49617,1,0,1:0:0:0:
433,238,49753,6,0,B|362:223|362:223|326:252|326:252|234:234,1,191.999994140625,6|0,0:0|0:0,0:0:0:0:
144,280,50162,2,0,P|129:322|146:378,1,95.9999970703126,0|0,1:0|0:0,0:0:0:0:
254,237,50435,1,2,0:2:0:0:
254,237,50571,2,0,P|266:191|250:146,1,95.9999970703126,2|2,0:2|1:2,0:0:0:0:
3,179,50844,6,0,B|42:211|42:211|182:195,1,191.999994140625,6|0,0:0|0:0,0:0:0:0:
321,338,51253,2,0,L|212:324,1,95.9999970703126,0|0,1:0|0:0,0:0:0:0:
410,245,51526,1,2,0:0:0:0:
410,245,51662,2,0,P|446:297|446:353,1,95.9999970703126,2|0,0:2|1:0,0:0:0:0:
303,215,51935,6,0,L|312:17,1,191.999994140625,6|0,0:0|0:0,0:0:0:0:
395,101,52344,2,0,P|444:114|496:99,1,95.9999970703126,0|0,1:0|0:0,0:0:0:0:
311,23,52617,2,0,P|264:11|217:26,1,95.9999970703126,0|0,0:0|0:0,0:0:0:0:
147,189,52889,1,0,1:0:0:0:
137,73,53026,1,0,0:0:0:0:
61,247,53162,6,0,P|144:287|227:246,1,191.999994140625,6|0,0:0|1:0,0:0:0:0:
322,312,53571,2,0,P|368:302|415:310,1,95.9999970703126,2|0,0:0|0:0,0:0:0:0:
415,171,53844,2,0,P|367:179|313:168,1,95.9999970703126,0|0,0:0|1:0,0:0:0:0:
192,36,54117,6,0,B|155:138|240:129|191:230,1,191.999994140625,6|0,0:0|0:0,0:0:0:0:
92,167,54526,2,0,B|63:180|63:180|-7:170,1,95.9999970703126,0|0,1:0|0:0,0:0:0:0:
195,221,54799,2,0,B|224:208|224:208|294:218,1,95.9999970703126,0|0,0:0|0:0,0:0:0:0:
104,283,55071,1,0,1:0:0:0:
92,167,55208,1,0,3:0:0:0:
202,326,55344,6,0,L|-3:312,1,191.999994140625,6|0,0:0|1:0,0:0:0:0:
41,113,55753,2,0,B|57:142|57:142|52:210,1,95.9999970703126,2|0,0:0|0:0,0:0:0:0:
202,326,56026,2,0,B|186:297|186:297|190:234,1,95.9999970703126,2|0,0:0|1:0,0:0:0:0:
297,118,56299,6,0,P|383:153|469:117,1,191.999994140625,2|0,0:0|0:0,0:0:0:0:
451,232,56708,2,0,P|433:282|470:339,1,95.9999970703126,0|0,1:0|0:0,0:0:0:0:
260,261,56980,1,2,1:2:0:0:
332,351,57117,1,2,0:2:0:0:
219,372,57253,1,2,1:2:0:0:
331,206,57389,6,0,B|288:191|253:213|253:213|221:199|221:199|177:226|130:209,1,191.999994140625,6|0,0:0|0:0,0:0:0:0:
61,114,57799,2,0,P|79:65|130:35,1,95.9999970703126,0|0,1:0|0:0,0:0:0:0:
148,213,58071,1,2,0:0:0:0:
148,213,58208,2,0,L|143:109,1,95.9999970703126,2|0,0:0|1:0,0:0:0:0:
56,231,58480,6,0,P|90:287|213:278,1,191.999994140625,6|0,0:0|0:0,0:0:0:0:
143,117,58889,2,0,L|148:213,1,95.9999970703126,0|0,1:0|0:0,0:0:0:0:
90,15,59162,1,2,3:2:0:0:
29,113,59299,1,2,3:2:0:0:
143,117,59435,1,2,3:2:0:0:
0,25,59571,6,0,L|6:234,1,191.999994140625,6|0,0:0|0:0,0:0:0:0:
82,303,59980,2,0,P|132:318|175:304,1,95.9999970703126,0|0,1:0|0:0,0:0:0:0:
359,244,60253,1,2,0:0:0:0:
268,241,60389,2,0,P|314:228|359:244,1,95.9999970703126,2|0,0:0|1:0,0:0:0:0:
128,235,60662,6,0,L|143:22,1,191.999994140625,6|0,0:0|0:0,0:0:0:0:
92,148,61071,2,0,P|46:160|0:149,1,95.9999970703126,0|0,1:0|0:0,0:0:0:0:
228,68,61344,2,0,P|274:55|320:66,1,95.9999970703126,2|0,0:0|0:0,0:0:0:0:
512,148,61617,2,0,P|465:160|419:149,1,95.9999970703126,2|0,1:2|0:0,0:0:0:0:
228,68,61889,6,0,L|243:270,1,176.000005371094,6|0,1:2|0:0,0:0:0:0:
395,341,62299,1,0,0:0:0:0:
395,341,62435,2,0,P|379:297|334:271,1,88.000002685547,0|0,1:0|0:0,0:0:0:0:
210,362,62708,2,0,L|111:367,1,88.000002685547,0|0,0:0|0:0,0:0:0:0:
2,231,62980,6,0,L|101:236,1,88.000002685547,0|0,1:0|0:0,0:0:0:0:
156,152,63253,1,0,0:0:0:0:
151,70,63389,2,0,P|167:110|155:151,1,88.000002685547,0|0,1:0|0:0,0:0:0:0:
62,101,63662,2,0,P|50:59|65:18,1,88.000002685547,0|0,1:0|0:0,0:0:0:0:
236,23,63935,1,0,0:0:0:0:
236,23,64071,6,0,L|325:26,1,88.000002685547,0|0,1:0|0:0,0:0:0:0:
486,89,64344,1,0,0:0:0:0:
398,91,64480,2,0,L|485:88,1,88.000002685547,0|0,1:0|0:0,0:0:0:0:
372,182,64753,2,0,P|324:161|304:114,1,88.000002685547,0|0,1:0|0:0,0:0:0:0:
495,207,65026,1,0,0:0:0:0:
495,207,65162,6,0,L|487:303,1,88.000002685547,0|0,1:0|0:0,0:0:0:0:
318,319,65435,1,0,1:0:0:0:
416,357,65571,1,0,3:0:0:0:
316,306,65708,5,0,1:0:0:0:
218,344,65844,1,0,3:0:0:0:
316,295,65980,5,0,1:0:0:0:
414,333,66116,1,0,3:0:0:0:
316,282,66253,2,0,B|277:273|277:273|235:280,1,80,6|0,0:0|1:0,0:0:0:0:
182,358,66935,1,2,0:0:0:0:
108,207,67071,5,0,1:0:0:0:
93,302,67208,1,2,0:0:0:0:
211,186,67344,6,0,L|197:9,1,160,6|0,0:0|0:0,0:0:0:0:
107,58,67753,1,0,0:0:0:0:
107,58,67889,2,0,B|65:68|65:68|20:55,1,80,0|0,1:0|0:0,0:0:0:0:
198,26,68162,1,0,0:0:0:0:
198,26,68299,6,0,B|242:16|242:16|286:27,1,80,0|0,0:0|0:0,0:0:0:0:
432,84,68571,2,0,P|468:57|481:5,1,80,0|0,1:0|0:0,0:0:0:0:
324,124,68844,1,0,0:0:0:0:
324,124,68980,2,0,L|335:210,1,80,0|0,1:0|0:0,0:0:0:0:
484,188,69253,2,0,L|473:274,1,80,0|0,1:0|1:0,0:0:0:0:
341,340,69526,6,0,P|268:368|195:339,1,160,6|0,0:0|0:0,0:0:0:0:
149,249,69935,1,0,0:0:0:0:
149,249,70071,2,0,L|158:147,1,80,0|0,1:0|0:0,0:0:0:0:
15,284,70344,1,0,0:0:0:0:
23,364,70480,6,0,L|14:262,1,80,0|0,0:0|0:0,0:0:0:0:
149,249,70753,2,0,P|194:239|241:257,1,80,0|0,1:0|0:0,0:0:0:0:
372,322,71026,1,0,0:0:0:0:
372,322,71162,2,0,P|411:333|452:324,1,80,0|0,1:0|0:0,0:0:0:0:
394,148,71435,5,0,1:0:0:0:
409,242,71571,1,0,1:0:0:0:
293,371,71708,6,0,P|217:389|141:366,1,160,6|0,0:0|0:0,0:0:0:0:
78,294,72117,1,0,0:0:0:0:
78,294,72253,2,0,L|85:198,1,80,0|0,1:0|0:0,0:0:0:0:
223,277,72526,1,0,0:0:0:0:
223,277,72662,6,0,L|216:181,1,80,0|0,0:0|0:0,0:0:0:0:
141,29,72935,2,0,L|135:108,1,80,0|0,1:0|0:0,0:0:0:0:
327,50,73208,1,0,0:0:0:0:
247,53,73344,2,0,L|347:48,1,80,0|0,1:0|0:0,0:0:0:0:
477,132,73617,1,0,1:0:0:0:
477,36,73753,1,0,1:0:0:0:
368,151,73889,6,0,P|332:219|366:288,1,160,6|0,0:0|0:0,0:0:0:0:
456,325,74299,1,0,0:0:0:0:
456,325,74435,2,0,P|464:282|448:235,1,80,0|0,1:0|0:0,0:0:0:0:
286,289,74708,1,0,0:0:0:0:
286,289,74844,6,0,L|383:288,2,80,0|0|0,1:0|1:0|3:0,0:0:0:0:
194,187,75253,1,0,1:0:0:0:
174,280,75389,1,0,3:0:0:0:
185,94,75526,5,0,1:0:0:0:
205,187,75662,1,0,3:0:0:0:
215,186,75799,5,0,1:0:0:0:
195,279,75935,1,0,1:0:0:0:
228,186,76071,6,0,P|303:208|378:185,1,160,6|0,0:0|0:0,0:0:0:0:
442,112,76480,1,0,0:0:0:0:
442,112,76617,2,0,P|459:71|449:20,1,80,0|0,1:0|0:0,0:0:0:0:
378,185,76889,2,0,P|375:224|391:260,1,80,0|0,1:0|0:0,0:0:0:0:
497,355,77162,6,0,L|410:349,1,80,0|0,1:0|0:0,0:0:0:0:
247,334,77435,1,0,0:0:0:0:
326,328,77571,2,0,L|246:333,1,80,0|0,1:0|0:0,0:0:0:0:
143,261,77844,1,0,0:0:0:0:
143,261,77980,2,0,P|131:223|152:173,1,80,0|0,1:0|0:0,0:0:0:0:
209,76,78253,6,0,P|136:103|63:74,1,160,0|0,1:0|0:0,0:0:0:0:
26,163,78662,2,0,B|15:191|15:191|31:264,1,80,0|0,1:0|0:0,0:0:0:0:
142,337,78935,1,0,0:0:0:0:
142,337,79071,2,0,B|153:309|153:309|137:236,1,80,0|0,1:0|0:0,0:0:0:0:
26,163,79344,6,0,P|98:135|174:162,1,160,0|0,1:0|0:0,0:0:0:0:
243,226,79753,2,0,P|316:252|390:224,1,160,0|0,1:0|0:0,0:0:0:0:
443,144,80162,2,0,L|436:64,1,80,0|0,1:0|0:0,0:0:0:0:
390,224,80435,6,0,L|397:304,1,80,6|0,0:0|0:0,0:0:0:0:
275,275,80708,2,0,L|268:355,1,80,0|0,1:0|0:0,0:0:0:0:
198,186,80980,1,0,0:0:0:0:
293,174,81117,1,0,0:0:0:0:
181,296,81253,2,0,L|94:289,1,80,0|0,1:0|0:0,0:0:0:0:
198,185,81526,6,0,P|222:111|195:37,1,160,0|0,1:0|1:0,0:0:0:0:
105,73,81935,2,0,P|68:80|21:73,1,80,0|0,1:0|0:0,0:0:0:0:
195,37,82208,1,0,0:0:0:0:
195,37,82344,2,0,P|234:29|273:35,1,80,0|0,1:0|0:0,0:0:0:0:
463,100,82617,6,2,P|423:107|384:101,1,80,0|0,1:0|0:0,0:0:0:0:
195,37,82889,1,0,0:0:0:0:
273,35,83026,2,0,P|234:29|195:37,1,80,0|0,1:0|0:0,0:0:0:0:
94,128,83299,1,0,0:0:0:0:
94,128,83435,2,0,L|104:215,1,80,0|0,1:0|0:0,0:0:0:0:
236,345,83708,5,0,1:0:0:0:
244,249,83844,1,0,0:0:0:0:
157,289,83980,1,0,0:0:0:0:
325,297,84117,2,0,P|331:220|280:162,1,160,0|0,1:0|0:0,0:0:0:0:
157,289,84526,2,0,P|220:272|247:240,1,80,0|0,1:0|3:0,0:0:0:0:
244,249,84730,1,0,3:0:0:0:
244,249,84799,6,0,L|235:397,1,140,6|0,0:0|3:0,0:0:0:0:
224,383,85821,1,0,3:0:0:0:
224,383,85889,6,0,B|179:376|179:376|130:390|130:390|94:360|94:360|88:324|88:324|45:326|45:326|39:353|39:353|-13:364,1,300.000011444092,6|0,0:0|0:0,0:0:0:0:
