osu file format v14

[General]
AudioFilename: audio.MP3
AudioLeadIn: 0
PreviewTime: 48253
Countdown: 1
SampleSet: None
StackLeniency: 0.2
Mode: 0
LetterboxInBreaks: 0
WidescreenStoryboard: 1

[Editor]
Bookmarks: 799,5162,9526,13889,22617,31344,40071,44435,48662,57389,66253,76071,85889
DistanceSpacing: 1.3
BeatDivisor: 4
GridSize: 32
TimelineZoom: 3.199999

[Metadata]
Title:Dried Up Youthful Fame (TV size)
TitleUnicode:Dried Up Youthful Fame (TV size)
Artist:OLDCODEX
ArtistUnicode:OLDCODEX
Creator:Lumael
Version:Insane
Source:Free!-Eternal Summer-
Tags:iwatobi swim club swimming op opening theme
BeatmapID:1523310
BeatmapSetID:721420

[Difficulty]
HPDrainRate:7
CircleSize:4
OverallDifficulty:7.5
ApproachRate:9
SliderMultiplier:1.8
SliderTickRate:1

[Events]
//Background and Video events
0,0,"Free!.full.1886777.jpg",0,0
Video,220,"FreeOP.avi"
//Break Periods
//Storyboard Layer 0 (Background)
//Storyboard Layer 1 (Fail)
//Storyboard Layer 2 (Pass)
//Storyboard Layer 3 (Foreground)
//Storyboard Sound Samples

[TimingPoints]
799,272.727272727273,4,2,0,100,1,0
799,-125,4,2,0,100,0,0
5162,-100,4,2,0,100,0,0
13889,-125,4,2,0,100,0,0
22617,-100,4,2,0,100,0,0
31344,-125,4,2,0,100,0,0
37889,-100,4,2,0,100,0,0
44435,-400,4,2,0,100,0,0
45526,-125,4,2,0,100,0,0
48662,-83.3333333333333,4,2,0,100,0,1
61889,-90.9090909090909,4,2,0,100,0,1
66253,-400,4,2,0,100,0,0
66799,-100,4,2,0,100,0,0
84799,-400,4,2,0,100,0,0
85889,-133.333333333333,4,2,0,100,0,0

[Colours]
Combo1 : 99,29,58
Combo2 : 7,153,184
Combo3 : 255,128,0
Combo4 : 0,128,102

[HitObjects]
32,317,799,6,0,L|132:309,1,72
239,355,1071,2,0,L|310:360,1,72
416,295,1344,2,0,P|425:261|416:226,1,72
338,125,1617,2,0,P|328:90|337:55,1,72
506,2,1889,6,0,L|490:154,1,144
416,226,2299,2,0,L|432:378,1,144
272,332,2708,2,0,P|306:301|348:293,1,72
162,370,2980,6,0,L|79:359,1,72
24,263,3253,2,0,L|107:252,1,72
183,154,3526,2,0,L|100:143,1,72
295,58,3799,5,0,0:0:0:0:
222,287,3935,1,0,0:0:0:0:
222,287,4003,1,0,0:0:0:0:
222,287,4071,2,0,L|212:333,3,36
183,154,4344,2,0,L|175:118,3,36
320,196,4617,5,0,0:0:0:0:
370,343,4753,1,0,0:0:0:0:
462,154,4889,1,0,0:0:0:0:
512,301,5025,1,0,0:0:0:0:
320,196,5162,5,0,0:0:0:0:
242,284,5299,2,0,P|163:321|85:282,1,180
48,84,5708,6,0,L|37:174,1,90
169,213,5980,2,0,L|157:123,1,90
310,21,6253,5,0,0:0:0:0:
399,96,6389,2,0,L|372:298,1,180
214,238,6799,2,0,P|243:204|285:190,1,90
184,343,7071,2,0,P|141:329|112:295,1,90
316,315,7344,5,0,0:0:0:0:
419,368,7480,2,0,B|426:288|426:288|414:269|414:269|423:180,1,180
310,20,7889,2,0,B|316:62|316:62|314:76|314:76|325:134,1,90
192,79,8162,2,0,B|198:121|198:121|196:135|196:135|207:193,1,90
55,344,8435,5,0,0:0:0:0:
59,312,8503,1,0,0:0:0:0:
63,281,8571,1,0,0:0:0:0:
67,250,8639,1,0,0:0:0:0:
72,219,8707,1,0,0:0:0:0:
192,79,8844,1,0,0:0:0:0:
192,79,8912,1,0,0:0:0:0:
191,79,8980,1,0,0:0:0:0:
156,107,9048,1,0,0:0:0:0:
113,117,9116,1,0,0:0:0:0:
69,105,9184,1,0,0:0:0:0:
36,76,9253,2,0,L|45:22,3,45
140,25,9526,6,0,B|150:98|150:98|141:123|141:123|152:218,1,180
193,311,9935,1,0,0:0:0:0:
301,192,10071,2,0,P|343:178|386:191,1,90
193,311,10344,2,0,P|150:324|107:311,1,90
141,46,10617,6,0,L|155:232,1,180
41,256,11026,1,0,0:0:0:0:
259,140,11162,2,0,L|270:267,1,90
41,256,11435,2,0,L|33:166,1,90
262,36,11708,6,0,P|339:79|353:164,1,180
265,242,12117,1,0,0:0:0:0:
405,335,12253,2,0,L|503:326,1,90
265,242,12526,2,0,L|167:233,1,90
14,349,12799,5,0,0:0:0:0:
183,336,12935,2,0,L|128:330,2,45
14,349,13208,5,0,0:0:0:0:
56,176,13344,2,0,L|63:248,2,45
187,17,13617,1,0,0:0:0:0:
182,61,13685,1,0,0:0:0:0:
177,106,13753,1,0,0:0:0:0:
172,151,13821,1,0,0:0:0:0:
169,195,13889,6,0,P|231:225|293:194,1,144
352,118,14299,1,0,0:0:0:0:
424,176,14435,2,0,P|434:210|428:245,2,72
362,306,14844,5,0,0:0:0:0:
438,358,14980,2,0,L|522:350,1,72
362,306,15253,2,0,L|290:312,1,72
103,349,15526,5,0,0:0:0:0:
194,364,15662,1,0,0:0:0:0:
194,364,15730,1,0,0:0:0:0:
194,364,15799,1,0,0:0:0:0:
154,279,15935,1,0,0:0:0:0:
43,175,16071,6,0,L|124:168,1,72
191,78,16344,1,0,0:0:0:0:
262,70,16480,2,0,L|191:77,1,72
326,151,16753,2,0,L|397:144,1,72
492,29,17026,1,0,0:0:0:0:
492,29,17162,6,0,P|505:62|496:96,1,72
397,143,17435,2,0,L|400:210,2,48
479,219,17708,2,0,P|448:265|421:276,1,72
237,228,17980,2,0,L|325:231,1,72
162,292,18253,6,0,P|137:226|164:160,1,144
251,319,18662,2,0,P|236:351|210:375,1,72
90,289,18935,2,0,L|178:292,1,72
326,239,19208,1,0,0:0:0:0:
326,239,19344,6,0,L|414:242,1,72
461,171,19617,2,0,P|472:128|458:94,1,72
397,241,19889,2,0,P|386:278|398:315,1,72
507,370,20162,5,0,0:0:0:0:
483,278,20299,1,0,0:0:0:0:
346,378,20435,6,0,L|268:373,1,72
127,281,20708,2,0,L|198:285,1,72
49,349,20980,5,0,0:0:0:0:
29,257,21117,1,0,0:0:0:0:
126,94,21253,5,0,0:0:0:0:
106,186,21390,1,0,0:0:0:0:
38,44,21526,6,0,P|92:0|162:1,1,144
126,94,21935,1,0,0:0:0:0:
126,94,22003,1,0,0:0:0:0:
130,97,22071,5,0,0:0:0:0:
109,188,22208,1,0,0:0:0:0:
249,151,22344,5,0,0:0:0:0:
270,242,22481,1,0,0:0:0:0:
384,48,22617,5,0,0:0:0:0:
384,48,22753,2,0,L|368:240,1,180
440,320,23162,1,0,0:0:0:0:
440,320,23299,2,0,P|482:334|525:323,1,90
270,242,23571,6,0,P|227:227|184:238,1,90
102,322,23844,1,0,0:0:0:0:
16,178,23980,2,0,P|1:136|15:94,1,90
174,132,24253,2,0,L|79:139,1,90
257,49,24526,5,0,0:0:0:0:
284,162,24662,1,0,0:0:0:0:
416,8,24799,6,0,L|405:106,1,90
494,261,25071,1,0,0:0:0:0:
483,171,25208,2,0,L|493:260,1,90
404,359,25480,2,0,P|360:348|328:317,1,90
195,191,25753,6,0,L|377:215,1,180
434,114,26162,2,0,P|447:71|434:29,1,90
373,214,26435,2,0,P|359:256|372:298,1,90
307,110,26708,2,0,L|192:95,1,90
42,248,26980,6,0,L|242:221,1,180
283,322,27389,2,0,P|324:336|367:326,1,90
510,230,27662,2,0,P|468:215|425:225,1,90
303,74,27935,1,0,0:0:0:0:
303,74,28071,6,0,L|328:261,1,180
253,344,28480,1,0,0:0:0:0:
60,263,28617,2,0,L|179:274,1,90
253,344,28889,2,0,L|342:335,1,90
481,208,29162,5,0,0:0:0:0:
481,208,29299,2,0,P|472:251|440:282,1,90
397,113,29571,2,0,L|400:202,1,90
480,27,29844,2,0,L|483:116,1,90
440,282,30117,5,0,0:0:0:0:
439,282,30253,2,0,P|397:297|354:284,1,90
155,226,30526,2,0,P|196:210|239:223,1,90
37,310,30799,2,0,L|23:204,1,90
117,26,31071,2,0,L|105:115,1,90
145,331,31344,6,0,L|222:324,1,72
301,364,31617,2,0,L|378:357,1,72
448,302,31889,2,0,P|458:260|435:213,1,72
401,152,32162,2,0,P|391:110|414:63,1,72
215,24,32435,5,0,0:0:0:0:
305,46,32571,1,0,0:0:0:0:
152,93,32708,5,0,0:0:0:0:
242,115,32844,1,0,0:0:0:0:
93,159,32980,5,0,0:0:0:0:
183,181,33116,1,0,0:0:0:0:
61,74,33253,2,0,P|24:99|9:144,1,72
99,230,33526,6,0,L|91:141,1,72
189,252,33799,2,0,L|181:163,1,72
276,276,34071,2,0,L|268:187,1,72
363,301,34344,2,0,L|355:212,1,72
453,62,34617,5,0,0:0:0:0:
436,153,34753,1,0,0:0:0:0:
374,10,34889,5,0,0:0:0:0:
357,101,35025,1,0,0:0:0:0:
261,150,35162,5,0,0:0:0:0:
244,59,35298,1,0,0:0:0:0:
180,203,35435,5,0,0:0:0:0:
163,112,35571,1,0,0:0:0:0:
260,237,35708,6,0,P|241:267|211:286,1,72
108,196,35980,2,0,L|199:204,1,72
332,230,36253,2,0,L|241:238,1,72
106,212,36526,2,0,L|197:220,1,72
246,42,36799,5,0,0:0:0:0:
249,135,36935,1,0,0:0:0:0:
331,0,37071,5,0,0:0:0:0:
334,93,37207,1,0,0:0:0:0:
165,92,37344,6,0,L|90:82,1,72
331,190,37617,2,0,L|406:180,1,72
154,303,37889,6,0,L|38:291,1,90
221,224,38162,1,0,0:0:0:0:
256,303,38299,2,0,P|244:251|202:212,1,90
127,115,38571,1,0,0:0:0:0:
113,203,38708,2,0,L|130:91,1,90
290,2,38980,6,0,L|312:202,1,180
410,79,39389,2,0,P|452:66|495:78,1,90
495,78,39594,1,0,0:0:0:0:
495,78,39662,1,0,0:0:0:0:
454,201,39799,1,0,0:0:0:0:
512,324,39935,1,0,0:0:0:0:
512,324,40003,1,0,0:0:0:0:
512,324,40071,6,0,L|331:340,1,180
247,258,40480,1,0,0:0:0:0:
99,355,40617,2,0,P|85:314|100:272,1,90
246,174,40889,2,0,P|261:215|246:257,1,90
37,142,41162,6,0,L|142:147,1,90
335,169,41435,2,0,L|230:174,1,90
37,58,41708,2,0,L|142:63,1,90
329,84,41980,2,0,L|224:89,1,90
33,233,42253,6,0,P|65:314|147:343,1,180
225,255,42662,1,0,0:0:0:0:
374,351,42799,2,0,L|383:251,1,90
233,165,43071,2,0,L|225:255,1,90
308,104,43344,6,0,P|276:74|230:65,1,90
65,174,43617,2,0,P|108:165|141:134,1,90
62,0,43889,2,0,L|70:89,1,90
149,223,44162,2,0,L|141:134,1,90
95,277,44435,6,0,P|131:299|222:244,1,157.5
233,240,45458,1,0,0:0:0:0:
233,240,45526,6,0,L|229:340,1,72
346,211,45799,1,0,0:0:0:0:
343,139,45935,2,0,L|347:239,1,72
253,95,46208,2,0,P|282:49|309:37,1,72
391,49,46480,1,0,0:0:0:0:
239,205,46617,6,0,L|143:194,1,72
10,109,46889,1,0,0:0:0:0:
46,280,47026,1,0,0:0:0:0:
147,70,47162,1,0,0:0:0:0:
182,74,47230,1,0,0:0:0:0:
218,79,47298,1,0,0:0:0:0:
254,84,47366,1,0,0:0:0:0:
289,89,47434,1,0,0:0:0:0:
460,118,47571,5,0,0:0:0:0:
460,118,47708,2,0,L|364:137,1,72
243,7,47980,6,0,L|226:113,1,108
201,131,48253,1,0,0:0:0:0:
176,157,48321,1,0,0:0:0:0:
145,174,48389,1,0,0:0:0:0:
109,179,48457,1,0,0:0:0:0:
74,173,48525,1,0,0:0:0:0:
43,155,48593,1,0,0:0:0:0:
19,128,48662,6,0,L|45:371,1,215.999993408203
245,265,49071,2,0,B|193:251|193:251|139:263,1,107.999996704102
379,363,49344,1,0,0:0:0:0:
379,363,49480,2,0,P|432:329|447:274,1,107.999996704102
334,56,49753,6,0,L|356:270,1,215.999993408203
470,129,50162,2,0,L|456:21,1,107.999996704102
218,92,50435,1,0,0:0:0:0:
231,199,50571,2,0,L|217:91,1,107.999996704102
330,333,50844,6,0,B|225:378|227:278|124:317,1,215.999993408203
17,209,51253,2,0,P|43:154|109:126,1,107.999996704102
291,51,51526,1,0,0:0:0:0:
183,45,51662,2,0,L|303:51,1,107.999996704102
358,177,51935,6,0,P|422:171|497:39,1,215.999993408203
358,177,52344,2,0,B|339:232|339:232|356:288,1,107.999996704102
187,362,52617,2,0,B|201:305|201:305|182:259,1,107.999996704102
50,131,52889,1,0,0:0:0:0:
8,318,53026,1,0,0:0:0:0:
182,259,53162,6,0,L|403:271,1,215.999993408203
487,140,53571,2,0,P|465:93|400:66,1,107.999996704102
205,129,53844,2,0,L|331:137,1,107.999996704102
64,26,54117,6,0,B|85:120|85:120|82:139|82:139|112:265,1,215.999993408203
155,374,54526,2,0,P|184:326|232:304,1,107.999996704102
448,363,54799,2,0,L|340:356,1,107.999996704102
383,121,55071,5,0,0:0:0:0:
409,259,55208,1,0,0:0:0:0:
169,95,55344,6,0,B|264:104|264:104|282:112|282:112|411:123,1,215.999993408203
137,172,55753,2,0,P|91:133|86:73,1,107.999996704102
206,293,56026,2,0,L|221:177,1,107.999996704102
121,324,56299,6,0,P|202:385|289:332,1,215.999993408203
