osu file format v14

[General]
AudioFilename: audio.MP3
AudioLeadIn: 0
PreviewTime: 48253
Countdown: 0
SampleSet: Soft
StackLeniency: 0.7
Mode: 2
LetterboxInBreaks: 0
WidescreenStoryboard: 0

[Editor]
Bookmarks: 45526
DistanceSpacing: 1.2
BeatDivisor: 4
GridSize: 4
TimelineZoom: 2

[Metadata]
Title:Dried Up Youthful Fame (TV Size)
TitleUnicode:Dried Up Youthful Fame (TV Size)
Artist:OLDCODEX
ArtistUnicode:OLDCODEX
Creator:RoseusJaeger
Version:Collab Platter
Source:Free!-Eternal Summer-
Tags:iwatobi swim club season 2 kyoani kyoto animation フリー エターナル・サマー Ascendance Paranoid Grapes wonjae Sanyi F D Flourite
BeatmapID:1154583
BeatmapSetID:544889

[Difficulty]
HPDrainRate:5
CircleSize:3.5
OverallDifficulty:8.2
ApproachRate:8.2
SliderMultiplier:1.55
SliderTickRate:1

[Events]
//Background and Video events
0,0,"1 BG 111.jpg",0,0
//Break Periods
//Storyboard Layer 0 (Background)
//Storyboard Layer 1 (Fail)
//Storyboard Layer 2 (Pass)
//Storyboard Layer 3 (Foreground)
//Storyboard Sound Samples

[TimingPoints]
809,272.727272727273,4,2,1,50,1,0
48672,-100,4,2,1,75,0,1
56445,-100,4,2,1,75,0,0
57399,-100,4,2,1,75,0,1
66263,-100,4,2,1,75,0,0
86036,-100,4,2,1,5,0,0

[Colours]
Combo1 : 251,74,220
Combo2 : 4,255,4
Combo3 : 66,151,255
Combo4 : 253,57,57
Combo5 : 255,205,53

[HitObjects]
208,248,809,5,2,0:0:0:0:
148,196,945,1,0,0:0:0:0:
148,196,1081,1,0,0:0:0:0:
208,248,1218,1,0,0:0:0:0:
288,248,1354,1,0,0:0:0:0:
348,196,1490,1,0,0:0:0:0:
348,196,1626,1,0,0:0:0:0:
288,248,1763,1,0,0:0:0:0:
136,224,1899,6,0,L|64:160,2,77.5,2|0|0,0:0|0:0|0:0,0:0:0:0:
204,260,2309,1,0,0:0:0:0:
284,260,2445,1,0,0:0:0:0:
348,224,2581,1,0,0:0:0:0:
348,224,2718,1,0,0:0:0:0:
284,260,2854,1,0,0:0:0:0:
424,208,2990,5,2,0:0:0:0:
504,148,3127,1,0,0:0:0:0:
436,72,3263,1,0,0:0:0:0:
364,8,3399,1,0,0:0:0:0:
228,196,3536,1,0,0:0:0:0:
160,196,3672,1,0,0:0:0:0:
312,200,3809,1,2,0:0:0:0:
376,200,3945,1,0,1:0:0:0:
160,204,4081,6,0,B|72:204|72:204|164:204,1,155
224,212,4490,2,0,P|232:156|228:120,1,77.5
140,208,4763,2,0,P|104:180|152:96,1,155
388,256,5172,6,0,L|446:172,1,77.5,4|0,1:0|1:0,0:0:0:0:
340,140,5445,1,0,0:0:0:0:
111,191,5718,2,0,L|52:104,1,77.5,0|0,1:0|0:0,0:0:0:0:
159,75,5990,1,0,1:0:0:0:
376,192,6263,5,4,1:0:0:0:
296,192,6399,2,0,P|232:176|224:92,1,155,0|0,1:0|0:0,0:0:0:0:
376,208,6809,1,0,1:0:0:0:
445,208,6945,2,0,L|360:152,1,77.5,0|0,0:0|1:0,0:0:0:0:
160,200,7354,6,0,L|84:160,2,77.5,4|0|0,1:0|1:0|0:0,0:0:0:0:
232,208,7763,1,0,0:0:0:0:
384,256,7899,2,0,P|424:192|360:120,1,155,0|0,1:0|1:0,0:0:0:0:
160,236,8445,5,0,1:0:0:0:
123,225,8513,1,0,0:0:0:0:
97,197,8581,1,0,0:0:0:0:
89,160,8649,1,0,0:0:0:0:
101,124,8717,1,0,1:0:0:0:
169,94,8854,1,0,0:0:0:0:
320,200,8990,2,0,L|384:128,1,77.5,0|0,1:0|1:0,0:0:0:0:
220,208,9263,2,0,L|156:128,1,77.5,0|0,0:0|0:0,0:0:0:0:
392,232,9536,5,4,1:0:0:0:
464,176,9672,1,0,0:0:0:0:
464,176,9809,1,0,1:0:0:0:
392,232,9945,1,0,0:0:0:0:
240,220,10081,1,0,0:0:0:0:
168,208,10218,1,0,0:0:0:0:
100,196,10354,1,0,1:0:0:0:
168,208,10490,1,0,0:0:0:0:
388,204,10627,6,0,P|432:188|360:140,1,155,0|0,0:0|1:0,0:0:0:0:
312,116,11036,1,0,0:0:0:0:
236,112,11172,1,0,0:0:0:0:
312,116,11309,2,0,L|376:56,1,77.5,0|0,0:0|1:0,0:0:0:0:
108,208,11718,6,0,L|176:152,1,77.5,4|0,1:0|0:0,0:0:0:0:
248,116,11990,2,0,L|324:56,2,77.5,0|0|0,1:0|0:0|0:0,0:0:0:0:
100,196,12399,2,0,L|80:104,1,77.5,0|0,0:0|1:0,0:0:0:0:
168,96,12672,1,0,0:0:0:0:
388,208,12809,6,0,L|460:248,2,77.5,6|0|0,1:0|0:0|0:0,0:0:0:0:
240,208,13218,2,0,P|200:168|280:128,1,155,2|0,0:0|0:0,0:0:0:0:
332,104,13627,2,0,L|280:24,1,77.5,2|0,0:0|0:0,0:0:0:0:
72,224,13899,6,0,P|32:188|128:64,1,232.5,4|0,1:0|0:0,0:0:0:0:
264,200,14445,1,0,0:0:0:0:
320,176,14581,1,0,0:0:0:0:
102,222,14854,6,0,P|54:190|122:142,1,155,0|0,0:0|0:0,0:0:0:0:
190,142,15263,2,0,L|274:142,1,77.5,0|0,1:0|0:0,0:0:0:0:
420,208,15536,1,0,0:0:0:0:
448,176,15604,1,0,0:0:0:0:
476,148,15672,1,0,0:0:0:0:
392,106,15809,2,0,L|323:56,1,77.5,0|0,1:0|0:0,0:0:0:0:
113,206,16081,6,0,L|28:247,2,77.5,4|0|0,1:0|0:0|1:0,0:0:0:0:
272,213,16490,2,0,L|340:136,1,77.5,0|0,1:0|0:0,0:0:0:0:
388,120,16763,2,0,L|320:200,1,77.5,0|0,1:0|0:0,0:0:0:0:
185,206,17036,6,0,L|98:248,2,77.5,0|0|0,1:0|0:0|0:0,0:0:0:0:
264,200,17445,1,0,0:0:0:0:
240,154,17535,1,0,0:0:0:0:
196,129,17626,1,0,0:0:0:0:
48,224,17718,2,0,L|24:140,1,77.5,0|0,1:0|0:0,0:0:0:0:
104,104,17990,2,0,L|168:60,1,77.5,0|0,1:0|0:0,0:0:0:0:
384,196,18263,6,0,L|456:264,2,77.5,4|0|0,1:0|0:0|1:0,0:0:0:0:
232,200,18672,2,0,L|152:256,1,77.5,0|0,1:0|0:0,0:0:0:0:
232,200,18945,1,0,0:0:0:0:
384,196,19081,2,0,L|420:112,1,77.5,0|0,1:0|0:0,0:0:0:0:
196,200,19354,6,0,L|136:128,1,77.5,0|0,0:0|0:0,0:0:0:0:
224,100,19627,2,0,L|320:56,1,77.5,0|0,1:0|0:0,0:0:0:0:
76,204,19899,2,0,P|44:168|120:112,1,155,0|0,1:0|1:0,0:0:0:0:
348,200,20445,6,0,P|284:160|208:216,1,155,4|0,1:0|1:0,0:0:0:0:
132,212,20854,2,0,P|104:168|196:120,1,155,0|0,0:0|1:0,0:0:0:0:
312,128,21263,2,0,L|372:60,1,77.5,0|0,1:0|0:0,0:0:0:0:
144,196,21536,5,0,1:0:0:0:
80,152,21672,1,0,0:0:0:0:
144,192,21809,1,0,1:0:0:0:
196,192,21899,1,0,0:0:0:0:
244,192,21990,1,0,0:0:0:0:
388,208,22081,2,0,P|416:168|340:96,1,155,0|0,0:0|0:0,0:0:0:0:
280,88,22490,1,0,0:0:0:0:
60,208,22627,6,0,L|44:120,1,77.5,4|0,0:0|0:0,0:0:0:0:
184,208,22899,2,0,L|228:132,1,77.5,0|0,1:0|0:0,0:0:0:0:
144,100,23172,2,0,L|80:152,1,77.5,0|0,0:0|1:0,0:0:0:0:
308,196,23581,6,0,P|356:152|280:92,1,155,0|0,0:0|0:0,0:0:0:0:
172,200,23990,2,0,L|128:112,1,77.5,0|0,1:0|0:0,0:0:0:0:
40,108,24263,2,0,L|72:20,1,77.5,0|0,0:0|1:0,0:0:0:0:
160,112,24536,2,0,L|212:32,1,77.5,0|0,1:0|0:0,0:0:0:0:
420,208,24809,6,0,P|464:184|400:136,1,155,0|0,1:0|1:0,0:0:0:0:
320,128,25218,2,0,L|248:80,1,77.5
116,212,25490,2,0,L|100:116,1,77.5,0|0,0:0|1:0,0:0:0:0:
180,160,25763,6,0,P|228:144|164:84,1,155,0|0,0:0|0:0,0:0:0:0:
52,104,26172,2,0,L|24:8,1,77.5,0|0,1:0|0:0,0:0:0:0:
172,224,26445,2,0,L|236:152,1,77.5,0|0,1:0|0:0,0:0:0:0:
140,128,26718,2,0,L|76:56,1,77.5,0|0,1:0|0:0,0:0:0:0:
304,212,26990,6,0,L|392:212,2,77.5,4|0|0,1:0|0:0|1:0,0:0:0:0:
164,224,27399,2,0,P|112:196|176:152,1,155,0|0,1:0|0:0,0:0:0:0:
248,148,27809,2,0,L|348:152,1,77.5,0|0,1:0|0:0,0:0:0:0:
184,152,28081,6,0,L|152:56,1,77.5,0|0,0:0|0:0,0:0:0:0:
300,200,28354,2,0,L|452:120,2,155,0|0|0,1:0|1:0|1:0,0:0:0:0:
216,204,29036,1,0,0:0:0:0:
72,208,29172,6,0,P|72:156|180:100,1,155,0|0,1:0|1:0,0:0:0:0:
224,132,29581,2,0,P|152:104|140:24,1,155,0|0,1:0|0:0,0:0:0:0:
224,132,29990,1,0,0:0:0:0:
436,208,30127,6,0,P|476:172|408:112,1,155,0|0,1:0|1:0,0:0:0:0:
204,224,30536,2,0,L|148:144,1,77.5,0|0,1:0|1:0,0:0:0:0:
244,140,30809,2,0,L|320:120,1,77.5,0|0,1:0|0:0,0:0:0:0:
180,120,31081,2,0,L|128:44,1,77.5,0|0,0:0|0:0,0:0:0:0:
356,200,31354,6,0,L|508:156,2,155,2|0|2,3:0|0:0|3:0,0:0:0:0:
200,208,32172,2,0,L|124:136,1,77.5,0|0,0:0|0:0,0:0:0:0:
284,224,32445,5,0,0:0:0:0:
343,185,32581,1,0,2:0:0:0:
360,164,32718,1,0,0:0:0:0:
144,224,32990,1,0,0:0:0:0:
89,183,33127,1,0,0:0:0:0:
74,137,33263,1,0,0:0:0:0:
288,236,33536,6,0,P|352:200|336:116,1,155,2|0,3:0|0:0,0:0:0:0:
194,122,34081,2,0,L|369:131,1,155
104,209,34627,5,0,1:0:0:0:
51,182,34763,1,0,0:0:0:0:
31,136,34899,1,0,1:0:0:0:
248,228,35172,2,0,P|256:144|196:112,1,155,0|0,1:0|1:0,0:0:0:0:
124,112,35581,1,0,0:0:0:0:
344,216,35718,6,0,P|392:192|320:144,1,155,4|0,1:0|1:0,0:0:0:0:
260,128,36127,2,0,L|348:128,1,77.5,0|0,0:0|1:0,0:0:0:0:
415,128,36399,2,0,L|327:128,1,77.5,0|0,1:0|0:0,0:0:0:0:
120,208,36809,6,0,L|84:108,1,77.5,0|0,1:0|0:0,0:0:0:0:
180,124,37081,2,0,L|204:48,1,77.5,0|0,1:0|0:0,0:0:0:0:
116,112,37354,2,0,L|144:16,1,77.5,0|0,1:0|0:0,0:0:0:0:
280,204,37627,2,0,L|304:120,1,77.5,0|0,1:0|0:0,0:0:0:0:
84,200,37899,6,0,L|12:144,2,77.5,4|0|0,1:0|0:0|1:0,0:0:0:0:
224,232,38309,2,0,L|328:232,1,77.5,0|0,1:0|0:0,0:0:0:0:
160,224,38581,2,0,P|112:184|176:136,1,155,0|0,1:0|0:0,0:0:0:0:
384,200,38990,6,0,L|472:200,2,77.5,4|0|0,1:0|0:0|1:0,0:0:0:0:
240,200,39399,2,0,L|212:108,1,77.5,0|0,1:0|0:0,0:0:0:0:
260,108,39604,1,0,0:0:0:0:
300,92,39672,1,0,1:0:0:0:
384,192,39809,2,0,L|400:108,1,77.5,0|0,0:0|1:0,0:0:0:0:
184,208,40081,6,0,P|136:188|200:112,1,155,4|0,1:0|1:0,0:0:0:0:
240,104,40490,1,0,0:0:0:0:
316,96,40627,1,0,0:0:0:0:
180,112,40763,2,0,L|160:36,1,77.5,0|0,1:0|0:0,0:0:0:0:
242,21,41036,1,0,1:0:0:0:
381,27,41172,6,0,L|282:27,1,77.5
226,98,41445,2,0,L|130:102,1,77.5,0|0,1:0|0:0,0:0:0:0:
289,193,41718,2,0,L|393:193,1,77.5,0|0,0:0|0:0,0:0:0:0:
289,193,41990,2,0,L|193:193,1,77.5,0|0,1:0|0:0,0:0:0:0:
70,231,42263,6,4,L|73:133,1,77.5,4|0,1:0|0:0,0:0:0:0:
152,152,42536,2,0,L|260:156,2,77.5,0|0|0,1:0|0:0|1:0,0:0:0:0:
20,152,42945,2,0,L|40:52,1,77.5,0|0,1:0|1:0,0:0:0:0:
120,72,43218,1,0,0:0:0:0:
336,204,43354,6,0,L|380:128,1,77.5,4|0,1:0|0:0,0:0:0:0:
232,276,43627,1,0,1:0:0:0:
198,259,43695,1,0,0:0:0:0:
184,224,43763,1,0,0:0:0:0:
197,188,43831,1,0,0:0:0:0:
230,171,43899,1,0,1:0:0:0:
299,145,44036,1,0,0:0:0:0:
328,64,44172,1,0,1:0:0:0:
252,28,44308,1,0,0:0:0:0:
24,276,44445,6,0,P|12:176|368:112,1,542.5,4|0,1:0|0:0,0:0:0:0:
148,328,45536,6,0,P|108:288|184:232,1,155,4|0,1:0|1:0,0:0:0:0:
312,228,45945,1,0,0:0:0:0:
348,148,46081,2,0,L|256:148,1,77.5,0|0,1:0|0:0,0:0:0:0:
120,148,46354,2,0,L|164:80,1,77.5,0|0,1:0|1:0,0:0:0:0:
364,76,46627,6,0,B|448:76|448:76|448:152,1,155,4|0,1:0|1:0,0:0:0:0:
364,224,47036,1,0,1:0:0:0:
216,320,47172,2,0,L|132:320,1,77.5,0|0,0:0|1:0,0:0:0:0:
216,244,47445,1,0,1:0:0:0:
324,240,47581,1,0,1:0:0:0:
256,240,47718,5,0,0:0:0:0:
188,240,47854,1,0,1:0:0:0:
120,240,47990,1,4,1:0:0:0:
324,132,48263,1,0,0:0:0:0:
404,256,48399,1,0,0:0:0:0:
440,256,48467,1,0,0:0:0:0:
472,256,48535,1,0,0:0:0:0:
236,240,48672,6,0,P|205:161|305:71,1,232.5,4|0,1:0|1:0,0:0:0:0:
164,328,49354,2,0,L|96:288,1,77.5,0|0,0:0|0:0,0:0:0:0:
164,256,49627,1,0,1:0:0:0:
368,252,49763,6,0,P|452:232|368:168,1,232.5,4|0,1:0|1:0,0:0:0:0:
214,172,50445,2,0,L|136:172,1,77.5,0|0,1:0|0:0,0:0:0:0:
136,96,50718,1,0,1:0:0:0:
336,296,50854,6,0,B|416:296|416:296|492:248,1,155,4|0,1:0|0:0,0:0:0:0:
400,172,51263,2,0,L|300:124,1,77.5,0|0,1:0|0:0,0:0:0:0:
248,140,51536,2,0,L|175:182,2,77.5,0|0|0,1:0|0:0|1:0,0:0:0:0:
452,228,51945,5,4,1:0:0:0:
296,224,52218,2,0,L|236:272,1,77.5,0|0,0:0|1:0,0:0:0:0:
364,168,52627,2,0,L|380:88,1,77.5,0|0,0:0|0:0,0:0:0:0:
456,160,52899,2,0,L|428:84,1,77.5,0|0,1:0|0:0,0:0:0:0:
212,276,53172,6,0,L|140:332,1,77.5,4|0,1:0|0:0,0:0:0:0:
72,204,53445,2,0,L|160:148,1,77.5,0|0,1:0|0:0,0:0:0:0:
276,56,53718,2,0,L|408:152,1,155,0|0,0:0|1:0,0:0:0:0:
264,308,54127,6,0,L|124:208,1,155
264,192,54536,2,0,L|312:132,1,77.5,0|0,1:0|0:0,0:0:0:0:
188,116,54809,2,0,L|92:116,2,77.5,0|0|0,1:0|0:0|1:0,0:0:0:0:
264,120,55218,1,0,0:0:0:0:
56,328,55354,6,0,L|88:256,1,77.5,4|0,1:0|0:0,0:0:0:0:
228,244,55627,1,0,1:0:0:0:
312,240,55763,2,0,B|392:240|392:240|460:184,1,155,0|0,0:0|0:0,0:0:0:0:
224,160,56309,6,0,P|132:172|116:320,1,232.5,0|0,0:0|1:0,0:0:0:0:
156,316,56854,1,0,0:0:0:0:
296,316,56990,1,0,1:0:0:0:
376,312,57127,2,0,L|424:248,1,77.5,0|0,0:0|1:0,0:0:0:0:
188,240,57399,6,0,P|157:161|257:71,1,232.5,4|0,1:0|1:0,0:0:0:0:
408,80,58081,2,0,L|468:128,1,77.5,0|0,1:0|0:0,0:0:0:0:
408,80,58354,1,0,1:0:0:0:
188,256,58490,1,4,1:0:0:0:
96,248,58627,6,0,P|76:184|160:128,1,155,0|0,0:0|1:0,0:0:0:0:
288,56,59172,1,0,1:0:0:0:
368,300,59309,1,0,1:0:0:0:
330,300,59377,1,0,0:0:0:0:
291,300,59445,1,0,1:0:0:0:
72,88,59581,6,0,P|24:176|104:272,1,232.5,4|0,1:0|0:0,0:0:0:0:
252,328,60263,2,0,P|192:292|160:272,1,77.5,0|0,1:0|1:0,0:0:0:0:
260,200,60536,2,0,L|344:244,1,77.5
108,192,60809,6,0,P|52:148|116:96,1,155,0|0,0:0|1:0,0:0:0:0:
316,56,61354,1,0,0:0:0:0:
68,52,61627,1,0,1:0:0:0:
428,340,61899,6,0,P|480:264|452:200,1,155,4|0,1:0|1:0,0:0:0:0:
412,160,62309,1,0,0:0:0:0:
348,160,62445,1,0,0:0:0:0:
132,160,62718,2,0,L|88:96,1,77.5,0|0,1:0|0:0,0:0:0:0:
236,296,62990,5,4,1:0:0:0:
300,296,63126,1,0,0:0:0:0:
364,296,63262,1,0,1:0:0:0:
300,224,63399,1,0,1:0:0:0:
156,224,63536,2,0,P|84:152|112:100,1,155,0|0,0:0|1:0,0:0:0:0:
176,96,63945,1,0,1:0:0:0:
388,152,64081,6,0,L|432:76,1,77.5,4|0,1:0|0:0,0:0:0:0:
344,56,64354,1,0,1:0:0:0:
196,312,64490,2,0,L|152:236,1,77.5,0|0,1:0|0:0,0:0:0:0:
312,236,64763,2,0,P|384:168|356:100,1,155,0|0,1:0|1:0,0:0:0:0:
176,152,65172,6,0,L|20:152,1,155,4|0,1:0|0:0,0:0:0:0:
100,80,65581,1,0,1:0:0:0:
180,80,65718,1,0,1:0:0:0:
384,316,65854,1,0,0:0:0:0:
429,253,65990,1,0,0:0:0:0:
433,177,66126,1,0,0:0:0:0:
220,320,66263,6,0,P|120:300|72:180,1,232.5,4|0,1:0|0:0,0:0:0:0:
180,92,66809,2,0,L|263:140,1,77.5,0|0,0:0|0:0,0:0:0:0:
324,136,67081,2,0,L|412:136,1,77.5,0|0,1:0|0:0,0:0:0:0:
164,332,67354,6,0,P|112:272|176:224,1,155,4|0,1:0|0:0,0:0:0:0:
232,224,67763,1,0,0:0:0:0:
380,219,67899,2,0,P|396:140|363:72,1,155,0|0,1:0|0:0,0:0:0:0:
208,47,68309,6,0,L|54:117,2,155,2|2|2,3:0|3:0|3:0,0:0:0:0:
288,324,68990,2,0,L|357:364,1,77.5,0|0,1:0|0:0,0:0:0:0:
288,248,69263,2,0,L|215:206,1,77.5,0|0,0:0|0:0,0:0:0:0:
372,336,69536,6,0,P|424:276|360:228,1,155,4|0,1:0|0:0,0:0:0:0:
304,228,69945,1,0,0:0:0:0:
156,224,70081,2,0,P|88:180|64:108,1,155,0|0,1:0|0:0,0:0:0:0:
215,59,70490,6,0,L|377:60,2,155,2|2|2,3:0|3:0|3:0,0:0:0:0:
65,235,71172,2,0,L|58:153,1,77.5,0|0,1:0|0:0,0:0:0:0:
140,140,71445,2,0,L|140:48,1,77.5,0|0,0:0|0:0,0:0:0:0:
288,328,71718,6,0,L|444:328,1,155,4|0,1:0|0:0,0:0:0:0:
376,252,72127,1,0,0:0:0:0:
228,248,72263,2,0,P|184:172|224:156,1,155,0|0,1:0|0:0,0:0:0:0:
367,89,72672,6,0,L|178:87,2,155,2|2|2,3:0|3:0|3:0,0:0:0:0:
296,304,73354,2,0,L|365:344,1,77.5,0|0,1:0|0:0,0:0:0:0:
296,228,73627,2,0,L|223:186,1,77.5,0|0,0:0|0:0,0:0:0:0:
376,152,73899,6,0,P|432:88|400:40,1,155,4|0,1:0|1:0,0:0:0:0:
324,40,74309,1,0,0:0:0:0:
176,300,74445,2,0,L|16:300,1,155,0|0,1:0|0:0,0:0:0:0:
88,224,74854,1,0,1:0:0:0:
196,220,74990,5,0,1:0:0:0:
344,216,75127,2,0,P|373:127|311:120,1,155,0|0,0:0|1:0,0:0:0:0:
264,112,75536,2,0,L|216:44,1,77.5,0|0,1:0|0:0,0:0:0:0:
72,112,75809,2,0,L|120:44,1,77.5,0|0,1:0|1:0,0:0:0:0:
316,320,76081,6,0,P|428:268|388:176,1,232.5,4|0,1:0|0:0,0:0:0:0:
324,188,76627,2,0,P|240:176|216:112,1,155,0|0,1:0|1:0,0:0:0:0:
434,51,77172,6,0,L|251:52,1,155
206,54,77581,2,0,P|164:137|225:187,1,155
276,188,77990,2,0,L|370:187,1,77.5
204,181,78263,6,0,L|48:181,1,155,0|0,1:0|1:0,0:0:0:0:
128,96,78672,1,0,1:0:0:0:
276,312,78809,2,0,P|292:216|240:184,1,155,0|0,0:0|1:0,0:0:0:0:
176,184,79218,1,0,0:0:0:0:
376,196,79354,6,0,P|440:148|464:72,1,155,4|0,1:0|0:0,0:0:0:0:
316,292,79763,2,0,L|156:260,1,155,0|0,1:0|0:0,0:0:0:0:
312,216,80172,2,0,L|404:216,1,77.5,0|0,1:0|1:0,0:0:0:0:
248,196,80445,5,0,0:0:0:0:
176,184,80581,1,0,0:0:0:0:
248,196,80718,1,0,1:0:0:0:
224,136,80853,1,0,0:0:0:0:
160,120,80990,1,0,1:0:0:0:
224,136,81126,1,0,1:0:0:0:
360,312,81263,2,0,L|336:232,1,77.5,0|0,1:0|0:0,0:0:0:0:
200,244,81536,6,0,P|164:156|212:140,1,155,0|0,1:0|1:0,0:0:0:0:
344,236,81945,2,0,P|380:148|332:132,1,155,0|0,1:0|1:0,0:0:0:0:
200,123,82354,2,0,L|124:168,1,77.5,0|0,1:0|0:0,0:0:0:0:
284,244,82627,6,0,P|320:156|272:140,1,155,4|0,1:0|1:0,0:0:0:0:
140,236,83036,2,0,P|104:148|152:132,1,155,0|0,1:0|0:0,0:0:0:0:
284,123,83445,2,0,L|360:168,1,77.5,0|0,1:0|0:0,0:0:0:0:
148,340,83718,6,0,P|44:276|40:244,1,155,0|0,1:0|0:0,0:0:0:0:
188,204,84127,2,0,L|348:204,1,155,0|0,1:0|0:0,0:0:0:0:
192,112,84536,2,0,L|112:112,1,77.5,0|0,1:0|0:0,0:0:0:0:
316,328,84809,6,0,P|345:89|251:125,1,465,4|0,1:0|0:0,0:0:0:0:
240,128,85695,1,0,0:0:0:0:
200,152,85763,1,0,0:0:0:0:
408,164,85899,1,4,1:0:0:0:
256,192,86036,12,0,86581,0:0:0:0:
