osu file format v14

[General]
AudioFilename: audio.MP3
AudioLeadIn: 0
PreviewTime: 48253
Countdown: 0
SampleSet: Soft
StackLeniency: 0.7
Mode: 2
LetterboxInBreaks: 0
WidescreenStoryboard: 0

[Editor]
Bookmarks: 45526
DistanceSpacing: 1.1
BeatDivisor: 2
GridSize: 8
TimelineZoom: 2

[Metadata]
Title:Dried Up Youthful Fame (TV Size)
TitleUnicode:Dried Up Youthful Fame (TV Size)
Artist:OLDCODEX
ArtistUnicode:OLDCODEX
Creator:RoseusJaeger
Version:Collab Cup
Source:Free!-Eternal Summer-
Tags:iwatobi swim club season 2 kyoani kyoto animation フリー エターナル・サマー Ascendance Paranoid Grapes wonjae Sanyi F D Flourite
BeatmapID:1154581
BeatmapSetID:544889

[Difficulty]
HPDrainRate:3
CircleSize:2.5
OverallDifficulty:6
ApproachRate:6
SliderMultiplier:1.15
SliderTickRate:1

[Events]
//Background and Video events
0,0,"1 BG 111.jpg",0,0
//Break Periods
//Storyboard Layer 0 (Background)
//Storyboard Layer 1 (Fail)
//Storyboard Layer 2 (Pass)
//Storyboard Layer 3 (Foreground)
//Storyboard Sound Samples

[TimingPoints]
809,272.727272727273,4,2,1,50,1,0
48672,-100,4,2,1,75,0,1
56445,-100,4,2,1,75,0,0
57399,-100,4,2,1,75,0,1
66263,-100,4,2,1,75,0,0

[Colours]
Combo1 : 251,74,220
Combo2 : 4,255,4
Combo3 : 66,151,255
Combo4 : 253,57,57
Combo5 : 255,205,53

[HitObjects]
296,280,809,6,0,P|385:227|278:63,1,345,2|0,0:0|0:0,0:0:0:0:
152,255,1899,2,0,P|60:200|176:55,1,345,2|0,0:0|0:0,0:0:0:0:
305,201,2990,6,0,P|372:145|279:34,1,230,2|0,0:0|0:0,0:0:0:0:
184,204,3809,1,2,0:0:0:0:
332,216,4081,1,0,0:0:0:0:
400,168,4353,1,0,0:0:0:0:
392,72,4626,1,4,1:0:0:0:
313,28,4899,1,4,1:0:0:0:
168,208,5172,6,0,P|88:144|192:64,1,230,4|0,1:0|1:0,0:0:0:0:
280,208,5990,1,0,1:0:0:0:
416,224,6263,2,0,P|440:144|336:56,1,230,4|0,1:0|1:0,0:0:0:0:
216,80,7081,1,0,1:0:0:0:
361,268,7354,6,0,P|415:173|352:84,1,230,4|0,1:0|1:0,0:0:0:0:
216,80,8172,1,0,1:0:0:0:
80,272,8445,2,0,P|24:216|16:144,1,115,0|0,1:0|1:0,0:0:0:0:
144,136,8990,2,0,L|284:136,1,115,0|0,1:0|0:0,0:0:0:0:
392,240,9536,6,0,L|336:104,1,115,4|0,1:0|1:0,0:0:0:0:
212,216,10081,1,0,0:0:0:0:
173,160,10217,1,0,0:0:0:0:
136,104,10353,1,0,1:0:0:0:
288,116,10627,2,0,L|456:44,2,172.5,0|0|0,0:0|0:0|1:0,0:0:0:0:
148,224,11718,6,0,L|116:80,1,115,4|0,1:0|1:0,0:0:0:0:
256,208,12263,1,0,0:0:0:0:
288,152,12399,1,0,0:0:0:0:
320,96,12535,1,0,1:0:0:0:
184,264,12809,2,0,P|141:228|192:144,1,172.5,6|2,1:0|0:0,0:0:0:0:
328,120,13627,1,2,0:0:0:0:
168,220,13899,6,0,P|100:172|204:80,1,230,4|0,1:0|0:0,0:0:0:0:
240,64,14581,1,0,0:0:0:0:
376,216,14854,2,0,P|440:136|384:88,1,172.5,0|0,0:0|1:0,0:0:0:0:
288,136,15536,2,0,L|160:144,1,115,0|0,0:0|1:0,0:0:0:0:
288,136,16081,6,0,L|416:136,1,115,4|0,1:0|1:0,0:0:0:0:
344,88,16490,2,0,L|224:88,1,115,0|0,1:0|1:0,0:0:0:0:
112,208,17036,2,0,P|128:128|208:104,1,172.5,0|0,1:0|1:0,0:0:0:0:
336,208,17718,2,0,L|400:64,1,115,0|0,1:0|1:0,0:0:0:0:
244,204,18263,5,4,1:0:0:0:
128,136,18535,1,0,1:0:0:0:
193,134,18672,2,0,P|201:86|169:30,1,115,0|0,1:0|1:0,0:0:0:0:
56,48,19218,1,0,0:0:0:0:
232,16,19627,2,0,L|364:108,2,115,0|0|0,1:0|1:0|1:0,0:0:0:0:
101,194,20445,6,0,P|181:149|256:109,2,172.5,4|0|0,1:0|0:0|0:0,0:0:0:0:
224,110,21536,2,0,L|345:172,1,115
200,200,22081,2,0,L|144:80,1,115,0|0,0:0|0:0,0:0:0:0:
308,120,22627,6,4,L|328:44,1,57.5,4|0,0:0|0:0,0:0:0:0:
192,176,23036,2,0,L|120:224,2,57.5,0|0|0,0:0|0:0|1:0,0:0:0:0:
324,224,23581,6,0,P|356:172|288:132,1,115,0|0,0:0|0:0,0:0:0:0:
260,132,23990,2,0,L|116:80,2,115,0|0|0,1:0|0:0|1:0,0:0:0:0:
384,204,24809,6,0,L|488:104,1,115,0|0,1:0|1:0,0:0:0:0:
404,96,25218,1,0,0:0:0:0:
280,144,25490,1,0,0:0:0:0:
404,96,25763,6,0,P|460:145|460:195,1,115,0|0,0:0|1:0,0:0:0:0:
399,207,26172,1,0,0:0:0:0:
264,208,26445,1,0,1:0:0:0:
120,116,26718,1,0,1:0:0:0:
240,208,26990,6,0,L|336:96,1,115,4|0,1:0|1:0,0:0:0:0:
248,172,27399,2,0,L|120:96,2,115,0|0|0,1:0|0:0|0:0,0:0:0:0:
304,204,28081,5,0,0:0:0:0:
184,212,28354,2,0,L|84:144,2,115,0|0|0,1:0|1:0|1:0,0:0:0:0:
320,220,29172,6,0,L|372:96,1,115,0|0,1:0|1:0,0:0:0:0:
304,96,29581,2,0,L|180:32,1,115,0|0,1:0|1:0,0:0:0:0:
340,340,30127,2,0,P|440:216|312:36,1,402.5,0|0,1:0|0:0,0:0:0:0:
184,216,31354,6,0,P|176:160|208:80,1,115,2|0,3:0|0:0,0:0:0:0:
328,116,31899,1,2,3:0:0:0:
200,48,32172,1,0,0:0:0:0:
64,200,32445,2,0,L|168:120,1,115,0|0,0:0|0:0,0:0:0:0:
280,136,32990,2,0,L|200:48,1,115,0|0,0:0|0:0,0:0:0:0:
328,116,33536,6,0,L|432:28,2,115,2|0|2,3:0|0:0|3:0,0:0:0:0:
232,180,34354,1,0,0:0:0:0:
96,312,34627,2,0,P|51:283|17:184,1,115,0|0,1:0|0:0,0:0:0:0:
148,220,35172,2,0,L|300:164,1,115,0|0,1:0|1:0,0:0:0:0:
396,212,35718,6,0,P|416:156|352:120,1,115,4|0,1:0|1:0,0:0:0:0:
314,107,36127,2,0,L|418:31,2,115,0|0|0,1:0|0:0|0:0,0:0:0:0:
236,208,36809,5,0,1:0:0:0:
152,152,37081,1,0,1:0:0:0:
152,152,37354,1,0,1:0:0:0:
236,212,37627,1,0,1:0:0:0:
376,232,37899,6,0,L|408:104,1,115,4|0,1:0|1:0,0:0:0:0:
344,104,38309,1,0,1:0:0:0:
208,116,38581,2,0,L|176:24,1,57.5,0|0,1:0|1:0,0:0:0:0:
328,144,38990,6,0,L|372:12,1,115,4|0,1:0|1:0,0:0:0:0:
296,56,39399,1,0,1:0:0:0:
232,208,39536,2,0,P|192:168|152:104,1,115,0|0,0:0|0:0,0:0:0:0:
296,88,40081,5,4,1:0:0:0:
432,196,40354,2,0,L|448:76,1,115,0|0,1:0|0:0,0:0:0:0:
380,88,40763,2,0,L|248:16,1,115,0|0,1:0|1:0,0:0:0:0:
208,200,41172,5,0,1:0:0:0:
104,220,41445,1,0,1:0:0:0:
208,200,41718,1,0,0:0:0:0:
312,172,41990,1,0,1:0:0:0:
176,148,42263,5,4,1:0:0:0:
56,144,42536,2,0,P|32:88|108:60,1,115,0|0,1:0|1:0,0:0:0:0:
137,54,42945,2,0,L|286:51,1,115,0|0,1:0|1:0,0:0:0:0:
324,88,43354,5,4,1:0:0:0:
192,56,43627,2,0,L|72:136,2,115,0|0|0,1:0|1:0|1:0,0:0:0:0:
328,96,44445,6,0,P|424:188|332:360,1,345,4|0,1:0|0:0,0:0:0:0:
212,308,45536,2,0,L|24:316,2,172.5,4|0|0,1:0|0:0|1:0,0:0:0:0:
340,256,46627,6,0,P|408:168|344:92,1,172.5,4|0,1:0|1:0,0:0:0:0:
192,56,47445,2,0,L|68:72,1,115,0|0,1:0|0:0,0:0:0:0:
316,212,48263,2,0,L|352:152,1,57.5,0|4,0:0|1:0,0:0:0:0:
472,168,48672,5,0,0:0:0:0:
292,116,49081,1,0,1:0:0:0:
156,144,49354,2,0,P|104:216|184:288,1,172.5,0|4,0:0|1:0,0:0:0:0:
348,372,50172,1,0,1:0:0:0:
224,312,50445,2,0,L|36:328,1,172.5,0|4,1:0|1:0,0:0:0:0:
232,220,51263,6,0,L|356:232,1,115,0|0,1:0|1:0,0:0:0:0:
404,272,51672,1,0,0:0:0:0:
272,200,51945,2,0,P|232:124|296:52,1,172.5,4|0,1:0|1:0,0:0:0:0:
400,80,52627,2,0,L|392:204,1,115,0|0,0:0|1:0,0:0:0:0:
260,236,53172,6,0,P|172:256|84:228,1,172.5,4|0,1:0|0:0,0:0:0:0:
232,236,53854,1,0,0:0:0:0:
348,160,54127,2,0,P|384:96|332:24,1,172.5,0|0,0:0|1:0,0:0:0:0:
196,4,54809,2,0,L|64:12,1,115,0|0,1:0|1:0,0:0:0:0:
212,56,55354,6,0,L|396:80,1,172.5,4|0,1:0|0:0,0:0:0:0:
252,120,56036,1,0,0:0:0:0:
384,164,56309,1,0,0:0:0:0:
72,308,56990,2,0,L|168:288,1,57.5,0|4,1:0|1:0,0:0:0:0:
264,296,57399,6,0,P|336:248|320:168,1,172.5
192,232,58081,2,0,L|380:256,2,172.5,0|4|0,1:0|1:0|1:0,0:0:0:0:
56,192,59172,2,0,B|24:112|24:112|64:16,1,172.5,0|4,1:0|1:0,0:0:0:0:
128,16,59718,5,0,0:0:0:0:
248,88,59990,2,0,L|392:72,1,115,0|0,1:0|1:0,0:0:0:0:
176,168,60672,2,0,P|128:232|200:320,1,172.5,4|0,1:0|1:0,0:0:0:0:
296,360,61354,2,0,L|440:352,1,115,0|0,0:0|1:0,0:0:0:0:
264,208,61899,6,0,P|184:192|144:48,1,230,4|0,1:0|1:0,1:0:0:0:
360,168,62990,2,0,L|96:144,1,230,4|0,1:0|0:0,0:0:0:0:
392,72,64081,2,0,L|360:320,1,230,4|0,1:0|0:0,0:0:0:0:
104,208,65172,2,0,L|280:224,1,172.5,4|0,1:0|1:0,0:0:0:0:
376,320,65854,1,0,0:0:0:0:
168,320,66263,6,0,P|112:256|192:120,1,230,4|0,1:0|0:0,0:0:0:0:
424,64,67354,2,0,L|176:72,1,230,4|0,1:0|1:0,0:0:0:0:
48,248,68445,2,0,L|296:232,1,230,0|0,0:0|1:0,0:0:0:0:
472,352,69536,6,0,P|512:288|432:160,1,230,4|0,1:0|1:0,0:0:0:0:
280,120,70490,2,0,L|128:128,2,115,2|2|2,3:0|3:0|3:0,0:0:0:0:
336,112,71172,1,0,1:0:0:0:
112,64,71718,6,0,P|64:144|160:232,1,230,4|0,1:0|1:0,0:0:0:0:
360,312,72809,2,0,L|120:320,1,230,0|0,0:0|1:0,0:0:0:0:
368,240,73899,2,0,P|416:192|328:80,1,230,4|0,1:0|1:0,0:0:0:0:
88,104,74990,5,0,1:0:0:0:
328,176,75536,2,0,L|320:304,1,115,0|0,1:0|1:0,0:0:0:0:
208,344,76081,6,0,P|160:296|248:160,1,230,4|0,1:0|1:0,0:0:0:0:
328,120,76899,1,0,1:0:0:0:
440,40,77172,2,0,L|184:48,1,230,0|0,1:0|0:0,0:0:0:0:
40,232,78263,6,0,L|280:216,1,230,0|0,1:0|0:0,0:0:0:0:
496,336,79354,2,0,L|320:328,2,172.5,4|0|0,1:0|1:0|1:0,0:0:0:0:
392,256,80445,6,0,L|136:272,1,230,4|0,1:0|1:0,0:0:0:0:
8,72,81536,2,0,L|256:96,1,230,0|0,1:0|0:0,0:0:0:0:
352,128,82354,1,0,1:0:0:0:
472,184,82627,6,0,L|456:328,1,115,4|0,1:0|1:0,0:0:0:0:
336,264,83172,2,0,L|328:392,1,115,0|0,0:0|1:0,0:0:0:0:
200,304,83718,2,0,L|-16:320,2,172.5,0|0|0,1:0|1:0|1:0,0:0:0:0:
344,344,84809,6,0,P|448:296|336:40,1,460,4|4,1:0|1:0,0:0:0:0:
