osu file format v14

[General]
AudioFilename: audio.mp3
AudioLeadIn: 0
PreviewTime: 18650
Countdown: 0
SampleSet: Soft
StackLeniency: 0.7
Mode: 2
LetterboxInBreaks: 0
WidescreenStoryboard: 1

[Editor]
Bookmarks: 3255,3749,4144,4538,4834,43519,44308
DistanceSpacing: 2.7
BeatDivisor: 8
GridSize: 4
TimelineZoom: 2.5

[Metadata]
Title:Deal with (TV Size)
TitleUnicode:Deal with (TV Size)
Artist:OLDCODEX
ArtistUnicode:OLDCODEX
Creator:rew0825
Version:Vampire
Source:サーヴァンプ
Tags:Servamp Anime OP Opening Japanese J-Rock JRock Rock J-Metal JMetal Metal Male Vocal Vocals YORKE. Ta_2 鈴木達央 Tatsuhisa Suzuki 小山寿 Hisashi Koyama
BeatmapID:3361585
BeatmapSetID:1646898

[Difficulty]
HPDrainRate:6
CircleSize:4.3
OverallDifficulty:9.4
ApproachRate:9.4
SliderMultiplier:2.75
SliderTickRate:2

[Events]
//Background and Video events
0,0,"BG.jpg",0,0
//Break Periods
//Storyboard Layer 0 (Background)
//Storyboard Layer 1 (Fail)
//Storyboard Layer 2 (Pass)
//Storyboard Layer 3 (Foreground)
//Storyboard Layer 4 (Overlay)
//Storyboard Sound Samples

[TimingPoints]
98,394.736842105263,4,2,1,60,1,0
6413,-100,4,2,1,65,0,0
19045,-100,4,2,1,70,0,1
31676,-100,4,2,1,65,0,0
37992,-100,4,2,1,70,0,1
42729,-100,4,2,1,70,0,0
42828,-100,4,2,1,65,0,0
50722,-100,4,2,1,40,0,0
51216,-100,4,2,1,65,0,0
56347,-37.037037037037,4,2,1,65,0,0
56644,-100,4,2,1,65,0,0
57926,-100,4,2,1,45,0,0
60097,-100,4,2,1,65,0,0
60887,-100,4,2,1,45,0,0
61479,-100,4,2,1,65,0,0
61874,-100,4,2,1,45,0,0
62466,-100,4,2,1,70,0,0
63255,-100,4,2,1,75,0,1
63354,-100,4,2,1,75,0,0
74900,-100,4,2,1,55,0,0
74999,-100,4,2,1,75,0,0
88519,-100,4,2,1,75,0,0
88617,-100,4,2,1,20,0,0

[Colours]
Combo1 : 226,105,84
Combo2 : 102,152,227
Combo3 : 216,162,101
Combo4 : 222,238,106
Combo5 : 220,124,220

[HitObjects]
152,192,98,5,12,2:3:0:0:
233,192,196,1,12,2:3:0:0:
151,192,295,1,12,2:3:0:0:
337,192,394,1,12,2:3:0:0:
172,192,591,1,12,2:3:0:0:
337,192,788,1,12,2:3:0:0:
172,192,986,1,12,2:3:0:0:
356,192,1084,1,12,2:3:0:0:
80,192,3058,6,0,L|77:122,1,68.75,2|0,0:0|0:0,0:0:0:0:
277,123,3255,5,2,1:2:0:0:
334,123,3321,1,0,1:2:0:0:
277,123,3387,1,0,1:2:0:0:
220,123,3453,1,0,1:2:0:0:
494,123,3650,1,8,0:0:0:0:
437,123,3716,1,8,0:0:0:0:
494,123,3782,1,8,0:0:0:0:
437,123,3847,1,8,0:0:0:0:
161,123,4045,5,0,1:2:0:0:
104,123,4111,1,0,1:2:0:0:
48,123,4176,1,0,1:2:0:0:
105,123,4242,1,0,1:2:0:0:
381,123,4440,1,8,0:0:0:0:
331,123,4505,1,8,0:0:0:0:
174,123,4571,1,8,2:3:0:0:
223,123,4637,1,8,2:3:0:0:
381,123,4703,1,4,2:3:0:0:
331,123,4769,1,4,2:3:0:0:
163,123,4834,5,2,1:2:0:0:
430,123,5229,2,0,L|432:197,1,68.75,2|0,0:0|0:0,0:0:0:0:
335,191,5426,2,0,L|333:265,1,68.75,2|0,0:0|0:0,0:0:0:0:
145,259,5624,6,0,L|143:333,1,68.75,2|0,0:0|0:0,0:0:0:0:
343,327,5821,2,0,L|345:253,1,68.75,2|0,0:0|0:0,0:0:0:0:
121,258,6019,2,0,L|52:258,1,68.75,14|0,2:3|0:0,0:0:0:0:
286,258,6216,2,0,L|376:257,1,68.75,2|0,0:0|0:0,0:0:0:0:
92,257,6413,6,0,L|90:189,1,68.75,6|0,1:2|0:0,0:0:0:0:
173,188,6611,1,0,1:2:0:0:
357,188,6709,2,0,L|216:188,1,137.5,2|0,1:2|0:0,0:0:0:0:
136,188,7005,2,0,L|134:263,1,68.75,2|0,1:2|0:0,0:0:0:0:
368,258,7203,5,8,0:0:0:0:
449,258,7301,2,0,L|309:258,1,137.5,2|0,0:0|0:0,0:0:0:0:
222,257,7597,2,0,L|226:184,1,68.75,2|0,0:0|0:0,0:0:0:0:
316,188,7795,1,0,0:0:0:0:
462,188,7844,1,2,0:0:0:0:
472,219,7894,1,2,0:0:0:0:
462,246,7943,1,2,0:0:0:0:
294,246,7992,6,0,L|291:315,1,68.75,6|0,1:2|0:0,0:0:0:0:
381,314,8190,1,0,1:2:0:0:
196,314,8288,2,0,P|168:262|206:201,1,137.5,2|0,1:2|0:0,0:0:0:0:
302,200,8584,2,0,L|304:128,1,68.75,2|0,1:2|0:0,0:0:0:0:
63,245,8782,5,8,0:0:0:0:
144,245,8880,2,0,L|146:104,1,137.5,2|0,0:0|0:0,0:0:0:0:
242,107,9176,2,0,L|244:31,1,68.75,2|0,0:0|0:0,0:0:0:0:
341,38,9374,2,0,L|343:114,1,68.75,2|0,0:0|0:0,0:0:0:0:
142,106,9571,6,0,L|141:180,1,68.75,6|0,1:2|0:0,0:0:0:0:
224,174,9769,1,0,1:2:0:0:
408,174,9867,2,0,L|269:173,1,137.5,2|0,1:2|0:0,0:0:0:0:
70,173,10163,2,0,L|68:250,1,68.75,10|0,0:0|0:0,0:0:0:0:
256,241,10361,6,0,L|259:169,1,68.75,2|0,1:2|0:0,0:0:0:0:
176,172,10558,1,0,1:2:0:0:
362,172,10657,2,0,L|213:171,1,137.5,2|0,1:2|0:0,0:0:0:0:
127,171,10953,2,0,L|129:102,1,68.75,2|0,1:2|0:0,0:0:0:0:
329,102,11150,6,0,L|331:174,1,68.75,10|0,0:0|0:0,0:0:0:0:
248,170,11347,1,0,1:2:0:0:
61,170,11446,2,0,L|214:171,1,137.5,2|0,1:2|0:0,0:0:0:0:
295,170,11742,2,0,L|298:241,1,68.75,2|0,1:2|0:0,0:0:0:0:
95,238,11940,6,0,L|92:308,1,68.75,8|0,0:0|0:0,0:0:0:0:
175,307,12137,1,0,1:2:0:0:
361,307,12236,2,0,L|213:307,1,137.5,2|0,1:2|0:0,0:0:0:0:
126,307,12532,2,0,L|125:236,1,68.75,2|0,1:2|0:0,0:0:0:0:
362,207,12729,6,0,L|365:137,1,68.75,6|0,1:2|0:0,0:0:0:0:
282,138,12926,1,0,1:2:0:0:
95,138,13025,2,0,L|236:138,1,137.5,2|0,1:2|0:0,0:0:0:0:
329,138,13321,2,0,L|331:69,1,68.75,2|0,1:2|0:0,0:0:0:0:
131,69,13519,6,0,L|130:139,1,68.75,8|2,0:0|0:0,0:0:0:0:
212,137,13716,1,0,1:2:0:0:
129,137,13815,2,0,P|92:191|129:243,1,137.5,0|0,1:2|0:0,0:0:0:0:
225,242,14111,1,2,1:2:0:0:
78,242,14160,1,2,0:0:0:0:
68,272,14209,1,2,0:0:0:0:
78,300,14259,1,2,0:0:0:0:
246,300,14308,6,0,L|321:300,1,68.75,6|0,1:2|0:0,0:0:0:0:
231,300,14505,1,0,1:2:0:0:
44,300,14604,2,0,L|190:299,1,137.5,2|0,1:2|0:0,0:0:0:0:
278,299,14900,2,0,L|281:226,1,68.75,2|0,1:2|0:0,0:0:0:0:
81,298,15097,6,0,L|79:227,1,68.75,8|2,0:0|0:0,0:0:0:0:
162,229,15295,1,0,1:2:0:0:
79,229,15394,1,0,1:2:0:0:
174,232,15492,2,0,L|176:158,1,68.75,2|0,0:0|0:0,0:0:0:0:
78,230,15690,2,0,L|75:158,1,68.75,0|2,1:2|0:0,0:0:0:0:
275,161,15887,5,0,1:2:0:0:
312,161,15936,1,0,0:2:0:0:
308,122,15986,1,2,0:0:0:0:
270,122,16035,1,2,0:0:0:0:
107,161,16084,2,0,L|105:235,1,68.75,10|0,0:0|0:0,0:0:0:0:
293,229,16282,2,0,L|296:303,1,68.75,10|0,0:0|0:0,0:0:0:0:
199,297,16479,2,0,L|197:369,1,68.75,0|0,1:2|0:0,0:0:0:0:
397,365,16676,6,0,L|399:297,1,68.75,10|0,0:0|0:0,0:0:0:0:
308,296,16874,1,0,1:2:0:0:
492,296,16972,2,0,L|354:296,1,137.5,10|0,0:0|1:2,0:0:0:0:
152,296,17269,2,0,L|149:221,1,68.75,10|0,0:0|0:0,0:0:0:0:
383,227,17466,6,0,L|387:148,1,68.75,6|0,1:2|0:0,0:0:0:0:
303,158,17663,1,8,0:0:0:0:
385,158,17762,1,10,0:0:0:0:
198,158,17861,1,0,1:2:0:0:
279,158,17959,1,8,2:3:0:0:
198,158,18058,1,6,2:3:0:0:
279,158,18157,1,0,1:2:0:0:
81,158,18255,1,10,0:0:0:0:
385,159,18847,6,0,L|388:232,1,68.75,2|0,0:0|0:0,0:0:0:0:
150,227,19045,6,0,L|147:304,1,68.75,6|0,1:2|0:0,0:0:0:0:
333,295,19242,1,8,0:0:0:0:
146,295,19341,2,0,L|301:295,1,137.5,2|0,1:2|1:2,0:0:0:0:
83,295,19637,2,0,L|81:221,1,68.75,10|0,0:0|0:0,0:0:0:0:
301,226,19834,6,0,L|303:152,1,68.75,2|0,1:2|0:0,0:0:0:0:
114,157,20032,1,8,0:0:0:0:
303,157,20130,2,0,L|150:157,1,137.5,2|0,1:2|1:2,0:0:0:0:
360,157,20426,2,0,L|363:88,1,68.75,10|0,0:0|0:0,0:0:0:0:
140,88,20624,6,0,L|137:164,1,68.75,2|0,1:2|0:0,0:0:0:0:
323,156,20821,1,8,0:0:0:0:
136,156,20920,2,0,L|280:156,1,137.5,2|0,1:2|1:2,0:0:0:0:
473,156,21216,2,0,L|476:226,1,68.75,10|0,0:0|0:0,0:0:0:0:
255,224,21413,6,0,L|252:295,1,68.75,2|0,1:2|0:0,0:0:0:0:
440,292,21611,1,8,0:0:0:0:
358,292,21709,2,0,L|356:149,1,137.5,2|0,1:2|1:2,0:0:0:0:
156,154,22005,2,0,L|154:82,1,68.75,10|0,0:0|0:0,0:0:0:0:
377,85,22203,6,0,L|379:155,1,68.75,2|0,1:2|0:0,0:0:0:0:
178,153,22400,1,10,0:0:0:0:
260,151,22499,1,0,1:2:0:0:
178,153,22597,2,0,L|175:233,1,68.75,2|0,0:0|1:2,0:0:0:0:
377,221,22795,2,0,L|379:300,1,68.75,10|0,0:0|0:0,0:0:0:0:
158,289,22992,6,0,L|156:217,1,68.75,2|0,1:2|0:0,0:0:0:0:
358,220,23190,1,10,0:0:0:0:
276,220,23288,1,0,1:2:0:0:
358,220,23387,1,2,0:0:0:0:
361,144,23486,1,0,1:2:0:0:
161,144,23584,2,0,L|78:144,1,68.75,10|0,0:0|0:0,0:0:0:0:
315,144,23782,6,0,L|316:221,1,68.75,2|0,1:2|0:0,0:0:0:0:
129,212,23979,1,8,0:0:0:0:
315,212,24078,2,0,L|161:213,1,137.5,2|0,1:2|1:2,0:0:0:0:
377,212,24374,2,0,L|379:282,1,68.75,10|0,0:0|0:0,0:0:0:0:
158,280,24571,6,0,L|157:205,1,68.75,2|0,1:2|0:0,0:0:0:0:
359,211,24769,1,8,0:0:0:0:
277,211,24867,1,0,1:2:0:0:
463,211,24966,2,0,L|464:140,1,68.75,2|0,0:0|1:2,0:0:0:0:
277,142,25163,1,8,0:0:0:0:
465,142,25262,1,8,0:0:0:0:
217,142,25361,6,0,L|216:215,1,68.75,6|0,1:2|0:0,0:0:0:0:
416,210,25558,1,10,0:0:0:0:
334,210,25657,1,0,1:2:0:0:
416,210,25755,2,0,L|419:141,1,68.75,2|0,0:0|1:2,0:0:0:0:
217,142,25953,2,0,L|148:142,1,68.75,10|0,0:0|0:0,0:0:0:0:
368,142,26150,6,0,L|370:213,1,68.75,2|0,1:2|0:0,0:0:0:0:
169,210,26347,1,10,0:0:0:0:
251,210,26446,1,0,1:2:0:0:
169,210,26545,2,0,L|167:280,1,68.75,2|0,0:0|1:2,0:0:0:0:
367,278,26742,2,0,L|437:279,1,68.75,10|0,0:0|0:0,0:0:0:0:
209,275,26940,6,0,L|208:204,1,68.75,2|0,1:2|0:0,0:0:0:0:
394,206,27137,1,8,0:0:0:0:
208,206,27236,2,0,L|65:208,1,137.5,2|0,1:2|1:2,0:0:0:0:
270,207,27532,2,0,L|341:208,1,68.75,10|0,0:0|0:0,0:0:0:0:
118,207,27729,6,0,L|115:138,1,68.75,2|0,1:2|0:0,0:0:0:0:
315,138,27926,1,10,0:0:0:0:
233,138,28025,1,0,1:2:0:0:
315,138,28124,2,0,L|317:212,1,68.75,2|0,0:0|1:2,0:0:0:0:
116,207,28321,2,0,L|114:131,1,68.75,10|0,0:0|0:0,0:0:0:0:
337,138,28519,6,0,L|340:219,1,68.75,2|0,1:2|0:0,0:0:0:0:
153,206,28716,1,8,0:0:0:0:
339,206,28815,2,0,L|156:207,1,137.5,2|0,1:2|1:2,0:0:0:0:
401,206,29111,2,0,L|403:282,1,68.75,10|0,0:0|0:0,0:0:0:0:
182,274,29308,6,0,L|180:204,1,68.75,2|0,1:2|0:0,0:0:0:0:
380,205,29505,1,10,0:0:0:0:
297,205,29604,1,0,1:2:0:0:
379,205,29703,2,0,L|381:128,1,68.75,2|0,0:0|1:2,0:0:0:0:
180,136,29900,2,0,L|98:136,1,68.75,10|0,0:0|0:0,0:0:0:0:
313,135,30097,6,0,L|315:60,1,68.75,2|0,1:2|0:0,0:0:0:0:
126,66,30295,1,8,0:0:0:0:
314,66,30394,2,0,L|155:66,1,137.5,2|0,1:2|1:2,0:0:0:0:
376,66,30690,2,0,L|378:142,1,68.75,10|0,0:0|0:0,0:0:0:0:
129,134,30887,5,6,1:2:0:0:
329,134,30986,1,8,0:0:0:0:
129,134,31084,1,8,0:0:0:0:
211,134,31183,1,0,1:2:0:0:
411,134,31282,1,10,0:0:0:0:
329,134,31380,1,0,1:2:0:0:
411,134,31479,1,10,2:3:0:0:
329,134,31578,1,8,2:3:0:0:
83,134,31676,6,0,P|51:191|150:250,1,206.25,6|0,1:2|1:2,0:0:0:0:
245,250,32071,2,0,L|99:251,1,137.5,2|2,0:0|1:2,0:0:0:0:
383,250,32466,2,0,L|387:111,1,137.5,10|2,0:0|0:0,0:0:0:0:
221,112,32861,1,2,0:0:0:0:
385,112,33058,1,2,1:2:0:0:
110,112,33255,6,0,L|320:112,2,206.25,2|2|2,1:2|1:2|1:2,0:0:0:0:
185,112,33946,1,0,1:2:0:0:
385,112,34045,1,8,0:0:0:0:
220,112,34242,1,2,1:2:0:0:
385,112,34440,1,2,0:0:0:0:
309,112,34538,1,0,1:2:0:0:
108,112,34637,1,10,0:0:0:0:
437,112,34834,6,0,L|224:114,2,206.25,6|2|2,1:2|1:2|1:2,0:0:0:0:
133,112,35624,2,0,L|349:113,2,206.25,10|2|2,0:0|0:0|1:2,0:0:0:0:
448,112,36413,6,0,L|229:111,2,206.25,2|2|2,1:2|1:2|1:2,0:0:0:0:
116,112,37203,1,10,0:0:0:0:
197,112,37301,1,8,2:3:0:0:
116,112,37400,1,4,2:3:0:0:
197,112,37499,1,0,1:2:0:0:
394,112,37597,2,0,P|429:162|332:224,1,206.25,10|0,0:0|0:0,0:0:0:0:
98,224,37992,6,0,L|96:143,1,68.75,6|0,1:2|0:0,0:0:0:0:
179,155,38190,1,2,1:2:0:0:
97,155,38288,1,0,1:2:0:0:
283,155,38387,2,0,L|353:155,1,68.75,2|0,0:0|0:0,0:0:0:0:
165,155,38584,2,0,L|92:155,1,68.75,2|0,1:2|0:0,0:0:0:0:
298,155,38782,6,0,L|300:225,1,68.75,10|0,0:0|0:0,0:0:0:0:
217,223,38979,1,2,1:2:0:0:
299,223,39078,1,0,1:2:0:0:
114,223,39176,2,0,L|113:154,1,68.75,2|0,0:0|1:2,0:0:0:0:
298,155,39374,2,0,L|371:155,1,68.75,2|0,1:2|0:0,0:0:0:0:
140,221,39571,6,0,L|137:149,1,68.75,6|0,1:2|0:0,0:0:0:0:
220,152,39769,1,0,1:2:0:0:
35,152,39867,2,0,L|185:152,1,137.5,2|0,1:2|0:0,0:0:0:0:
359,152,40163,2,0,L|360:82,1,68.75,2|0,1:2|0:0,0:0:0:0:
158,83,40361,6,0,L|156:155,1,68.75,10|0,0:0|0:0,0:0:0:0:
238,151,40558,1,2,1:2:0:0:
155,151,40657,1,0,1:2:0:0:
339,151,40755,2,0,L|415:152,1,68.75,2|0,0:0|1:2,0:0:0:0:
205,151,40953,2,0,L|105:152,1,68.75,2|0,1:2|0:0,0:0:0:0:
370,151,41150,6,0,L|373:228,1,68.75,6|0,1:2|0:0,0:0:0:0:
289,219,41347,1,0,1:2:0:0:
102,219,41446,2,0,L|269:219,1,137.5,2|0,1:2|0:0,0:0:0:0:
425,219,41742,2,0,L|427:295,1,68.75,2|0,1:2|0:0,0:0:0:0:
224,287,41940,6,0,L|222:213,1,68.75,10|0,0:0|0:0,0:0:0:0:
305,218,42137,1,0,1:2:0:0:
118,218,42236,2,0,P|92:173|126:101,1,137.5,2|0,1:2|0:0,0:0:0:0:
312,101,42532,2,0,L|388:101,1,68.75,2|0,1:2|0:0,0:0:0:0:
142,151,42729,6,0,L|357:153,2,206.25,6|2|2,1:2|0:0|0:0,0:0:0:0:
417,151,43519,1,10,0:0:0:0:
307,151,43650,1,0,1:2:0:0:
417,151,43782,1,0,1:2:0:0:
179,151,43913,1,10,0:0:0:0:
289,151,44045,1,8,2:3:0:0:
179,151,44176,1,4,2:3:0:0:
454,151,44308,6,0,L|456:223,1,68.75,6|0,1:2|0:0,0:0:0:0:
373,219,44505,1,0,1:2:0:0:
186,219,44604,2,0,L|183:360,1,137.5,2|0,1:2|0:0,0:0:0:0:
280,357,44900,2,0,L|282:286,1,68.75,2|0,1:2|0:0,0:0:0:0:
81,288,45097,6,0,L|78:215,1,68.75,10|0,0:0|0:0,0:0:0:0:
161,219,45295,1,0,1:2:0:0:
78,219,45394,1,2,1:2:0:0:
262,219,45492,2,0,L|406:218,1,137.5,2|2,0:0|1:2,0:0:0:0:
96,218,45887,6,0,L|94:146,1,68.75,2|0,0:0|0:0,0:0:0:0:
176,149,46084,1,2,1:2:0:0:
94,149,46183,2,0,L|93:80,1,68.75,0|2,1:2|0:0,0:0:0:0:
175,80,46380,1,0,1:2:0:0:
94,80,46479,1,2,1:2:0:0:
354,80,46676,6,0,L|356:219,1,137.5,10|0,0:0|0:0,0:0:0:0:
273,218,46972,1,2,1:2:0:0:
355,218,47071,2,0,L|493:218,1,137.5,2|2,0:0|1:2,0:0:0:0:
134,219,47466,6,0,L|64:219,1,68.75,6|0,1:2|0:0,0:0:0:0:
148,219,47663,1,2,1:2:0:0:
334,219,47762,2,0,L|336:78,1,137.5,2|0,1:2|0:0,0:0:0:0:
239,81,48058,2,0,L|237:155,1,68.75,2|0,1:2|0:0,0:0:0:0:
437,149,48255,6,0,L|439:225,1,68.75,10|0,0:0|0:0,0:0:0:0:
355,217,48453,1,2,1:2:0:0:
436,217,48551,1,0,1:2:0:0:
339,217,48650,2,0,L|337:295,1,68.75,2|0,0:0|0:0,0:0:0:0:
151,285,48847,2,0,L|148:214,1,68.75,2|0,1:2|0:0,0:0:0:0:
350,216,49045,6,0,L|352:131,1,68.75,2|0,0:0|0:0,0:0:0:0:
268,147,49242,1,0,1:2:0:0:
350,147,49341,2,0,P|385:88|343:43,1,137.5,2|0,1:2|0:0,0:0:0:0:
262,43,49637,1,2,1:2:0:0:
344,43,49736,1,0,1:2:0:0:
146,43,49834,6,0,L|314:44,1,137.5,10|2,0:0|1:2,0:0:0:0:
200,43,50130,1,0,1:2:0:0:
400,43,50229,1,10,0:0:0:0:
200,43,50328,1,8,0:0:0:0:
281,43,50426,1,8,0:0:0:0:
200,43,50525,1,8,0:0:0:0:
420,43,50624,5,2,0:0:0:0:
338,43,50722,1,2,0:0:0:0:
306,106,50821,1,2,0:0:0:0:
338,168,50920,1,2,0:0:0:0:
420,168,51019,1,2,0:0:0:0:
424,243,51117,1,2,0:0:0:0:
342,243,51216,1,0,1:2:0:0:
424,243,51315,1,0,1:2:0:0:
191,243,51413,6,0,L|39:244,1,137.5,10|0,0:0|0:0,0:0:0:0:
136,243,51709,1,0,1:2:0:0:
53,243,51808,2,0,L|203:244,1,137.5,2|2,0:0|1:2,0:0:0:0:
466,243,52203,6,0,L|468:161,1,68.75,2|0,0:0|0:0,0:0:0:0:
384,174,52400,1,2,1:2:0:0:
467,174,52499,2,0,L|468:93,1,68.75,0|2,1:2|0:0,0:0:0:0:
385,105,52696,1,0,1:2:0:0:
467,105,52795,1,2,0:0:0:0:
193,105,52992,6,0,L|188:249,1,137.5,10|0,0:0|0:0,0:0:0:0:
270,242,53288,1,2,1:2:0:0:
187,242,53387,2,0,L|30:242,1,137.5,2|0,0:0|1:2,0:0:0:0:
408,242,53782,6,0,L|411:169,1,68.75,6|0,1:2|0:0,0:0:0:0:
328,173,53979,1,2,1:2:0:0:
141,173,54078,2,0,L|292:173,1,137.5,2|0,1:2|0:0,0:0:0:0:
375,173,54374,2,0,L|377:102,1,68.75,2|0,1:2|0:0,0:0:0:0:
176,104,54571,6,0,L|173:180,1,68.75,10|0,0:0|0:0,0:0:0:0:
256,172,54769,1,0,1:2:0:0:
71,172,54867,2,0,P|34:210|70:275,1,137.5,2|0,1:2|0:0,0:0:0:0:
166,275,55163,2,0,L|242:275,1,68.75,2|0,1:2|0:0,0:0:0:0:
436,275,55361,6,0,P|468:229|435:162,1,137.5,2|2,0:0|1:2,0:0:0:0:
352,162,55657,1,0,1:2:0:0:
167,162,55755,1,2,0:0:0:0:
249,162,55854,2,0,L|243:91,1,68.75,0|0,1:2|0:0,0:0:0:0:
160,93,56051,1,0,1:2:0:0:
394,91,56150,5,10,0:0:0:0:
229,93,56347,2,0,B|178:211|178:211|179:95|179:95|234:208|234:208|423:208,1,556.87500212431,2|8,1:2|0:0,0:0:0:0:
338,208,56742,1,0,1:2:0:0:
423,208,56841,1,0,1:2:0:0:
174,208,56940,6,0,P|155:270|170:341,1,137.5,6|0,1:2|0:0,0:0:0:0:
369,339,57236,2,0,L|204:339,1,137.5,6|0,1:2|0:0,0:0:0:0:
452,339,57532,1,6,1:2:0:0:
180,355,57926,2,0,L|323:355,2,137.5,2|2|2,0:0|0:0|0:0,0:0:0:0:
360,355,58519,6,0,L|210:354,2,137.5,2|2|2,0:0|0:0|0:0,0:0:0:0:
194,355,59111,1,2,0:0:0:0:
358,355,59308,2,0,L|218:355,1,137.5,2|2,0:0|0:0,0:0:0:0:
41,355,59703,2,0,L|190:355,1,137.5,2|2,0:0|0:0,0:0:0:0:
452,355,60097,6,0,L|455:215,1,137.5,6|0,1:2|0:0,0:0:0:0:
250,217,60394,2,0,L|410:216,1,137.5,6|0,1:2|0:0,0:0:0:0:
152,216,60690,1,6,1:2:0:0:
316,216,60887,2,0,P|329:150|312:73,1,137.5,2|2,0:0|0:0,0:0:0:0:
147,78,61282,1,2,0:0:0:0:
422,78,61479,1,8,1:2:0:0:
236,78,61578,1,8,1:2:0:0:
422,78,61676,6,0,L|425:221,1,137.5,8|2,0:0|0:0,0:0:0:0:
260,216,62071,1,2,0:0:0:0:
426,216,62269,1,2,0:0:0:0:
152,216,62466,5,8,0:0:0:0:
353,216,62565,1,8,0:0:0:0:
272,216,62663,1,0,1:2:0:0:
353,216,62762,1,0,1:2:0:0:
152,216,62861,1,8,0:0:0:0:
227,216,62959,1,8,2:3:0:0:
448,216,63058,1,4,2:3:0:0:
374,216,63157,1,4,2:3:0:0:
119,216,63255,5,6,1:2:0:0:
284,216,63453,2,0,L|140:217,1,137.5,2|8,0:0|0:0,0:0:0:0:
448,216,63847,2,0,L|450:75,1,137.5,2|0,0:0|1:2,0:0:0:0:
174,78,64242,2,0,L|333:78,1,137.5,2|8,0:0|0:0,0:0:0:0:
35,78,64637,1,2,0:0:0:0:
336,78,64834,6,0,L|339:218,1,137.5,0|0,1:2|0:0,0:0:0:0:
159,215,65229,2,0,L|157:359,1,137.5,8|0,0:0|0:0,0:0:0:0:
432,352,65624,1,2,1:2:0:0:
157,352,65821,2,0,L|308:353,1,137.5,2|8,0:0|0:0,0:0:0:0:
18,352,66216,1,2,0:0:0:0:
374,352,66413,5,4,1:2:0:0:
208,352,66611,2,0,L|365:352,1,137.5,2|8,0:0|0:0,0:0:0:0:
71,352,67005,2,0,L|69:214,1,137.5,2|0,0:0|1:2,0:0:0:0:
344,214,67400,2,0,L|176:214,1,137.5,2|8,0:0|0:0,0:0:0:0:
482,214,67795,1,2,0:0:0:0:
180,214,67992,6,0,L|177:356,1,137.5,0|0,1:2|0:0,0:0:0:0:
439,351,68387,1,10,0:0:0:0:
177,351,68584,2,0,L|33:351,1,137.5,2|0,0:0|1:2,0:0:0:0:
315,351,68979,2,0,L|464:351,1,137.5,2|8,0:0|0:0,0:0:0:0:
149,351,69374,2,0,L|244:351,1,68.75,10|4,2:3|2:3,0:0:0:0:
472,351,69571,6,0,P|489:296|471:220,1,137.5,4|0,1:2|0:0,0:0:0:0:
195,219,69966,1,10,0:0:0:0:
359,219,70163,1,2,0:0:0:0:
55,219,70361,2,0,L|52:77,1,137.5,2|0,1:2|0:0,0:0:0:0:
223,81,70755,1,8,0:0:0:0:
491,81,70953,1,2,0:0:0:0:
189,81,71150,5,0,1:2:0:0:
353,81,71347,2,0,L|207:82,1,137.5,2|8,0:0|0:0,0:0:0:0:
491,81,71742,2,0,L|494:227,1,137.5,2|0,0:0|1:2,0:0:0:0:
162,218,72137,2,0,L|316:218,1,137.5,2|8,0:0|0:0,0:0:0:0:
133,218,72532,1,2,0:0:0:0:
490,218,72729,6,0,L|492:76,1,137.5,6|0,1:2|0:0,0:0:0:0:
216,80,73124,1,10,0:0:0:0:
491,80,73321,2,0,L|348:80,1,137.5,2|0,0:0|1:2,0:0:0:0:
50,80,73716,2,0,L|199:80,1,137.5,2|8,0:0|0:0,0:0:0:0:
463,80,74111,1,2,0:0:0:0:
133,80,74308,6,0,L|132:158,1,68.75,4|0,1:2|1:2,0:0:0:0:
318,148,74505,1,10,0:0:0:0:
235,148,74604,1,8,0:0:0:0:
318,148,74703,1,8,0:0:0:0:
133,148,74801,1,8,0:0:0:0:
388,148,74900,2,0,L|390:222,1,68.75,6|0,1:2|1:2,0:0:0:0:
134,216,75097,5,6,1:2:0:0:
209,216,75196,1,8,0:0:0:0:
409,216,75295,1,10,0:0:0:0:
334,216,75394,1,8,1:3:0:0:
115,216,75492,1,8,1:3:0:0:
197,216,75591,1,4,2:3:0:0:
115,216,75690,1,10,1:3:0:0:
196,216,75788,1,8,1:3:0:0:
451,216,75887,5,4,1:2:0:0:
286,216,76084,2,0,L|426:216,1,137.5,2|8,0:0|0:0,0:0:0:0:
120,217,76479,2,0,L|119:366,1,137.5,2|0,0:0|1:2,0:0:0:0:
394,354,76874,2,0,L|396:216,1,137.5,2|8,0:0|0:0,0:0:0:0:
120,216,77269,1,2,0:0:0:0:
421,216,77466,6,0,L|272:217,1,137.5,0|2,1:2|0:0,0:0:0:0:
462,216,77861,2,0,L|465:75,1,137.5,8|0,0:0|0:0,0:0:0:0:
190,78,78255,1,2,1:2:0:0:
465,78,78453,2,0,L|308:77,1,137.5,2|8,0:0|0:0,0:0:0:0:
53,77,78847,1,2,0:0:0:0:
411,77,79045,5,4,1:2:0:0:
246,77,79242,2,0,L|395:77,1,137.5,2|8,0:0|0:0,0:0:0:0:
80,77,79637,2,0,L|75:220,1,137.5,2|0,0:0|1:2,0:0:0:0:
351,214,80032,2,0,L|190:213,1,137.5,2|8,0:0|0:0,0:0:0:0:
487,213,80426,1,2,0:0:0:0:
183,213,80624,5,0,1:2:0:0:
347,213,80821,1,2,0:0:0:0:
71,213,81019,1,10,0:0:0:0:
347,213,81216,2,0,L|350:74,1,137.5,2|0,0:0|1:2,0:0:0:0:
74,75,81611,2,0,L|224:75,1,137.5,2|8,0:0|0:0,0:0:0:0:
485,75,82005,1,2,1:2:0:0:
416,75,82104,1,0,1:2:0:0:
160,75,82203,6,0,L|158:216,1,137.5,4|0,1:2|0:0,0:0:0:0:
432,212,82597,2,0,L|435:352,1,137.5,10|0,0:0|0:0,0:0:0:0:
131,349,82992,2,0,L|129:209,1,137.5,2|0,1:2|0:0,0:0:0:0:
294,211,83387,1,8,0:0:0:0:
19,211,83584,1,2,0:0:0:0:
350,211,83782,5,0,1:2:0:0:
185,211,83979,2,0,L|327:211,1,137.5,2|8,0:0|0:0,0:0:0:0:
47,211,84374,2,0,L|44:351,1,137.5,2|0,0:0|1:2,0:0:0:0:
319,348,84769,1,2,0:0:0:0:
154,348,84966,1,8,0:0:0:0:
414,348,85163,1,2,0:0:0:0:
82,348,85361,6,0,L|81:206,1,137.5,6|0,1:2|0:0,0:0:0:0:
355,210,85755,1,10,0:0:0:0:
51,210,85953,2,0,L|49:71,1,137.5,2|0,0:0|1:2,0:0:0:0:
323,72,86347,1,2,0:0:0:0:
49,72,86545,2,0,L|226:71,1,137.5,10|2,0:0|0:0,0:0:0:0:
473,273,86940,6,0,L|257:275,1,206.25,2|0,1:2|1:2,0:0:0:0:
464,274,87334,2,0,L|300:275,1,137.5,10|2,0:0|1:2,0:0:0:0:
50,274,87729,2,0,L|46:129,1,137.5,10|0,1:2|0:0,0:0:0:0:
266,136,88025,2,0,L|90:137,1,137.5,10|0,1:2|0:0,0:0:0:0:
363,136,88321,2,0,L|366:42,1,68.75,10|0,1:2|0:0,0:0:0:0:
107,67,88519,5,6,1:2:0:0:
256,192,88617,12,0,89703,0:0:0:0:
