osu file format v14

[General]
AudioFilename: audio.mp3
AudioLeadIn: 0
PreviewTime: 18650
Countdown: 0
SampleSet: Soft
StackLeniency: 0.7
Mode: 2
LetterboxInBreaks: 0
WidescreenStoryboard: 1

[Editor]
Bookmarks: 3255,3749,4144,4538,4834,43519,44308
DistanceSpacing: 2.2
BeatDivisor: 4
GridSize: 4
TimelineZoom: 2.5

[Metadata]
Title:Deal with (TV Size)
TitleUnicode:Deal with (TV Size)
Artist:OLDCODEX
ArtistUnicode:OLDCODEX
Creator:rew0825
Version:Salad
Source:サーヴァンプ
Tags:Servamp Anime OP Opening Japanese J-Rock JRock Rock J-Metal JMetal Metal Male Vocal Vocals YORKE. Ta_2 鈴木達央 Tatsuhisa Suzuki 小山寿 Hisashi Koyama
BeatmapID:3373088
BeatmapSetID:1646898

[Difficulty]
HPDrainRate:3
CircleSize:2.8
OverallDifficulty:7.1
ApproachRate:7.1
SliderMultiplier:1.74
SliderTickRate:1

[Events]
//Background and Video events
0,0,"BG.jpg",0,0
//Break Periods
//Storyboard Layer 0 (Background)
//Storyboard Layer 1 (Fail)
//Storyboard Layer 2 (Pass)
//Storyboard Layer 3 (Foreground)
//Storyboard Layer 4 (Overlay)
//Storyboard Sound Samples

[TimingPoints]
98,394.736842105263,4,2,1,60,1,0
6413,-100,4,2,1,65,0,0
19045,-100,4,2,1,70,0,1
31676,-100,4,2,1,65,0,0
37992,-100,4,2,1,70,0,1
42729,-100,4,2,1,70,0,0
42828,-100,4,2,1,65,0,0
50722,-100,4,2,1,40,0,0
51216,-100,4,2,1,65,0,0
57926,-100,4,2,1,45,0,0
60097,-100,4,2,1,65,0,0
60887,-100,4,2,1,45,0,0
61479,-100,4,2,1,65,0,0
61874,-100,4,2,1,45,0,0
62466,-100,4,2,1,70,0,0
63255,-100,4,2,1,75,0,1
63354,-100,4,2,1,75,0,0
74900,-100,4,2,1,55,0,0
74999,-100,4,2,1,75,0,0
88519,-100,4,2,1,75,0,0
88617,-100,4,2,1,20,0,0

[Colours]
Combo1 : 226,105,84
Combo2 : 102,152,227
Combo3 : 216,162,101
Combo4 : 222,238,106
Combo5 : 220,124,220

[HitObjects]
172,292,98,6,0,P|134:255|174:202,1,130.5,12|12,2:3|2:3,0:0:0:0:
260,202,591,1,12,2:3:0:0:
347,202,788,1,12,2:3:0:0:
260,202,986,1,12,2:3:0:0:
212,202,1084,1,12,2:3:0:0:
302,215,3058,5,2,0:0:0:0:
119,215,3255,6,0,L|118:124,1,87,2|0,1:2|1:2,0:0:0:0:
214,128,3650,1,8,0:0:0:0:
257,128,3749,1,8,0:0:0:0:
300,128,3847,1,8,0:0:0:0:
397,128,4045,2,0,L|398:216,1,87,0|0,1:2|1:2,0:0:0:0:
301,214,4440,1,8,0:0:0:0:
258,214,4538,1,8,0:0:0:0:
212,215,4637,1,8,2:3:0:0:
397,214,4834,5,2,1:2:0:0:
240,214,5229,1,2,0:0:0:0:
153,206,5426,1,2,0:0:0:0:
166,119,5624,1,2,0:0:0:0:
252,119,5821,1,2,0:0:0:0:
347,119,6018,1,14,2:3:0:0:
260,127,6216,1,2,0:0:0:0:
77,127,6413,6,0,L|76:213,1,87,6|0,1:2|1:2,0:0:0:0:
124,213,6709,1,2,1:2:0:0:
254,213,7005,1,2,1:2:0:0:
158,212,7203,2,0,P|88:189|68:97,1,174,8|2,0:0|0:0,0:0:0:0:
163,98,7795,1,0,0:0:0:0:
345,98,7992,6,0,P|353:133|344:186,1,87,6|0,1:2|1:2,0:0:0:0:
297,184,8288,1,2,1:2:0:0:
166,184,8584,1,2,1:2:0:0:
262,184,8782,2,0,L|445:184,1,174,8|2,0:0|0:0,0:0:0:0:
340,184,9374,1,2,0:0:0:0:
166,184,9571,6,0,L|61:184,1,87,6|0,1:2|1:2,0:0:0:0:
127,184,9867,1,2,1:2:0:0:
257,184,10163,1,10,0:0:0:0:
160,184,10361,2,0,L|159:97,1,87,2|0,1:2|1:2,0:0:0:0:
207,97,10657,1,2,1:2:0:0:
76,97,10953,1,2,1:2:0:0:
258,97,11150,6,0,L|359:97,1,87,10|0,0:0|1:2,0:0:0:0:
343,144,11446,1,2,1:2:0:0:
212,144,11742,1,2,1:2:0:0:
308,144,11940,2,0,L|309:230,1,87,8|0,0:0|1:2,0:0:0:0:
261,230,12236,1,2,1:2:0:0:
392,230,12532,1,2,1:2:0:0:
209,230,12729,6,0,L|106:230,1,87,6|0,1:2|1:2,0:0:0:0:
170,230,13025,1,2,1:2:0:0:
300,230,13321,1,2,1:2:0:0:
203,230,13519,1,8,0:0:0:0:
300,230,13716,2,0,P|359:189|298:137,1,174,0|2,1:2|1:2,0:0:0:0:
116,136,14308,6,0,L|116:229,1,87,6|0,1:2|1:2,0:0:0:0:
165,223,14604,1,2,1:2:0:0:
34,223,14900,1,2,1:2:0:0:
129,223,15097,1,8,0:0:0:0:
177,140,15295,1,0,1:2:0:0:
129,223,15492,1,2,0:0:0:0:
34,223,15690,1,0,1:2:0:0:
216,223,15887,5,0,1:2:0:0:
311,223,16084,1,10,0:0:0:0:
216,223,16282,1,10,0:0:0:0:
214,318,16479,1,0,1:2:0:0:
318,318,16676,2,0,L|451:318,2,130.5,10|10|10,0:0|0:0|0:0,0:0:0:0:
134,318,17466,6,0,L|135:231,1,87,6|8,1:2|0:0,0:0:0:0:
230,231,17861,1,0,1:2:0:0:
273,231,17959,1,8,2:3:0:0:
316,231,18058,1,6,2:3:0:0:
133,231,18255,1,10,0:0:0:0:
133,91,18847,1,2,0:0:0:0:
325,91,19045,6,0,L|326:190,1,87,6|8,1:2|0:0,0:0:0:0:
277,177,19341,1,2,1:2:0:0:
407,177,19637,1,10,0:0:0:0:
224,177,19834,2,0,L|223:271,1,87,2|8,1:2|0:0,0:0:0:0:
271,263,20130,1,2,1:2:0:0:
141,263,20426,1,10,0:0:0:0:
324,263,20624,6,0,L|429:263,1,87,2|8,1:2|0:0,0:0:0:0:
362,263,20920,1,2,1:2:0:0:
231,263,21216,1,10,0:0:0:0:
413,263,21413,2,0,L|413:172,1,87,2|8,1:2|0:0,0:0:0:0:
365,176,21709,1,2,1:2:0:0:
496,176,22005,1,10,0:0:0:0:
303,176,22203,6,0,L|301:271,1,87,2|10,1:2|0:0,0:0:0:0:
396,262,22597,2,0,L|397:171,1,87,2|10,0:0|0:0,0:0:0:0:
213,175,22992,2,0,L|126:174,1,87,2|10,1:2|0:0,0:0:0:0:
222,174,23387,2,0,L|314:174,1,87,2|10,0:0|0:0,0:0:0:0:
126,174,23782,6,0,P|117:128|125:86,1,87,2|8,1:2|0:0,0:0:0:0:
173,87,24078,1,2,1:2:0:0:
42,87,24374,1,10,0:0:0:0:
224,87,24571,2,0,L|325:88,1,87,2|8,1:2|0:0,0:0:0:0:
214,87,24966,2,0,L|214:185,1,87,2|8,0:0|0:0,0:0:0:0:
406,174,25361,6,0,L|407:268,1,87,6|10,1:2|0:0,0:0:0:0:
311,261,25755,1,2,0:0:0:0:
407,261,25953,1,10,0:0:0:0:
224,261,26150,2,0,L|223:171,1,87,2|10,1:2|0:0,0:0:0:0:
319,174,26545,1,2,0:0:0:0:
223,174,26742,1,10,0:0:0:0:
406,174,26940,6,0,L|408:82,1,87,2|8,1:2|0:0,0:0:0:0:
359,87,27236,1,2,1:2:0:0:
228,87,27532,1,10,0:0:0:0:
410,87,27729,1,2,1:2:0:0:
464,165,27926,1,10,0:0:0:0:
403,239,28124,1,2,0:0:0:0:
307,239,28321,1,10,0:0:0:0:
123,239,28519,6,0,L|125:148,1,87,2|8,1:2|0:0,0:0:0:0:
172,152,28815,1,2,1:2:0:0:
41,152,29111,1,10,0:0:0:0:
223,152,29308,2,0,L|224:246,1,87,2|10,1:2|0:0,0:0:0:0:
127,238,29703,1,2,0:0:0:0:
222,238,29900,1,10,0:0:0:0:
404,238,30097,6,0,L|406:151,1,87,2|8,1:2|0:0,0:0:0:0:
357,151,30394,1,2,1:2:0:0:
487,151,30690,1,10,0:0:0:0:
295,151,30887,1,6,1:2:0:0:
251,151,30986,1,8,0:0:0:0:
295,151,31084,1,8,0:0:0:0:
391,151,31282,1,10,0:0:0:0:
434,151,31380,1,0,1:2:0:0:
391,151,31479,1,10,2:3:0:0:
199,151,31676,6,0,P|141:196|201:248,1,174,6|2,1:2|0:0,0:0:0:0:
296,248,32269,1,2,1:2:0:0:
200,248,32466,2,0,P|121:231|92:151,1,174,10|2,0:0|0:0,0:0:0:0:
188,150,33058,1,2,1:2:0:0:
370,150,33255,6,0,L|503:151,2,130.5,2|2|2,1:2|1:2|1:2,0:0:0:0:
273,150,34045,2,0,L|272:239,1,87,8|2,0:0|1:2,0:0:0:0:
368,236,34440,2,0,L|472:236,1,87,2|10,0:0|0:0,0:0:0:0:
263,236,34834,6,0,L|93:237,2,130.5,6|2|2,1:2|1:2|1:2,0:0:0:0:
359,236,35624,2,0,P|389:191|357:129,1,130.5,10|2,0:0|0:0,0:0:0:0:
226,128,36216,1,2,1:2:0:0:
130,128,36413,6,0,P|100:173|132:235,1,130.5,2|2,1:2|1:2,0:0:0:0:
263,236,37005,1,2,1:2:0:0:
166,236,37203,2,0,L|166:146,1,87,10|4,0:0|2:3,0:0:0:0:
261,149,37597,2,0,L|359:149,1,87,10|0,0:0|0:0,0:0:0:0:
155,149,37992,5,6,1:2:0:0:
61,170,38190,1,2,1:2:0:0:
72,264,38387,1,2,0:0:0:0:
167,269,38584,1,2,1:2:0:0:
350,269,38782,2,0,L|352:183,1,87,10|2,0:0|1:2,0:0:0:0:
256,182,39176,1,2,0:0:0:0:
352,182,39374,1,2,1:2:0:0:
169,182,39571,6,0,L|168:93,1,87,6|0,1:2|1:2,0:0:0:0:
216,95,39867,1,2,1:2:0:0:
346,95,40163,1,2,1:2:0:0:
162,95,40361,2,0,L|161:187,1,87,10|2,0:0|1:2,0:0:0:0:
256,181,40755,1,2,0:0:0:0:
159,181,40953,1,2,1:2:0:0:
350,181,41150,6,0,L|498:182,2,130.5,6|2|2,1:2|1:2|1:2,0:0:0:0:
166,181,41940,2,0,L|16:179,2,130.5,10|2|2,0:0|1:2|1:2,0:0:0:0:
357,181,42729,6,0,P|443:248|355:329,1,261,6|2,1:2|0:0,0:0:0:0:
171,328,43519,2,0,L|172:240,1,87,10|0,0:0|0:0,0:0:0:0:
267,241,43913,2,0,L|373:242,1,87,10|0,0:0|0:0,0:0:0:0:
161,241,44308,6,0,L|25:240,2,130.5,6|2|2,1:2|1:2|1:2,0:0:0:0:
256,241,45097,2,0,L|255:145,1,87,10|0,0:0|1:2,0:0:0:0:
159,154,45492,2,0,L|157:68,1,87,2|2,0:0|1:2,0:0:0:0:
340,67,45887,6,0,P|395:71|437:169,1,174,2|2,0:0|0:0,0:0:0:0:
340,169,46479,1,2,1:2:0:0:
244,169,46676,2,0,P|246:222|344:270,1,174,10|2,0:0|0:0,0:0:0:0:
440,269,47269,1,2,1:2:0:0:
248,269,47466,6,0,L|107:270,2,130.5,6|2|2,1:2|1:2|1:2,0:0:0:0:
343,269,48255,1,10,0:0:0:0:
434,240,48453,1,2,1:2:0:0:
423,145,48650,1,2,0:0:0:0:
327,139,48847,1,2,1:2:0:0:
143,139,49045,6,0,L|9:141,2,130.5,2|2|2,0:0|1:2|1:2,0:0:0:0:
238,139,49834,2,0,L|239:229,1,87,10|2,0:0|1:2,0:0:0:0:
142,225,50229,2,0,L|46:225,1,87,10|8,0:0|0:0,0:0:0:0:
238,225,50624,5,2,0:0:0:0:
333,225,50821,1,2,0:0:0:0:
238,225,51019,1,2,0:0:0:0:
194,225,51117,1,2,0:0:0:0:
150,225,51216,1,0,1:2:0:0:
245,225,51413,2,0,P|304:221|343:125,1,174,10|2,0:0|0:0,0:0:0:0:
246,124,52005,1,2,1:2:0:0:
62,124,52203,6,0,P|52:169|144:233,1,174,2|2,0:0|0:0,0:0:0:0:
239,233,52795,1,2,0:0:0:0:
143,233,52992,2,0,P|76:242|41:334,1,174,10|2,0:0|0:0,0:0:0:0:
136,332,53584,1,0,1:2:0:0:
328,332,53782,6,0,L|464:333,2,130.5,6|2|2,1:2|1:2|1:2,0:0:0:0:
232,332,54571,2,0,P|214:282|234:209,1,130.5,10|2,0:0|1:2,0:0:0:0:
364,209,55163,1,2,1:2:0:0:
180,209,55361,6,0,P|132:154|196:92,1,174,2|2,0:0|0:0,0:0:0:0:
286,91,55953,1,0,0:0:0:0:
190,91,56150,1,10,0:0:0:0:
94,91,56347,2,0,P|41:128|95:199,1,174,2|0,1:2|1:2,0:0:0:0:
287,198,56940,6,0,P|318:150|281:95,1,130.5,6|6,1:2|1:2,0:0:0:0:
46,95,57532,1,6,1:2:0:0:
219,95,57926,2,0,P|276:137|218:194,1,174,2|2,0:0|0:0,0:0:0:0:
120,193,58519,6,0,P|66:225|124:290,1,174,2|2,0:0|0:0,0:0:0:0:
297,290,59308,2,0,P|366:282|393:189,1,174,2|2,0:0|0:0,0:0:0:0:
298,191,59900,1,2,0:0:0:0:
106,191,60097,6,0,P|85:130|113:71,1,130.5,6|6,1:2|1:2,0:0:0:0:
346,72,60690,1,6,1:2:0:0:
441,72,60887,2,0,P|499:114|439:168,1,174,2|2,0:0|0:0,0:0:0:0:
343,168,61479,1,8,1:2:0:0:
160,168,61676,6,0,P|86:187|63:278,1,174,8|2,0:0|0:0,0:0:0:0:
158,273,62269,1,2,0:0:0:0:
340,273,62466,1,8,0:0:0:0:
383,273,62565,1,8,0:0:0:0:
340,273,62663,1,0,1:2:0:0:
243,273,62861,1,8,0:0:0:0:
199,273,62959,1,8,2:3:0:0:
155,273,63058,1,4,2:3:0:0:
346,273,63255,6,0,P|399:224|336:173,1,174,6|8,1:2|0:0,0:0:0:0:
239,173,63847,2,0,L|237:80,1,87,2|0,0:0|1:2,0:0:0:0:
333,86,64242,2,0,P|398:92|426:200,1,174,2|2,0:0|0:0,0:0:0:0:
249,184,64834,6,0,L|68:184,1,174,0|8,1:2|0:0,0:0:0:0:
249,184,65624,1,2,1:2:0:0:
344,184,65821,2,0,P|390:223|328:298,1,174,2|2,0:0|0:0,0:0:0:0:
141,298,66413,6,0,P|95:248|161:188,1,174,4|8,1:2|0:0,0:0:0:0:
254,187,67005,2,0,L|255:93,1,87,2|0,0:0|1:2,0:0:0:0:
158,100,67400,2,0,P|83:106|42:196,1,174,2|2,0:0|0:0,0:0:0:0:
224,186,67992,6,0,L|421:184,1,174,0|10,1:2|0:0,0:0:0:0:
398,96,68584,1,2,0:0:0:0:
301,96,68782,1,0,1:2:0:0:
396,96,68979,2,0,P|454:138|393:197,1,174,2|10,0:0|2:3,0:0:0:0:
205,197,69571,6,0,P|149:235|206:302,1,174,4|10,1:2|0:0,0:0:0:0:
298,302,70163,1,2,0:0:0:0:
201,302,70361,2,0,P|113:278|85:206,1,174,2|8,1:2|0:0,0:0:0:0:
398,206,71150,6,0,P|451:155|388:104,1,174,0|8,1:2|0:0,0:0:0:0:
292,103,71742,2,0,L|290:202,1,87,2|0,0:0|1:2,0:0:0:0:
386,189,72137,2,0,L|198:188,1,174,2|2,0:0|0:0,0:0:0:0:
404,188,72729,6,0,P|445:139|377:68,1,174,6|10,1:2|0:0,0:0:0:0:
287,67,73321,2,0,L|192:68,1,87,2|0,0:0|1:2,0:0:0:0:
296,66,73716,2,0,P|364:77|397:168,1,174,2|2,0:0|0:0,0:0:0:0:
213,167,74308,5,4,1:2:0:0:
117,172,74505,1,10,0:0:0:0:
98,216,74604,1,8,0:0:0:0:
118,259,74703,1,8,0:0:0:0:
213,262,74900,1,6,1:2:0:0:
395,262,75097,1,6,1:2:0:0:
437,238,75196,1,8,0:0:0:0:
393,217,75295,1,10,0:0:0:0:
297,217,75492,1,8,1:3:0:0:
344,214,75591,1,4,2:3:0:0:
391,212,75690,1,10,1:3:0:0:
208,212,75887,6,0,P|164:162|228:96,1,174,4|8,1:2|0:0,0:0:0:0:
322,95,76479,1,2,0:0:0:0:
226,95,76676,1,0,1:2:0:0:
129,95,76874,2,0,P|62:113|37:210,1,174,2|2,0:0|0:0,0:0:0:0:
218,205,77466,6,0,L|399:206,1,174,0|8,1:2|0:0,0:0:0:0:
217,205,78255,1,2,1:2:0:0:
120,205,78453,2,0,P|70:153|135:97,1,174,2|2,0:0|0:0,0:0:0:0:
323,95,79045,6,0,P|390:101|421:200,1,174,4|8,1:2|0:0,0:0:0:0:
328,191,79637,2,0,L|326:293,1,87,2|0,0:0|1:2,0:0:0:0:
422,277,80032,2,0,P|428:225|332:172,1,174,2|2,0:0|0:0,0:0:0:0:
151,171,80624,6,0,P|155:122|259:79,1,174,0|10,1:2|0:0,0:0:0:0:
162,78,81216,2,0,L|161:171,1,87,2|0,0:0|1:2,0:0:0:0:
257,164,81611,2,0,L|83:165,1,174,2|2,0:0|1:2,0:0:0:0:
275,164,82203,6,0,P|328:208|264:268,1,174,4|10,1:2|0:0,0:0:0:0:
172,268,82795,1,0,0:0:0:0:
267,268,82992,2,0,L|462:268,1,174,2|8,1:2|0:0,0:0:0:0:
126,268,83782,6,0,P|86:204|155:149,1,174,0|8,1:2|0:0,0:0:0:0:
245,148,84374,2,0,L|354:149,1,87,2|0,0:0|1:2,0:0:0:0:
428,148,84769,2,0,P|483:198|414:251,1,174,2|2,0:0|0:0,0:0:0:0:
232,253,85361,6,0,P|169:233|154:133,1,174,6|10,1:2|0:0,0:0:0:0:
248,136,85953,1,2,0:0:0:0:
421,136,86347,1,2,0:0:0:0:
421,223,86545,1,10,0:0:0:0:
325,223,86742,1,2,0:0:0:0:
141,223,86940,6,0,P|97:166|170:110,1,174,2|10,1:2|0:0,0:0:0:0:
256,108,87532,1,2,1:2:0:0:
351,108,87729,2,0,L|201:108,2,130.5,10|10|10,1:2|1:2|1:2,0:0:0:0:
158,108,88519,5,6,1:2:0:0:
256,192,88913,12,0,89703,0:0:0:0:
