osu file format v14

[General]
AudioFilename: audio.mp3
AudioLeadIn: 0
PreviewTime: 18650
Countdown: 0
SampleSet: Soft
StackLeniency: 0.7
Mode: 2
LetterboxInBreaks: 0
WidescreenStoryboard: 1

[Editor]
Bookmarks: 3255,3749,4144,4538,4834,43519,44308
DistanceSpacing: 1.1
BeatDivisor: 4
GridSize: 4
TimelineZoom: 2.5

[Metadata]
Title:Deal with (TV Size)
TitleUnicode:Deal with (TV Size)
Artist:OLDCODEX
ArtistUnicode:OLDCODEX
Creator:rew0825
Version:Rain
Source:サーヴァンプ
Tags:Servamp Anime OP Opening Japanese J-Rock JRock Rock J-Metal JMetal Metal Male Vocal Vocals YORKE. Ta_2 鈴木達央 Tatsuhisa Suzuki 小山寿 Hisashi Koyama
BeatmapID:3367170
BeatmapSetID:1646898

[Difficulty]
HPDrainRate:5
CircleSize:3.8
OverallDifficulty:9.1
ApproachRate:9.1
SliderMultiplier:2.3
SliderTickRate:2

[Events]
//Background and Video events
0,0,"BG.jpg",0,0
//Break Periods
//Storyboard Layer 0 (Background)
//Storyboard Layer 1 (Fail)
//Storyboard Layer 2 (Pass)
//Storyboard Layer 3 (Foreground)
//Storyboard Layer 4 (Overlay)
//Storyboard Sound Samples

[TimingPoints]
98,394.736842105263,4,2,1,60,1,0
6413,-100,4,2,1,65,0,0
19045,-100,4,2,1,70,0,1
31676,-100,4,2,1,65,0,0
37992,-100,4,2,1,70,0,1
42729,-100,4,2,1,70,0,0
42828,-100,4,2,1,65,0,0
50722,-100,4,2,1,40,0,0
51216,-100,4,2,1,65,0,0
57926,-100,4,2,1,45,0,0
60097,-100,4,2,1,65,0,0
60887,-100,4,2,1,45,0,0
61479,-100,4,2,1,65,0,0
61874,-100,4,2,1,45,0,0
62466,-100,4,2,1,70,0,0
63255,-100,4,2,1,75,0,1
63354,-100,4,2,1,75,0,0
74900,-100,4,2,1,55,0,0
74999,-100,4,2,1,75,0,0
88519,-100,4,2,1,75,0,0
88617,-100,4,2,1,20,0,0

[Colours]
Combo1 : 226,105,84
Combo2 : 102,152,227
Combo3 : 216,162,101
Combo4 : 222,238,106
Combo5 : 220,124,220

[HitObjects]
192,192,98,5,12,2:3:0:0:
129,192,196,1,12,2:3:0:0:
192,192,295,1,12,2:3:0:0:
290,192,394,2,0,L|406:192,1,115,12|12,2:3|2:3,0:0:0:0:
221,192,788,2,0,L|100:192,1,115,12|12,2:3|2:3,0:0:0:0:
290,192,1084,1,12,2:3:0:0:
71,192,3058,6,0,L|70:135,1,57.5,2|0,0:0|0:0,0:0:0:0:
254,134,3255,5,2,1:2:0:0:
296,137,3321,1,0,1:2:0:0:
323,170,3387,1,0,1:2:0:0:
325,212,3453,1,0,1:2:0:0:
49,212,3650,1,8,0:0:0:0:
31,176,3716,1,8,0:0:0:0:
50,141,3782,1,8,0:0:0:0:
92,140,3847,1,8,0:0:0:0:
276,140,4045,5,0,1:2:0:0:
280,181,4111,1,0,1:2:0:0:
257,215,4176,1,0,1:2:0:0:
215,221,4242,1,0,1:2:0:0:
492,220,4440,1,8,0:0:0:0:
496,178,4505,1,8,0:0:0:0:
477,139,4571,1,8,2:3:0:0:
435,131,4637,1,8,2:3:0:0:
358,131,4703,1,4,2:3:0:0:
318,131,4769,1,4,2:3:0:0:
162,131,4834,5,2,1:2:0:0:
369,131,5229,2,0,L|371:249,1,115,2|2,0:0|0:0,0:0:0:0:
307,244,5525,1,0,0:0:0:0:
122,244,5624,6,0,L|55:244,1,57.5,2|0,0:0|0:0,0:0:0:0:
162,244,5821,2,0,L|226:244,1,57.5,2|0,0:0|0:0,0:0:0:0:
405,243,6019,2,0,L|478:242,1,57.5,14|0,2:3|0:0,0:0:0:0:
365,244,6216,2,0,L|302:243,1,57.5,2|0,0:0|0:0,0:0:0:0:
100,244,6413,6,0,L|97:129,1,115,6|0,1:2|1:2,0:0:0:0:
200,129,6709,2,0,L|201:245,1,115,2|0,1:2|0:0,0:0:0:0:
137,243,7005,1,2,1:2:0:0:
73,243,7104,1,0,0:0:0:0:
257,243,7203,5,8,0:0:0:0:
319,243,7301,2,0,L|320:129,1,115,2|0,0:0|0:0,0:0:0:0:
216,129,7597,2,0,L|96:129,1,115,2|0,0:0|0:0,0:0:0:0:
170,129,7894,1,2,0:0:0:0:
405,129,7992,6,0,L|407:243,1,115,6|0,1:2|1:2,0:0:0:0:
303,243,8288,2,0,L|302:129,1,115,2|0,1:2|0:0,0:0:0:0:
366,129,8584,1,2,1:2:0:0:
429,129,8683,1,0,0:0:0:0:
244,129,8782,5,8,0:0:0:0:
181,129,8880,2,0,L|314:129,1,115,2|0,0:0|0:0,0:0:0:0:
400,129,9176,2,0,L|402:244,1,115,2|2,0:0|0:0,0:0:0:0:
338,243,9472,1,0,0:0:0:0:
130,243,9571,6,0,L|129:128,1,115,6|0,1:2|1:2,0:0:0:0:
232,128,9867,2,0,L|234:242,1,115,2|0,1:2|0:0,0:0:0:0:
130,243,10163,2,0,L|60:243,1,57.5,10|0,0:0|0:0,0:0:0:0:
259,243,10361,6,0,L|394:242,1,115,2|0,1:2|1:2,0:0:0:0:
270,242,10657,2,0,L|272:125,1,115,2|0,1:2|0:0,0:0:0:0:
335,127,10953,1,2,1:2:0:0:
397,127,11051,1,0,0:0:0:0:
212,127,11150,6,0,L|81:127,1,115,10|0,0:0|1:2,0:0:0:0:
201,127,11446,2,0,L|330:126,1,115,2|0,1:2|0:0,0:0:0:0:
312,62,11742,1,2,1:2:0:0:
249,62,11841,1,0,0:0:0:0:
64,62,11940,6,0,L|62:184,1,115,8|0,0:0|1:2,0:0:0:0:
165,176,12236,2,0,L|166:298,1,115,2|0,1:2|0:0,0:0:0:0:
102,290,12532,1,2,1:2:0:0:
165,290,12630,1,0,0:0:0:0:
372,290,12729,6,0,L|374:169,1,115,6|0,1:2|1:2,0:0:0:0:
270,175,13025,2,0,L|268:60,1,115,2|0,1:2|0:0,0:0:0:0:
331,60,13321,1,2,1:2:0:0:
394,60,13420,1,0,0:0:0:0:
209,60,13519,6,0,L|208:175,1,115,8|0,0:0|1:2,0:0:0:0:
312,175,13815,2,0,L|446:174,1,115,0|0,1:2|0:0,0:0:0:0:
363,174,14111,1,2,1:2:0:0:
300,174,14209,1,2,0:0:0:0:
63,174,14308,6,0,L|61:294,1,115,6|0,1:2|1:2,0:0:0:0:
164,288,14604,2,0,L|168:171,1,115,2|0,1:2|0:0,0:0:0:0:
104,173,14900,1,2,1:2:0:0:
168,173,14999,1,0,0:0:0:0:
350,173,15097,6,0,P|360:115|352:57,1,115,8|0,0:0|1:2,0:0:0:0:
259,58,15394,1,0,1:2:0:0:
167,58,15492,2,0,L|166:176,1,115,2|0,0:0|1:2,0:0:0:0:
229,173,15788,1,2,0:0:0:0:
413,173,15887,5,0,1:2:0:0:
415,236,15986,1,2,0:0:0:0:
232,236,16084,2,0,L|230:299,1,57.5,10|0,0:0|0:0,0:0:0:0:
335,293,16282,2,0,L|456:292,1,115,10|0,0:0|1:2,0:0:0:0:
386,292,16578,1,0,0:0:0:0:
203,292,16676,6,0,L|69:292,1,115,10|0,0:0|1:2,0:0:0:0:
272,292,16972,2,0,P|279:237|274:173,1,115,10|0,0:0|1:2,0:0:0:0:
170,177,17269,2,0,L|169:118,1,57.5,10|0,0:0|0:0,0:0:0:0:
376,119,17466,6,0,P|397:169|375:222,1,115,6|8,1:2|0:0,0:0:0:0:
282,222,17762,1,10,0:0:0:0:
189,222,17861,2,0,L|253:222,1,57.5,0|8,1:2|2:3,0:0:0:0:
350,222,18058,2,0,L|280:222,1,57.5,6|0,2:3|1:2,0:0:0:0:
107,222,18255,1,10,0:0:0:0:
417,222,18847,2,0,L|418:157,1,57.5,2|0,0:0|0:0,0:0:0:0:
208,164,19045,5,6,1:2:0:0:
144,164,19144,1,0,0:0:0:0:
208,164,19242,1,8,0:0:0:0:
398,164,19341,2,0,P|413:109|397:52,1,115,2|0,1:2|1:2,0:0:0:0:
294,54,19637,2,0,L|214:54,1,57.5,10|0,0:0|0:0,0:0:0:0:
421,56,19834,6,0,L|419:115,1,57.5,2|0,1:2|0:0,0:0:0:0:
354,113,20032,1,8,0:0:0:0:
173,113,20130,2,0,L|306:114,1,115,2|0,1:2|1:2,0:0:0:0:
392,112,20426,2,0,L|393:175,1,57.5,10|0,0:0|0:0,0:0:0:0:
206,169,20624,5,2,1:2:0:0:
143,169,20722,1,0,0:0:0:0:
206,169,20821,1,8,0:0:0:0:
395,168,20920,2,0,L|262:168,1,115,2|0,1:2|1:2,0:0:0:0:
177,169,21216,2,0,L|175:232,1,57.5,10|0,0:0|0:0,0:0:0:0:
360,228,21413,6,0,L|357:168,1,57.5,2|0,1:2|0:0,0:0:0:0:
293,170,21611,1,8,0:0:0:0:
114,170,21709,2,0,L|228:170,1,115,2|0,1:2|1:2,0:0:0:0:
332,170,22005,2,0,L|333:110,1,57.5,10|0,0:0|0:0,0:0:0:0:
146,112,22203,6,0,L|144:179,1,57.5,2|0,1:2|0:0,0:0:0:0:
248,169,22400,2,0,L|250:234,1,57.5,10|0,0:0|1:2,0:0:0:0:
145,226,22597,2,0,L|208:226,1,57.5,2|0,0:0|1:2,0:0:0:0:
388,226,22795,2,0,L|315:226,1,57.5,10|0,0:0|0:0,0:0:0:0:
145,226,22992,6,0,L|144:160,1,57.5,2|0,1:2|0:0,0:0:0:0:
249,168,23190,2,0,L|324:168,1,57.5,10|0,0:0|1:2,0:0:0:0:
410,168,23387,2,0,L|410:109,1,57.5,2|0,0:0|1:2,0:0:0:0:
225,110,23584,2,0,L|155:110,1,57.5,10|0,0:0|0:0,0:0:0:0:
353,110,23782,5,2,1:2:0:0:
415,110,23880,1,0,0:0:0:0:
353,110,23979,1,8,0:0:0:0:
162,110,24078,2,0,P|154:162|163:227,1,115,2|0,1:2|1:2,0:0:0:0:
263,220,24374,2,0,L|327:220,1,57.5,10|0,0:0|0:0,0:0:0:0:
106,220,24571,6,0,L|105:160,1,57.5,2|0,1:2|0:0,0:0:0:0:
209,162,24769,2,0,L|210:103,1,57.5,8|0,0:0|1:2,0:0:0:0:
26,104,24966,1,2,0:0:0:0:
89,104,25065,1,0,1:2:0:0:
268,104,25163,1,8,0:0:0:0:
331,104,25262,1,8,0:0:0:0:
123,104,25361,6,0,L|122:176,1,57.5,6|0,1:2|0:0,0:0:0:0:
226,161,25558,2,0,L|300:161,1,57.5,10|0,0:0|1:2,0:0:0:0:
387,161,25755,2,0,L|388:223,1,57.5,2|0,0:0|1:2,0:0:0:0:
201,218,25953,2,0,L|121:219,1,57.5,10|0,0:0|0:0,0:0:0:0:
328,218,26150,6,0,L|393:218,1,57.5,2|0,1:2|0:0,0:0:0:0:
281,218,26347,2,0,L|280:160,1,57.5,10|0,0:0|1:2,0:0:0:0:
384,160,26545,2,0,L|385:94,1,57.5,2|0,0:0|1:2,0:0:0:0:
200,102,26742,2,0,L|140:103,1,57.5,10|0,0:0|0:0,0:0:0:0:
328,102,26940,5,2,1:2:0:0:
390,102,27038,1,0,0:0:0:0:
328,102,27137,1,8,0:0:0:0:
137,102,27236,2,0,L|263:102,1,115,2|0,1:2|1:2,0:0:0:0:
355,102,27532,2,0,L|357:164,1,57.5,10|0,0:0|0:0,0:0:0:0:
143,157,27729,6,0,L|75:157,1,57.5,2|0,1:2|0:0,0:0:0:0:
189,157,27926,2,0,L|251:157,1,57.5,10|0,0:0|1:2,0:0:0:0:
351,157,28124,2,0,L|350:216,1,57.5,2|0,0:0|1:2,0:0:0:0:
165,216,28321,2,0,L|96:215,1,57.5,10|0,0:0|0:0,0:0:0:0:
293,215,28519,5,2,1:2:0:0:
355,215,28617,1,0,0:0:0:0:
293,215,28716,1,8,0:0:0:0:
73,215,28815,2,0,P|58:151|75:105,1,115,2|0,1:2|1:2,0:0:0:0:
178,106,29111,2,0,L|241:106,1,57.5,10|0,0:0|0:0,0:0:0:0:
420,106,29308,6,0,L|421:170,1,57.5,2|0,1:2|0:0,0:0:0:0:
317,163,29505,2,0,L|316:229,1,57.5,10|0,0:0|1:2,0:0:0:0:
421,220,29703,2,0,L|487:220,1,57.5,2|0,0:0|1:2,0:0:0:0:
294,220,29900,2,0,L|224:220,1,57.5,10|0,0:0|0:0,0:0:0:0:
421,220,30097,6,0,L|419:161,1,57.5,2|0,1:2|0:0,0:0:0:0:
354,162,30295,1,8,0:0:0:0:
173,162,30394,2,0,L|293:162,1,115,2|0,1:2|1:2,0:0:0:0:
391,162,30690,2,0,L|392:101,1,57.5,10|0,0:0|0:0,0:0:0:0:
155,104,30887,6,0,L|214:104,1,57.5,6|8,1:2|0:0,0:0:0:0:
397,104,31084,2,0,L|399:164,1,57.5,8|0,0:0|1:2,0:0:0:0:
212,161,31282,2,0,L|149:162,1,57.5,10|0,0:0|1:2,0:0:0:0:
258,161,31479,2,0,L|320:162,1,57.5,10|8,2:3|2:3,0:0:0:0:
107,161,31676,6,0,P|45:222|139:282,1,230,6|2,1:2|0:0,0:0:0:0:
312,282,32269,1,2,1:2:0:0:
139,282,32466,2,0,L|137:160,1,115,10|2,0:0|0:0,0:0:0:0:
321,167,32861,2,0,L|451:168,1,115,2|2,0:0|1:2,0:0:0:0:
160,167,33255,6,0,L|349:166,2,172.5,2|2|2,1:2|1:2|1:2,0:0:0:0:
161,230,33946,1,0,1:2:0:0:
264,230,34045,2,0,L|389:230,1,115,8|2,0:0|1:2,0:0:0:0:
194,230,34440,1,2,0:0:0:0:
125,230,34538,1,0,1:2:0:0:
55,230,34637,1,10,0:0:0:0:
330,230,34834,6,0,L|156:229,2,172.5,6|2|2,1:2|1:2|1:2,0:0:0:0:
145,230,35624,2,0,P|115:182|188:117,1,172.5,10|2,0:0|0:0,0:0:0:0:
352,117,36216,1,2,1:2:0:0:
76,117,36413,6,0,L|259:117,2,172.5,2|2|2,1:2|1:2|1:2,0:0:0:0:
260,117,37203,2,0,L|329:117,1,57.5,10|8,0:0|2:3,0:0:0:0:
213,117,37400,2,0,L|139:117,1,57.5,4|0,2:3|1:2,0:0:0:0:
340,117,37597,2,0,P|393:170|336:225,1,172.5,10|0,0:0|0:0,0:0:0:0:
127,225,37992,6,0,L|126:292,1,57.5,6|0,1:2|0:0,0:0:0:0:
231,282,38190,2,0,L|232:224,1,57.5,2|0,1:2|1:2,0:0:0:0:
128,224,38387,2,0,L|58:224,1,57.5,2|0,0:0|0:0,0:0:0:0:
255,224,38584,2,0,L|324:223,1,57.5,2|0,1:2|0:0,0:0:0:0:
126,223,38782,6,0,L|124:151,1,57.5,10|0,0:0|0:0,0:0:0:0:
228,165,38979,2,0,L|289:166,1,57.5,2|0,1:2|1:2,0:0:0:0:
389,165,39176,2,0,L|391:103,1,57.5,2|0,0:0|1:2,0:0:0:0:
204,107,39374,2,0,L|132:107,1,57.5,2|0,1:2|0:0,0:0:0:0:
354,107,39571,5,6,1:2:0:0:
417,107,39670,1,0,0:0:0:0:
354,107,39769,1,0,1:2:0:0:
164,107,39867,2,0,P|155:158|165:223,1,115,2|0,1:2|0:0,0:0:0:0:
267,220,40163,2,0,L|341:220,1,57.5,2|0,1:2|0:0,0:0:0:0:
109,220,40361,6,0,L|108:160,1,57.5,10|0,0:0|0:0,0:0:0:0:
211,162,40558,2,0,L|212:95,1,57.5,2|0,1:2|1:2,0:0:0:0:
108,104,40755,2,0,L|172:103,1,57.5,2|0,0:0|1:2,0:0:0:0:
353,103,40953,2,0,L|427:104,1,57.5,2|0,1:2|0:0,0:0:0:0:
202,103,41150,6,0,L|73:105,1,115,6|0,1:2|1:2,0:0:0:0:
271,104,41446,2,0,P|285:146|268:214,1,115,2|0,1:2|0:0,0:0:0:0:
164,213,41742,2,0,L|99:213,1,57.5,2|0,1:2|0:0,0:0:0:0:
305,213,41940,6,0,L|441:213,1,115,10|0,0:0|1:2,0:0:0:0:
235,213,42236,2,0,P|218:174|238:105,1,115,2|0,1:2|0:0,0:0:0:0:
340,106,42532,2,0,L|412:106,1,57.5,2|0,1:2|0:0,0:0:0:0:
189,106,42729,6,0,L|13:107,2,172.5,6|2|2,1:2|0:0|0:0,0:0:0:0:
454,106,43519,1,10,0:0:0:0:
455,189,43650,1,0,1:2:0:0:
339,189,43782,1,0,1:2:0:0:
125,189,43913,1,10,0:0:0:0:
48,189,44044,1,8,2:3:0:0:
164,189,44176,1,4,2:3:0:0:
410,189,44308,6,0,P|401:128|411:68,1,115,6|0,1:2|1:2,0:0:0:0:
307,74,44604,2,0,L|306:194,1,115,2|0,1:2|0:0,0:0:0:0:
369,188,44900,1,2,1:2:0:0:
432,189,44999,1,0,0:0:0:0:
249,189,45097,6,0,L|248:254,1,57.5,10|0,0:0|0:0,0:0:0:0:
352,246,45295,2,0,L|354:318,1,57.5,0|2,1:2|1:2,0:0:0:0:
249,303,45492,2,0,L|97:303,1,115,2|2,0:0|1:2,0:0:0:0:
434,303,45887,2,0,L|436:175,1,115,2|2,0:0|1:2,0:0:0:0:
372,189,46183,1,0,1:2:0:0:
268,189,46282,2,0,L|410:189,1,115,2|2,0:0|1:2,0:0:0:0:
108,73,46676,6,0,L|106:194,1,115,10|0,0:0|0:0,0:0:0:0:
170,187,46972,1,2,1:2:0:0:
273,187,47071,2,0,L|404:186,1,115,2|2,0:0|1:2,0:0:0:0:
88,186,47466,6,0,L|86:311,1,115,6|2,1:2|1:2,0:0:0:0:
189,300,47762,2,0,P|199:242|188:186,1,115,2|0,1:2|0:0,0:0:0:0:
126,185,48058,1,2,1:2:0:0:
62,185,48157,1,0,0:0:0:0:
244,185,48255,6,0,L|246:123,1,57.5,10|0,0:0|0:0,0:0:0:0:
140,127,48453,2,0,L|138:63,1,57.5,2|0,1:2|1:2,0:0:0:0:
242,69,48650,2,0,L|305:69,1,57.5,2|0,0:0|0:0,0:0:0:0:
403,69,48847,2,0,L|404:129,1,57.5,2|0,1:2|0:0,0:0:0:0:
217,126,49045,6,0,L|83:127,1,115,2|0,0:0|1:2,0:0:0:0:
205,126,49341,2,0,L|326:126,1,115,2|0,1:2|0:0,0:0:0:0:
216,126,49637,2,0,L|137:126,1,57.5,2|0,1:2|1:2,0:0:0:0:
343,126,49834,6,0,L|342:240,1,115,10|2,0:0|1:2,0:0:0:0:
278,240,50130,1,0,1:2:0:0:
93,240,50229,2,0,L|175:240,1,57.5,10|8,0:0|0:0,0:0:0:0:
254,240,50426,2,0,L|344:240,1,57.5,8|8,0:0|0:0,0:0:0:0:
125,240,50624,5,2,0:0:0:0:
62,236,50722,1,2,0:0:0:0:
27,184,50821,1,2,0:0:0:0:
35,121,50920,1,2,0:0:0:0:
84,87,51019,1,2,0:0:0:0:
146,87,51117,1,2,0:0:0:0:
249,87,51216,1,0,1:2:0:0:
312,87,51315,1,0,1:2:0:0:
106,86,51413,6,0,L|105:207,1,115,10|0,0:0|0:0,0:0:0:0:
168,200,51709,1,0,1:2:0:0:
271,200,51808,2,0,L|392:201,1,115,2|2,0:0|1:2,0:0:0:0:
84,202,52203,6,0,L|83:81,1,115,2|2,0:0|1:2,0:0:0:0:
146,87,52499,1,0,1:2:0:0:
249,87,52597,2,0,L|114:87,1,115,2|2,0:0|0:0,0:0:0:0:
407,200,52992,6,0,L|408:320,1,115,10|0,0:0|0:0,0:0:0:0:
344,314,53288,1,2,1:2:0:0:
240,314,53387,2,0,L|110:314,1,115,2|0,0:0|1:2,0:0:0:0:
424,314,53782,6,0,L|425:195,1,115,6|2,1:2|1:2,0:0:0:0:
321,199,54078,2,0,L|319:80,1,115,2|0,1:2|0:0,0:0:0:0:
382,84,54374,1,2,1:2:0:0:
444,84,54472,1,0,0:0:0:0:
259,84,54571,6,0,L|143:83,1,115,10|0,0:0|1:2,0:0:0:0:
247,83,54867,2,0,L|374:83,1,115,2|0,1:2|0:0,0:0:0:0:
425,83,55163,1,2,1:2:0:0:
361,83,55262,1,0,0:0:0:0:
176,83,55361,6,0,L|174:201,1,115,2|2,0:0|1:2,0:0:0:0:
237,197,55657,1,0,1:2:0:0:
339,197,55755,1,2,0:0:0:0:
374,249,55854,1,0,1:2:0:0:
339,302,55953,1,0,0:0:0:0:
276,302,56051,1,0,1:2:0:0:
91,302,56150,5,10,0:0:0:0:
263,302,56347,2,0,P|310:255|249:192,1,172.5,2|8,1:2|0:0,0:0:0:0:
185,192,56742,1,0,1:2:0:0:
248,192,56841,1,0,1:2:0:0:
455,192,56940,6,0,L|457:62,1,115,6|0,1:2|0:0,0:0:0:0:
272,77,57236,2,0,L|138:77,1,115,6|0,1:2|0:0,0:0:0:0:
364,77,57532,1,6,1:2:0:0:
157,77,57926,2,0,L|43:77,2,115,2|2|2,0:0|0:0|0:0,0:0:0:0:
330,77,58519,6,0,L|445:78,2,115,2|2|2,0:0|0:0|0:0,0:0:0:0:
203,77,59111,1,2,0:0:0:0:
375,77,59308,2,0,L|376:192,1,115,2|2,0:0|0:0,0:0:0:0:
249,191,59703,1,2,0:0:0:0:
375,191,59900,1,2,0:0:0:0:
76,191,60097,6,0,L|75:325,1,115,6|0,1:2|0:0,0:0:0:0:
261,305,60394,2,0,L|398:304,1,115,6|0,1:2|0:0,0:0:0:0:
168,304,60690,1,6,1:2:0:0:
41,304,60887,1,2,0:0:0:0:
52,189,61084,1,2,0:0:0:0:
173,189,61282,1,2,0:0:0:0:
443,189,61479,1,8,1:2:0:0:
379,189,61578,1,8,1:2:0:0:
196,189,61676,6,0,L|195:305,1,115,8|2,0:0|0:0,0:0:0:0:
368,303,62071,2,0,L|486:302,1,115,2|2,0:0|0:0,0:0:0:0:
206,302,62466,6,0,L|270:302,1,57.5,8|8,0:0|0:0,0:0:0:0:
361,303,62663,2,0,L|363:241,1,57.5,0|0,1:2|1:2,0:0:0:0:
176,245,62861,2,0,L|113:245,1,57.5,8|8,0:0|2:3,0:0:0:0:
305,244,63058,2,0,L|382:245,1,57.5,4|4,2:3|2:3,0:0:0:0:
137,187,63255,6,0,L|17:187,2,115,6|2|8,1:2|0:0|0:0,0:0:0:0:
413,187,63847,2,0,L|415:64,1,115,2|0,0:0|1:2,0:0:0:0:
230,72,64242,2,0,L|347:71,1,115,2|8,0:0|0:0,0:0:0:0:
171,72,64637,1,2,0:0:0:0:
446,72,64834,6,0,L|448:200,1,115,0|0,1:2|0:0,0:0:0:0:
263,186,65229,2,0,L|262:315,1,115,8|0,0:0|0:0,0:0:0:0:
435,300,65624,1,2,1:2:0:0:
159,300,65821,2,0,L|287:301,1,115,2|8,0:0|0:0,0:0:0:0:
100,300,66216,1,2,0:0:0:0:
398,300,66413,6,0,L|276:298,2,115,4|2|8,1:2|0:0|0:0,0:0:0:0:
121,300,67005,2,0,L|119:179,1,115,2|0,0:0|1:2,0:0:0:0:
303,185,67400,2,0,L|175:185,1,115,2|8,0:0|0:0,0:0:0:0:
361,185,67795,1,2,0:0:0:0:
85,185,67992,6,0,L|84:68,1,115,0|0,1:2|0:0,0:0:0:0:
257,70,68387,1,10,0:0:0:0:
84,70,68584,2,0,L|205:70,1,115,2|0,0:0|1:2,0:0:0:0:
475,70,68979,2,0,L|342:71,1,115,2|8,0:0|0:0,0:0:0:0:
175,70,69374,2,0,L|173:129,1,57.5,10|4,2:3|2:3,0:0:0:0:
380,127,69571,6,0,L|381:246,1,115,4|0,1:2|0:0,0:0:0:0:
196,241,69966,2,0,L|74:241,1,115,10|2,0:0|0:0,0:0:0:0:
357,241,70361,2,0,L|480:241,2,115,2|0|8,1:2|0:0|0:0,0:0:0:0:
172,241,70953,1,2,0:0:0:0:
447,241,71150,6,0,L|448:120,1,115,0|2,1:2|0:0,0:0:0:0:
321,126,71545,1,8,0:0:0:0:
45,126,71742,2,0,L|43:248,1,115,2|0,0:0|1:2,0:0:0:0:
227,240,72137,2,0,L|343:240,1,115,2|8,0:0|0:0,0:0:0:0:
168,240,72532,1,2,0:0:0:0:
466,240,72729,6,0,L|342:240,2,115,6|0|10,1:2|0:0|0:0,0:0:0:0:
189,240,73321,2,0,L|186:115,1,115,2|0,0:0|1:2,0:0:0:0:
370,125,73716,2,0,L|246:125,1,115,2|8,0:0|0:0,0:0:0:0:
80,125,74111,1,2,0:0:0:0:
356,125,74308,6,0,L|279:125,1,57.5,4|0,1:2|1:2,0:0:0:0:
206,125,74505,2,0,L|204:188,1,57.5,10|8,0:0|0:0,0:0:0:0:
388,181,74703,2,0,L|390:240,1,57.5,8|8,0:0|0:0,0:0:0:0:
181,239,74900,2,0,L|107:239,1,57.5,6|0,1:2|1:2,0:0:0:0:
331,239,75097,6,0,L|330:165,1,57.5,6|8,1:2|0:0,0:0:0:0:
231,181,75295,2,0,L|229:106,1,57.5,10|8,0:0|1:3,0:0:0:0:
414,123,75492,2,0,L|349:122,1,57.5,8|4,1:3|2:3,0:0:0:0:
136,123,75690,2,0,L|74:123,1,57.5,10|8,1:3|1:3,0:0:0:0:
309,123,75887,6,0,L|435:123,2,115,4|2|8,1:2|0:0|0:0,0:0:0:0:
36,239,76479,2,0,L|34:360,1,115,2|0,0:0|1:2,0:0:0:0:
218,353,76874,2,0,L|351:353,1,115,2|8,0:0|0:0,0:0:0:0:
159,353,77269,1,2,0:0:0:0:
434,353,77466,6,0,L|436:233,1,115,0|2,1:2|0:0,0:0:0:0:
251,238,77861,2,0,L|250:115,1,115,8|0,0:0|0:0,0:0:0:0:
422,123,78255,1,2,1:2:0:0:
145,123,78453,2,0,L|279:123,1,115,2|8,0:0|0:0,0:0:0:0:
87,123,78847,1,2,0:0:0:0:
386,123,79045,6,0,L|505:124,2,115,4|2|8,1:2|0:0|0:0,0:0:0:0:
109,123,79637,2,0,L|108:238,1,115,2|0,0:0|1:2,0:0:0:0:
292,237,80032,2,0,L|174:237,1,115,2|8,0:0|0:0,0:0:0:0:
349,237,80426,1,2,0:0:0:0:
72,237,80624,6,0,L|223:237,2,115,0|2|10,1:2|0:0|0:0,0:0:0:0:
348,237,81216,2,0,L|350:118,1,115,2|0,0:0|1:2,0:0:0:0:
165,122,81611,2,0,L|287:122,1,115,2|8,0:0|0:0,0:0:0:0:
452,122,82005,2,0,L|352:123,1,57.5,2|0,1:2|1:2,0:0:0:0:
184,122,82203,6,0,L|181:242,1,115,4|0,1:2|0:0,0:0:0:0:
364,236,82597,2,0,L|365:358,1,115,10|0,0:0|0:0,0:0:0:0:
88,350,82992,2,0,L|90:232,1,115,2|0,1:2|0:0,0:0:0:0:
216,235,83387,1,8,0:0:0:0:
43,235,83584,1,2,0:0:0:0:
320,235,83782,6,0,L|437:234,2,115,0|2|8,1:2|0:0|0:0,0:0:0:0:
135,235,84374,2,0,L|133:114,1,115,2|0,0:0|1:2,0:0:0:0:
409,120,84769,2,0,L|270:120,1,115,2|8,0:0|0:0,0:0:0:0:
466,120,85163,1,2,0:0:0:0:
166,120,85361,6,0,L|165:243,1,115,6|0,1:2|0:0,0:0:0:0:
337,234,85755,1,10,0:0:0:0:
60,234,85953,2,0,L|58:351,1,115,2|0,0:0|1:2,0:0:0:0:
230,348,86347,1,2,0:0:0:0:
56,348,86545,2,0,L|207:348,1,115,10|2,0:0|0:0,0:0:0:0:
447,348,86940,6,0,P|470:287|388:228,1,172.5,2|0,1:2|1:2,0:0:0:0:
293,226,87334,2,0,L|171:226,1,115,10|2,0:0|1:2,0:0:0:0:
454,226,87729,2,0,L|455:100,1,115,10|0,1:2|0:0,0:0:0:0:
351,111,88025,2,0,L|211:112,1,115,10|0,1:2|0:0,0:0:0:0:
51,111,88321,2,0,L|52:185,1,57.5,10|0,1:2|0:0,0:0:0:0:
261,168,88519,5,6,1:2:0:0:
256,192,88716,12,0,89703,0:0:0:0:
