osu file format v14

[General]
AudioFilename: audio.mp3
AudioLeadIn: 0
PreviewTime: 18650
Countdown: 0
SampleSet: Soft
StackLeniency: 0.7
Mode: 2
LetterboxInBreaks: 0
WidescreenStoryboard: 1

[Editor]
Bookmarks: 3255,3749,4144,4538,4834,43519,44308
DistanceSpacing: 1.1
BeatDivisor: 4
GridSize: 4
TimelineZoom: 2.5

[Metadata]
Title:Deal with (TV Size)
TitleUnicode:Deal with (TV Size)
Artist:OLDCODEX
ArtistUnicode:OLDCODEX
Creator:rew0825
Version:Platter
Source:サーヴァンプ
Tags:Servamp Anime OP Opening Japanese J-Rock JRock Rock J-Metal JMetal Metal Male Vocal Vocals YORKE. Ta_2 鈴木達央 Tatsuhisa Suzuki 小山寿 Hisashi Koyama
BeatmapID:3372320
BeatmapSetID:1646898

[Difficulty]
HPDrainRate:4
CircleSize:3.3
OverallDifficulty:8.1
ApproachRate:8.1
SliderMultiplier:1.96
SliderTickRate:2

[Events]
//Background and Video events
0,0,"BG.jpg",0,0
//Break Periods
//Storyboard Layer 0 (Background)
//Storyboard Layer 1 (Fail)
//Storyboard Layer 2 (Pass)
//Storyboard Layer 3 (Foreground)
//Storyboard Layer 4 (Overlay)
//Storyboard Sound Samples

[TimingPoints]
98,394.736842105263,4,2,1,60,1,0
6413,-100,4,2,1,65,0,0
19045,-100,4,2,1,70,0,1
31676,-100,4,2,1,65,0,0
37992,-100,4,2,1,70,0,1
42729,-100,4,2,1,70,0,0
42828,-100,4,2,1,65,0,0
50722,-100,4,2,1,40,0,0
51216,-100,4,2,1,65,0,0
57926,-100,4,2,1,45,0,0
60097,-100,4,2,1,65,0,0
60887,-100,4,2,1,45,0,0
61479,-100,4,2,1,65,0,0
61874,-100,4,2,1,45,0,0
62466,-100,4,2,1,70,0,0
63255,-100,4,2,1,75,0,1
63354,-100,4,2,1,75,0,0
74900,-100,4,2,1,55,0,0
74999,-100,4,2,1,75,0,0
88519,-100,4,2,1,75,0,0
88617,-100,4,2,1,20,0,0

[Colours]
Combo1 : 226,105,84
Combo2 : 102,152,227
Combo3 : 216,162,101
Combo4 : 222,238,106
Combo5 : 220,124,220

[HitObjects]
250,192,98,6,0,L|153:192,1,98,12|12,2:3|2:3,0:0:0:0:
206,192,394,1,12,2:3:0:0:
303,192,591,1,12,2:3:0:0:
391,192,788,1,12,2:3:0:0:
303,192,986,1,12,2:3:0:0:
186,192,1084,1,12,2:3:0:0:
441,138,3058,5,2,0:0:0:0:
176,138,3255,5,2,1:2:0:0:
121,138,3354,1,0,1:2:0:0:
176,138,3453,1,0,1:2:0:0:
352,138,3650,1,8,0:0:0:0:
297,138,3749,1,8,0:0:0:0:
243,138,3847,1,8,0:0:0:0:
351,138,4045,5,0,1:2:0:0:
405,138,4144,1,0,1:2:0:0:
352,138,4242,1,0,1:2:0:0:
175,138,4440,1,8,0:0:0:0:
121,144,4538,1,8,0:0:0:0:
125,198,4637,1,8,2:3:0:0:
179,200,4736,1,4,2:3:0:0:
291,200,4834,5,2,1:2:0:0:
114,200,5229,2,0,L|113:93,1,98,2|2,0:0|0:0,0:0:0:0:
167,102,5525,1,0,0:0:0:0:
275,102,5624,2,0,L|379:102,1,98,2|2,0:0|0:0,0:0:0:0:
318,102,5920,1,0,0:0:0:0:
210,102,6019,2,0,L|89:102,1,98,14|2,2:3|0:0,0:0:0:0:
376,102,6413,5,6,1:2:0:0:
275,102,6611,1,0,1:2:0:0:
277,155,6709,1,2,1:2:0:0:
376,155,6907,1,0,0:0:0:0:
425,155,7005,1,2,1:2:0:0:
248,155,7203,2,0,P|212:213|273:256,1,147,8|0,0:0|0:0,0:0:0:0:
316,257,7597,2,0,L|435:256,1,98,2|0,0:0|0:0,0:0:0:0:
148,256,7992,5,6,1:2:0:0:
246,256,8190,1,0,1:2:0:0:
244,202,8288,1,2,1:2:0:0:
145,202,8486,1,0,0:0:0:0:
96,202,8584,1,2,1:2:0:0:
272,202,8782,2,0,P|315:160|264:108,1,147,8|0,0:0|0:0,0:0:0:0:
211,108,9176,2,0,L|91:108,1,98,2|2,0:0|0:0,0:0:0:0:
378,108,9571,5,6,1:2:0:0:
279,108,9769,1,0,1:2:0:0:
328,108,9867,1,2,1:2:0:0:
426,108,10065,1,0,0:0:0:0:
377,108,10163,1,10,0:0:0:0:
200,108,10361,1,2,1:2:0:0:
201,205,10558,1,0,1:2:0:0:
250,205,10657,1,2,1:2:0:0:
347,205,10854,1,0,0:0:0:0:
396,205,10953,1,2,1:2:0:0:
131,205,11150,5,10,0:0:0:0:
228,205,11347,1,0,1:2:0:0:
228,254,11446,1,2,1:2:0:0:
129,254,11644,1,0,0:0:0:0:
127,302,11742,1,2,1:2:0:0:
303,302,11940,1,8,0:0:0:0:
205,302,12137,1,0,1:2:0:0:
207,253,12236,1,2,1:2:0:0:
304,253,12433,1,0,0:0:0:0:
353,253,12532,1,2,1:2:0:0:
88,253,12729,5,6,1:2:0:0:
185,253,12926,1,0,1:2:0:0:
184,203,13025,1,2,1:2:0:0:
86,203,13222,1,0,0:0:0:0:
36,203,13321,1,2,1:2:0:0:
212,203,13519,2,0,P|221:160|215:105,1,98,8|0,0:0|1:2,0:0:0:0:
160,105,13815,2,0,P|85:92|45:36,1,147,0|2,1:2|1:2,0:0:0:0:
310,27,14308,5,6,1:2:0:0:
212,27,14505,1,0,1:2:0:0:
261,27,14604,1,2,1:2:0:0:
358,27,14801,1,0,0:0:0:0:
358,76,14900,1,2,1:2:0:0:
181,76,15097,2,0,L|179:186,1,98,8|0,0:0|1:2,0:0:0:0:
233,173,15394,1,0,1:2:0:0:
346,173,15492,2,0,L|347:275,1,98,2|0,0:0|1:2,0:0:0:0:
81,270,15887,6,0,L|79:211,1,49,0|2,1:2|0:0,0:0:0:0:
182,221,16084,2,0,L|291:221,2,98,10|10|0,0:0|0:0|1:2,0:0:0:0:
358,221,16676,2,0,L|360:113,1,98,10|0,0:0|1:2,0:0:0:0:
247,123,16972,2,0,L|111:124,1,98,10|0,0:0|1:2,0:0:0:0:
203,123,17269,1,10,0:0:0:0:
467,107,17466,6,0,L|468:214,1,98,6|8,1:2|0:0,0:0:0:0:
413,204,17762,1,10,0:0:0:0:
305,204,17861,1,0,1:2:0:0:
358,204,17959,1,8,2:3:0:0:
412,204,18058,1,6,2:3:0:0:
147,204,18255,1,10,0:0:0:0:
411,204,18847,1,2,0:0:0:0:
147,204,19045,6,0,L|145:102,1,98,6|8,1:2|0:0,0:0:0:0:
253,106,19341,2,0,L|356:106,1,98,2|0,1:2|1:2,0:0:0:0:
296,106,19637,1,10,0:0:0:0:
31,106,19834,2,0,L|151:106,1,98,2|8,1:2|0:0,0:0:0:0:
237,106,20130,2,0,L|129:106,1,98,2|0,1:2|1:2,0:0:0:0:
139,160,20426,1,10,0:0:0:0:
404,160,20624,6,0,L|405:263,1,98,2|8,1:2|0:0,0:0:0:0:
296,257,20920,2,0,L|183:257,1,98,2|0,1:2|1:2,0:0:0:0:
203,203,21216,1,10,0:0:0:0:
467,203,21413,2,0,L|468:95,1,98,2|8,1:2|0:0,0:0:0:0:
359,105,21709,2,0,L|360:202,1,98,2|0,1:2|1:2,0:0:0:0:
414,203,22005,1,10,0:0:0:0:
148,203,22203,6,0,L|44:202,1,98,2|10,1:2|0:0,0:0:0:0:
104,202,22499,1,0,1:2:0:0:
215,202,22597,1,2,0:0:0:0:
160,202,22696,1,0,1:2:0:0:
105,202,22795,1,10,0:0:0:0:
369,202,22992,2,0,L|487:202,1,98,2|10,1:2|0:0,0:0:0:0:
412,202,23288,1,0,1:2:0:0:
303,202,23387,1,2,0:0:0:0:
357,202,23486,1,0,1:2:0:0:
410,202,23584,1,10,0:0:0:0:
144,202,23782,6,0,L|143:308,1,98,2|8,1:2|0:0,0:0:0:0:
251,299,24078,2,0,L|367:298,1,98,2|0,1:2|1:2,0:0:0:0:
294,298,24374,1,10,0:0:0:0:
29,298,24571,2,0,L|28:184,1,98,2|8,1:2|0:0,0:0:0:0:
82,200,24867,1,0,1:2:0:0:
190,200,24966,1,2,0:0:0:0:
135,200,25065,1,0,1:2:0:0:
81,200,25163,1,8,0:0:0:0:
346,200,25361,6,0,L|349:97,1,98,6|10,1:2|0:0,0:0:0:0:
294,102,25657,1,0,1:2:0:0:
186,102,25755,1,2,0:0:0:0:
131,102,25854,1,0,1:2:0:0:
186,102,25953,1,10,0:0:0:0:
450,102,26150,2,0,L|452:202,1,98,2|10,1:2|0:0,0:0:0:0:
397,199,26446,1,0,1:2:0:0:
288,199,26545,1,2,0:0:0:0:
342,199,26644,1,0,1:2:0:0:
395,199,26742,1,10,0:0:0:0:
129,199,26940,6,0,L|126:313,1,98,2|8,1:2|0:0,0:0:0:0:
239,296,27236,2,0,L|354:295,1,98,2|0,1:2|1:2,0:0:0:0:
282,295,27532,1,10,0:0:0:0:
17,295,27729,2,0,L|16:196,1,98,2|10,1:2|0:0,0:0:0:0:
70,197,28025,1,0,1:2:0:0:
178,197,28124,1,2,0:0:0:0:
124,197,28222,1,0,1:2:0:0:
69,197,28321,1,10,0:0:0:0:
334,197,28519,6,0,L|453:197,1,98,2|8,1:2|0:0,0:0:0:0:
318,197,28815,2,0,L|319:98,1,98,2|0,1:2|1:2,0:0:0:0:
373,99,29111,1,10,0:0:0:0:
108,99,29308,2,0,L|107:215,1,98,2|10,1:2|0:0,0:0:0:0:
161,196,29604,1,0,1:2:0:0:
269,196,29703,1,2,0:0:0:0:
322,196,29801,1,0,1:2:0:0:
320,250,29900,1,10,0:0:0:0:
55,250,30097,6,0,L|54:145,1,98,2|8,1:2|0:0,0:0:0:0:
163,152,30394,2,0,L|165:54,1,98,2|0,1:2|1:2,0:0:0:0:
110,54,30690,1,10,0:0:0:0:
374,54,30887,1,6,1:2:0:0:
405,98,30986,1,8,0:0:0:0:
373,141,31084,1,8,0:0:0:0:
318,143,31183,1,0,1:2:0:0:
204,143,31282,1,10,0:0:0:0:
150,143,31380,1,0,1:2:0:0:
204,143,31479,1,10,2:3:0:0:
468,143,31676,6,0,P|465:206|356:264,1,196,6|2,1:2|0:0,0:0:0:0:
249,264,32269,1,2,1:2:0:0:
425,264,32466,2,0,L|426:159,1,98,10|2,0:0|0:0,0:0:0:0:
317,166,32861,1,2,0:0:0:0:
424,166,33058,1,2,1:2:0:0:
247,166,33255,6,0,L|75:166,2,147,2|2|2,1:2|1:2|1:2,0:0:0:0:
423,166,34045,2,0,L|306:166,1,98,8|2,0:0|1:2,0:0:0:0:
148,166,34440,1,2,0:0:0:0:
94,166,34538,1,0,1:2:0:0:
92,220,34637,1,10,0:0:0:0:
356,220,34834,6,0,L|504:220,2,147,6|2|2,1:2|1:2|1:2,0:0:0:0:
179,220,35624,2,0,L|28:220,2,147,10|2|2,0:0|0:0|1:2,0:0:0:0:
355,220,36413,6,0,L|186:220,2,147,2|2|2,1:2|1:2|1:2,0:0:0:0:
178,220,37203,1,10,0:0:0:0:
124,220,37301,1,8,2:3:0:0:
178,220,37400,1,4,2:3:0:0:
354,220,37597,2,0,L|474:219,1,98,10|0,0:0|0:0,0:0:0:0:
186,219,37992,6,0,L|188:115,1,98,6|2,1:2|1:2,0:0:0:0:
241,121,38288,1,0,1:2:0:0:
344,121,38387,1,2,0:0:0:0:
397,121,38486,1,0,0:0:0:0:
344,121,38584,1,2,1:2:0:0:
78,121,38782,2,0,L|78:234,1,98,10|2,0:0|1:2,0:0:0:0:
132,218,39078,1,0,1:2:0:0:
239,218,39176,1,2,0:0:0:0:
185,218,39275,1,0,1:2:0:0:
131,218,39374,1,2,1:2:0:0:
405,218,39571,6,0,L|405:322,1,98,6|0,1:2|1:2,0:0:0:0:
297,316,39867,2,0,L|186:316,1,98,2|0,1:2|0:0,0:0:0:0:
200,261,40163,1,2,1:2:0:0:
465,261,40361,2,0,P|476:221|466:157,1,98,10|2,0:0|1:2,0:0:0:0:
412,163,40657,1,0,1:2:0:0:
304,163,40755,1,2,0:0:0:0:
359,163,40854,1,0,1:2:0:0:
413,163,40953,1,2,1:2:0:0:
148,163,41150,6,0,L|146:261,1,98,6|0,1:2|1:2,0:0:0:0:
254,260,41446,2,0,L|92:260,1,147,2|2,1:2|1:2,0:0:0:0:
382,260,41940,2,0,L|384:358,1,98,10|0,0:0|1:2,0:0:0:0:
276,357,42236,2,0,L|429:357,1,147,2|2,1:2|1:2,0:0:0:0:
158,357,42729,6,0,L|12:356,2,147,6|2|2,1:2|0:0|0:0,0:0:0:0:
435,314,43519,1,10,0:0:0:0:
441,242,43650,1,0,1:2:0:0:
368,242,43782,1,0,1:2:0:0:
237,242,43913,1,10,0:0:0:0:
166,242,44045,1,8,2:3:0:0:
237,242,44176,1,4,2:3:0:0:
433,242,44308,6,0,L|434:129,1,98,6|0,1:2|1:2,0:0:0:0:
379,144,44604,2,0,L|228:144,1,147,2|2,1:2|1:2,0:0:0:0:
408,144,45097,2,0,L|409:246,1,98,10|0,0:0|1:2,0:0:0:0:
354,241,45394,1,2,1:2:0:0:
246,241,45492,2,0,L|147:241,1,98,2|2,0:0|1:2,0:0:0:0:
413,241,45887,6,0,L|414:138,1,98,2|2,0:0|1:2,0:0:0:0:
306,143,46282,1,2,0:0:0:0:
414,143,46479,1,2,1:2:0:0:
237,143,46676,2,0,L|236:40,1,98,10|0,0:0|0:0,0:0:0:0:
344,45,47071,2,0,L|452:46,1,98,2|2,0:0|1:2,0:0:0:0:
176,45,47466,6,0,L|175:143,1,98,6|2,1:2|1:2,0:0:0:0:
229,142,47762,2,0,L|380:142,1,147,2|2,1:2|1:2,0:0:0:0:
199,142,48255,2,0,L|198:242,1,98,10|2,0:0|1:2,0:0:0:0:
252,239,48551,1,0,1:2:0:0:
360,239,48650,1,2,0:0:0:0:
414,239,48749,1,0,0:0:0:0:
360,239,48847,1,2,1:2:0:0:
94,239,49045,6,0,L|93:135,1,98,2|0,0:0|1:2,0:0:0:0:
201,141,49341,2,0,L|203:42,1,98,2|0,1:2|0:0,0:0:0:0:
148,43,49637,1,2,1:2:0:0:
324,43,49834,2,0,L|450:44,1,98,10|2,0:0|1:2,0:0:0:0:
245,43,50229,1,10,0:0:0:0:
190,43,50328,1,8,0:0:0:0:
136,43,50426,1,8,0:0:0:0:
401,43,50624,5,2,0:0:0:0:
454,43,50722,1,2,0:0:0:0:
401,43,50821,1,2,0:0:0:0:
294,43,51019,1,2,0:0:0:0:
240,51,51117,1,2,0:0:0:0:
244,104,51216,1,0,1:2:0:0:
298,106,51315,1,0,1:2:0:0:
405,106,51413,2,0,L|407:211,1,98,10|0,0:0|0:0,0:0:0:0:
298,203,51808,1,2,0:0:0:0:
405,203,52005,1,2,1:2:0:0:
139,203,52203,6,0,L|138:105,1,98,2|2,0:0|1:2,0:0:0:0:
245,105,52597,1,2,0:0:0:0:
136,105,52795,1,2,0:0:0:0:
312,105,52992,2,0,L|314:203,1,98,10|0,0:0|0:0,0:0:0:0:
205,202,53387,2,0,L|97:201,1,98,2|0,0:0|1:2,0:0:0:0:
372,201,53782,6,0,L|374:97,1,98,6|2,1:2|1:2,0:0:0:0:
319,103,54078,2,0,L|478:105,1,147,2|2,1:2|1:2,0:0:0:0:
289,104,54571,2,0,L|179:104,1,98,10|0,0:0|1:2,0:0:0:0:
245,104,54867,2,0,L|394:104,1,147,2|2,1:2|1:2,0:0:0:0:
126,104,55361,6,0,L|125:208,1,98,2|2,0:0|1:2,0:0:0:0:
232,201,55755,2,0,L|338:200,1,98,2|0,0:0|0:0,0:0:0:0:
327,254,56051,1,0,1:2:0:0:
218,254,56150,1,10,0:0:0:0:
110,254,56347,2,0,P|57:190|137:138,1,196,2|0,1:2|1:2,0:0:0:0:
398,136,56940,6,0,L|401:248,1,98,6|0,1:2|0:0,0:0:0:0:
287,233,57236,2,0,L|287:333,1,98,6|0,1:2|0:0,0:0:0:0:
400,331,57532,1,6,1:2:0:0:
223,331,57926,2,0,L|118:331,2,98,2|2|2,0:0|0:0|0:0,0:0:0:0:
400,331,58519,6,0,P|460:278|394:210,1,196,2|2,0:0|0:0,0:0:0:0:
286,210,59111,1,2,0:0:0:0:
393,210,59308,2,0,L|189:210,1,196,2|2,0:0|0:0,0:0:0:0:
305,210,59900,1,2,0:0:0:0:
40,210,60097,6,0,L|39:106,1,98,6|0,1:2|0:0,0:0:0:0:
153,110,60394,2,0,L|154:13,1,98,6|0,1:2|0:0,0:0:0:0:
41,14,60690,1,6,1:2:0:0:
148,14,60887,2,0,P|210:49|144:119,1,196,2|2,0:0|0:0,0:0:0:0:
35,119,61479,1,8,1:2:0:0:
299,119,61676,6,0,L|301:228,1,98,8|2,0:0|0:0,0:0:0:0:
192,216,62071,2,0,L|191:320,1,98,2|2,0:0|0:0,0:0:0:0:
368,313,62466,1,8,0:0:0:0:
418,293,62565,1,8,0:0:0:0:
412,239,62663,1,0,1:2:0:0:
357,236,62762,1,0,1:2:0:0:
248,236,62861,1,8,0:0:0:0:
194,234,62959,1,8,2:3:0:0:
140,229,63058,1,4,2:3:0:0:
404,229,63255,6,0,P|459:184|385:119,1,196,6|8,1:2|0:0,0:0:0:0:
208,118,63847,2,0,L|207:219,1,98,2|0,0:0|1:2,0:0:0:0:
383,215,64242,2,0,L|495:215,2,98,2|8|2,0:0|0:0|0:0,0:0:0:0:
117,215,64834,6,0,P|52:181|118:111,1,196,0|8,1:2|0:0,0:0:0:0:
223,110,65426,1,0,0:0:0:0:
116,19,65624,1,2,1:2:0:0:
292,19,65821,2,0,L|406:20,2,98,2|8|2,0:0|0:0|0:0,0:0:0:0:
26,19,66413,6,0,P|28:68|148:128,1,196,4|8,1:2|0:0,0:0:0:0:
321,128,67005,2,0,L|322:228,1,98,2|0,0:0|1:2,0:0:0:0:
145,225,67400,2,0,L|29:226,2,98,2|8|2,0:0|0:0|0:0,0:0:0:0:
410,225,67992,6,0,P|461:162|378:111,1,196,0|10,1:2|0:0,0:0:0:0:
207,108,68584,2,0,L|205:211,1,98,2|0,0:0|1:2,0:0:0:0:
382,205,68979,2,0,L|497:206,2,98,2|8|10,0:0|0:0|2:3,0:0:0:0:
116,205,69571,6,0,P|55:154|132:99,1,196,4|10,1:2|0:0,0:0:0:0:
234,97,70163,1,2,0:0:0:0:
57,97,70361,2,0,L|271:97,1,196,2|8,1:2|0:0,0:0:0:0:
144,97,70953,1,2,0:0:0:0:
408,97,71150,6,0,P|466:138|388:207,1,196,0|8,1:2|0:0,0:0:0:0:
221,210,71742,2,0,L|115:210,1,98,2|0,0:0|1:2,0:0:0:0:
299,210,72137,1,2,0:0:0:0:
406,210,72334,2,0,L|408:112,1,98,8|2,0:0|0:0,0:0:0:0:
142,112,72729,6,0,P|81:171|153:233,1,196,6|10,1:2|0:0,0:0:0:0:
323,233,73321,2,0,L|325:132,1,98,2|0,0:0|1:2,0:0:0:0:
147,135,73716,2,0,L|34:135,2,98,2|8|2,0:0|0:0|0:0,0:0:0:0:
412,135,74308,5,4,1:2:0:0:
304,135,74505,1,10,0:0:0:0:
303,189,74604,1,8,0:0:0:0:
406,189,74703,1,8,0:0:0:0:
459,190,74801,1,8,0:0:0:0:
406,189,74900,1,6,1:2:0:0:
141,189,75097,5,6,1:2:0:0:
87,198,75196,1,8,0:0:0:0:
90,251,75295,1,10,0:0:0:0:
143,257,75394,1,8,1:3:0:0:
250,257,75492,1,8,1:3:0:0:
304,255,75591,1,4,2:3:0:0:
357,245,75690,1,10,1:3:0:0:
92,245,75887,6,0,P|44:186|124:130,1,196,4|8,1:2|0:0,0:0:0:0:
300,129,76479,2,0,L|301:228,1,98,2|0,0:0|1:2,0:0:0:0:
124,226,76874,2,0,L|20:227,2,98,2|8|2,0:0|0:0|0:0,0:0:0:0:
389,226,77466,6,0,P|456:180|388:124,1,196,0|8,1:2|0:0,0:0:0:0:
280,123,78058,1,0,0:0:0:0:
387,225,78255,1,2,1:2:0:0:
210,225,78453,1,2,0:0:0:0:
102,225,78650,2,0,L|103:127,1,98,8|2,0:0|0:0,0:0:0:0:
368,127,79045,6,0,P|439:135|472:248,1,196,4|8,1:2|0:0,0:0:0:0:
297,241,79637,2,0,L|171:240,1,98,2|0,0:0|1:2,0:0:0:0:
375,240,80032,1,2,0:0:0:0:
482,240,80229,2,0,L|483:137,1,98,8|2,0:0|0:0,0:0:0:0:
217,142,80624,6,0,L|425:141,1,196,0|10,1:2|0:0,0:0:0:0:
236,141,81216,2,0,L|235:242,1,98,2|0,0:0|1:2,0:0:0:0:
411,238,81611,2,0,L|303:238,2,98,2|8|2,0:0|0:0|1:2,0:0:0:0:
145,238,82203,6,0,P|78:193|146:135,1,196,4|10,1:2|0:0,0:0:0:0:
253,134,82795,1,0,0:0:0:0:
75,42,82992,2,0,L|293:45,1,196,2|8,1:2|0:0,0:0:0:0:
162,44,83584,1,2,0:0:0:0:
427,44,83782,6,0,P|410:106|295:146,1,196,0|8,1:2|0:0,0:0:0:0:
471,146,84374,2,0,L|474:252,1,98,2|0,0:0|1:2,0:0:0:0:
296,243,84769,1,2,0:0:0:0:
403,243,84966,2,0,L|405:141,1,98,8|2,0:0|0:0,0:0:0:0:
139,145,85361,6,0,P|76:191|163:255,1,196,6|10,1:2|0:0,0:0:0:0:
315,262,85953,2,0,P|377:216|308:151,1,196,2|2,0:0|0:0,0:0:0:0:
132,150,86545,2,0,L|19:150,1,98,10|2,0:0|0:0,0:0:0:0:
299,150,86940,6,0,P|380:144|429:49,1,196,2|10,1:2|0:0,0:0:0:0:
320,50,87532,1,2,1:2:0:0:
143,50,87729,2,0,L|142:153,1,98,10|0,1:2|0:0,0:0:0:0:
193,147,88025,1,10,1:2:0:0:
306,147,88222,1,0,0:0:0:0:
357,147,88321,1,10,1:2:0:0:
91,147,88519,5,6,1:2:0:0:
256,192,88815,12,0,89703,0:0:0:0:
