osu file format v14

[General]
AudioFilename: audio.mp3
AudioLeadIn: 0
PreviewTime: 18650
Countdown: 0
SampleSet: Soft
StackLeniency: 0.7
Mode: 2
LetterboxInBreaks: 0
WidescreenStoryboard: 1

[Editor]
Bookmarks: 3255,3749,4144,4538,4834,43519,44308
DistanceSpacing: 1.1
BeatDivisor: 4
GridSize: 4
TimelineZoom: 2.5

[Metadata]
Title:Deal with (TV Size)
TitleUnicode:Deal with (TV Size)
Artist:OLDCODEX
ArtistUnicode:OLDCODEX
Creator:rew0825
Version:Cup
Source:サーヴァンプ
Tags:Servamp Anime OP Opening Japanese J-Rock JRock Rock J-Metal JMetal Metal Male Vocal Vocals YORKE. Ta_2 鈴木達央 Tatsuhisa Suzuki 小山寿 Hisashi Koyama
BeatmapID:3374904
BeatmapSetID:1646898

[Difficulty]
HPDrainRate:2
CircleSize:2.3
OverallDifficulty:6.1
ApproachRate:6.1
SliderMultiplier:1.54
SliderTickRate:1

[Events]
//Background and Video events
0,0,"BG.jpg",0,0
//Break Periods
//Storyboard Layer 0 (Background)
//Storyboard Layer 1 (Fail)
//Storyboard Layer 2 (Pass)
//Storyboard Layer 3 (Foreground)
//Storyboard Layer 4 (Overlay)
//Storyboard Sound Samples

[TimingPoints]
98,394.736842105263,4,2,1,60,1,0
6413,-100,4,2,1,65,0,0
19045,-100,4,2,1,70,0,1
31676,-100,4,2,1,65,0,0
37992,-100,4,2,1,70,0,1
42729,-100,4,2,1,70,0,0
42828,-100,4,2,1,65,0,0
50722,-100,4,2,1,40,0,0
51216,-100,4,2,1,65,0,0
57926,-100,4,2,1,45,0,0
60097,-100,4,2,1,65,0,0
60887,-100,4,2,1,45,0,0
61479,-100,4,2,1,65,0,0
61874,-100,4,2,1,45,0,0
62466,-100,4,2,1,70,0,0
63255,-100,4,2,1,75,0,1
63354,-100,4,2,1,75,0,0
74900,-100,4,2,1,55,0,0
74999,-100,4,2,1,75,0,0
88519,-100,4,2,1,75,0,0
88617,-100,4,2,1,20,0,0

[Colours]
Combo1 : 226,105,84
Combo2 : 102,152,227
Combo3 : 216,162,101
Combo4 : 222,238,106
Combo5 : 220,124,220

[HitObjects]
152,284,98,6,0,P|117:249|153:205,1,115.5,12|12,2:3|2:3,0:0:0:0:
228,205,591,1,12,2:3:0:0:
304,205,788,2,0,L|185:204,1,115.5,12|12,2:3|2:3,0:0:0:0:
302,204,3058,5,2,0:0:0:0:
217,204,3255,6,0,L|216:126,1,77,2|0,1:2|1:2,0:0:0:0:
293,127,3650,2,0,L|374:128,1,77,8|8,0:0|0:0,0:0:0:0:
447,127,4045,2,0,L|448:47,1,77,0|0,1:2|1:2,0:0:0:0:
370,50,4440,2,0,L|277:49,1,77,8|8,0:0|2:3,0:0:0:0:
208,49,4834,5,2,1:2:0:0:
362,49,5229,2,0,P|410:91|359:147,1,154,2|2,0:0|0:0,0:0:0:0:
283,146,5821,1,2,0:0:0:0:
198,146,6019,2,0,L|198:229,1,77,14|2,2:3|0:0,0:0:0:0:
290,223,6413,6,0,L|417:223,2,115.5,6|2|2,1:2|1:2|1:2,0:0:0:0:
205,223,7203,2,0,P|138:204|123:126,1,154,8|2,0:0|0:0,0:0:0:0:
276,128,7992,6,0,P|303:86|277:31,1,115.5,6|2,1:2|1:2,0:0:0:0:
161,31,8584,1,2,1:2:0:0:
245,31,8782,2,0,P|306:43|324:133,1,154,8|2,0:0|0:0,0:0:0:0:
158,123,9571,6,0,L|35:123,2,115.5,6|2|10,1:2|1:2|0:0,0:0:0:0:
242,123,10361,2,0,L|245:253,1,115.5,2|2,1:2|1:2,0:0:0:0:
129,238,10953,1,2,1:2:0:0:
213,238,11150,6,0,L|344:238,2,115.5,10|2|2,0:0|1:2|1:2,0:0:0:0:
128,238,11940,2,0,P|105:197|128:137,1,115.5,8|2,0:0|1:2,0:0:0:0:
243,136,12532,1,2,1:2:0:0:
335,136,12729,6,0,L|468:135,2,115.5,6|2|2,1:2|1:2|1:2,0:0:0:0:
250,136,13519,1,8,0:0:0:0:
246,212,13716,1,0,1:2:0:0:
384,212,14111,1,2,1:2:0:0:
291,212,14308,6,0,L|165:212,2,115.5,6|2|2,1:2|1:2|1:2,0:0:0:0:
375,212,15097,1,8,0:0:0:0:
376,134,15295,1,0,1:2:0:0:
221,134,15690,1,0,1:2:0:0:
136,134,15887,5,0,1:2:0:0:
142,57,16084,1,10,0:0:0:0:
219,57,16282,1,10,0:0:0:0:
372,57,16676,2,0,L|501:57,2,115.5,10|10|10,0:0|0:0|0:0,0:0:0:0:
279,57,17466,6,0,L|277:147,1,77,6|8,1:2|0:0,0:0:0:0:
362,133,17861,2,0,L|364:214,1,77,0|6,1:2|2:3,0:0:0:0:
279,209,18255,1,10,0:0:0:0:
70,267,18847,1,2,0:0:0:0:
162,267,19045,6,0,L|287:267,2,115.5,6|2|10,1:2|1:2|0:0,0:0:0:0:
77,267,19834,2,0,L|75:149,1,115.5,2|2,1:2|1:2,0:0:0:0:
190,151,20426,1,10,0:0:0:0:
274,151,20624,6,0,L|143:151,2,115.5,2|2|10,1:2|1:2|0:0,0:0:0:0:
358,151,21413,2,0,P|384:197|356:249,1,115.5,2|2,1:2|1:2,0:0:0:0:
241,248,22005,1,10,0:0:0:0:
156,248,22203,6,0,P|112:195|165:149,1,154,2|2,1:2|0:0,0:0:0:0:
242,148,22795,1,10,0:0:0:0:
326,148,22992,1,2,1:2:0:0:
171,148,23387,1,2,0:0:0:0:
94,148,23584,1,10,0:0:0:0:
178,147,23782,6,0,L|310:148,2,115.5,2|2|10,1:2|1:2|0:0,0:0:0:0:
93,148,24571,2,0,P|46:189|97:247,1,154,2|2,1:2|0:0,0:0:0:0:
172,246,25163,1,8,0:0:0:0:
264,246,25361,6,0,P|326:233|341:153,1,154,6|2,1:2|0:0,0:0:0:0:
263,152,25953,1,10,0:0:0:0:
186,152,26150,1,2,1:2:0:0:
340,152,26545,1,2,0:0:0:0:
416,152,26742,1,10,0:0:0:0:
331,152,26940,6,0,L|329:34,1,115.5,2|2,1:2|1:2,0:0:0:0:
213,36,27532,1,10,0:0:0:0:
209,112,27729,1,2,1:2:0:0:
363,112,28124,1,2,0:0:0:0:
365,188,28321,1,10,0:0:0:0:
280,188,28519,6,0,L|148:188,2,115.5,2|2|10,1:2|1:2|0:0,0:0:0:0:
364,188,29308,1,2,1:2:0:0:
209,188,29703,1,2,0:0:0:0:
208,111,29900,1,10,0:0:0:0:
292,111,30097,6,0,L|416:111,2,115.5,2|2|10,1:2|1:2|0:0,0:0:0:0:
199,111,30887,1,6,1:2:0:0:
130,94,31084,1,8,0:0:0:0:
138,17,31282,1,10,0:0:0:0:
207,9,31479,1,10,2:3:0:0:
299,9,31676,6,0,P|360:18|425:87,1,154,6|2,1:2|0:0,0:0:0:0:
268,81,32466,2,0,P|207:90|142:159,1,154,10|2,0:0|0:0,0:0:0:0:
298,153,33255,6,0,L|426:153,2,115.5,2|2|2,1:2|1:2|1:2,0:0:0:0:
213,153,34045,1,8,0:0:0:0:
213,229,34242,1,2,1:2:0:0:
367,229,34637,1,10,0:0:0:0:
459,229,34834,6,0,L|460:100,1,115.5,6|2,1:2|1:2,0:0:0:0:
332,113,35426,1,2,1:2:0:0:
247,113,35624,2,0,L|128:114,2,115.5,10|2|2,0:0|0:0|1:2,0:0:0:0:
331,113,36413,6,0,L|332:231,1,115.5,2|2,1:2|1:2,0:0:0:0:
216,228,37005,1,2,1:2:0:0:
138,224,37203,1,10,0:0:0:0:
143,139,37400,1,4,2:3:0:0:
220,132,37597,1,10,0:0:0:0:
389,132,37992,6,0,P|438:173|385:229,1,154,6|2,1:2|0:0,0:0:0:0:
312,229,38584,1,2,1:2:0:0:
227,229,38782,1,10,0:0:0:0:
73,229,39176,1,2,0:0:0:0:
150,229,39374,1,2,1:2:0:0:
242,229,39571,6,0,L|245:111,1,115.5,6|2,1:2|1:2,0:0:0:0:
129,113,40163,1,2,1:2:0:0:
213,113,40361,2,0,P|275:105|266:17,1,154,10|2,0:0|0:0,0:0:0:0:
201,46,40953,1,2,1:2:0:0:
108,46,41150,6,0,L|107:173,1,115.5,6|2,1:2|1:2,0:0:0:0:
222,161,41742,1,2,1:2:0:0:
306,161,41940,2,0,L|309:282,1,115.5,10|2,0:0|1:2,0:0:0:0:
193,276,42532,1,2,1:2:0:0:
100,276,42729,6,0,P|28:211|112:142,1,231,6|2,1:2|0:0,0:0:0:0:
194,141,43519,2,0,L|366:140,1,154,10|10,0:0|0:0,0:0:0:0:
270,140,44111,1,0,0:0:0:0:
177,140,44308,6,0,L|51:141,2,115.5,6|2|2,1:2|1:2|1:2,0:0:0:0:
261,140,45097,2,0,P|306:187|262:252,1,154,10|2,0:0|0:0,0:0:0:0:
93,251,45887,6,0,P|50:204|95:139,1,154,2|2,0:0|0:0,0:0:0:0:
171,139,46479,1,2,1:2:0:0:
255,139,46676,2,0,L|421:140,1,154,10|2,0:0|0:0,0:0:0:0:
239,139,47466,6,0,L|108:140,2,115.5,6|2|2,1:2|1:2|1:2,0:0:0:0:
324,139,48255,2,0,P|367:185|323:251,1,154,10|2,0:0|0:0,0:0:0:0:
246,251,48847,1,2,1:2:0:0:
162,251,49045,6,0,L|159:120,1,115.5,2|2,0:0|1:2,0:0:0:0:
275,136,49637,1,2,1:2:0:0:
360,133,49834,1,10,0:0:0:0:
419,184,50032,1,2,1:2:0:0:
417,261,50229,1,10,0:0:0:0:
263,261,50624,6,0,P|220:203|263:147,1,154,2|2,0:0|0:0,0:0:0:0:
342,147,51216,1,0,1:2:0:0:
427,147,51413,2,0,P|470:207|417:254,1,154,10|2,0:0|0:0,0:0:0:0:
266,253,52203,6,0,L|104:253,1,154,2|2,0:0|0:0,0:0:0:0:
190,253,52795,1,2,0:0:0:0:
274,253,52992,2,0,L|435:252,1,154,10|2,0:0|0:0,0:0:0:0:
258,252,53782,6,0,L|128:253,2,115.5,6|2|2,1:2|1:2|1:2,0:0:0:0:
342,252,54571,2,0,L|343:135,1,115.5,10|2,0:0|1:2,0:0:0:0:
227,136,55163,1,2,1:2:0:0:
142,136,55361,6,0,P|98:185|152:244,1,154,2|2,0:0|0:0,0:0:0:0:
299,243,56150,1,10,0:0:0:0:
383,243,56347,2,0,P|419:199|363:129,1,154,2|0,1:2|1:2,0:0:0:0:
276,129,56940,6,0,L|145:128,2,115.5,6|6|6,1:2|1:2|1:2,0:0:0:0:
414,129,57926,2,0,L|415:295,1,154,2|2,0:0|0:0,0:0:0:0:
329,282,58519,6,0,P|235:257|198:211,1,154,2|2,0:0|0:0,0:0:0:0:
354,215,59308,2,0,L|356:58,1,154,2|2,0:0|0:0,0:0:0:0:
186,61,60097,6,0,L|53:62,2,115.5,6|6|6,1:2|1:2|1:2,0:0:0:0:
270,61,60887,2,0,P|345:69|390:137,1,154,2|2,0:0|0:0,0:0:0:0:
234,128,61676,6,0,P|159:136|114:204,1,154,8|2,0:0|0:0,0:0:0:0:
269,195,62466,1,8,0:0:0:0:
352,180,62663,1,0,1:2:0:0:
341,95,62861,1,8,0:0:0:0:
256,90,63058,1,4,2:3:0:0:
163,91,63255,6,0,P|119:142|170:195,1,154,6|8,1:2|0:0,0:0:0:0:
254,194,63847,2,0,L|421:195,1,154,2|2,0:0|0:0,0:0:0:0:
253,194,64637,1,2,0:0:0:0:
168,194,64834,6,0,P|126:145|186:91,1,154,0|8,1:2|0:0,0:0:0:0:
332,90,65624,1,2,1:2:0:0:
416,90,65821,2,0,P|459:125|408:192,1,154,2|2,0:0|0:0,0:0:0:0:
318,191,66413,6,0,L|155:192,1,154,4|8,1:2|0:0,0:0:0:0:
248,191,67005,2,0,L|405:191,1,154,2|2,0:0|0:0,0:0:0:0:
247,191,67795,1,2,0:0:0:0:
162,191,67992,6,0,P|83:169|71:96,1,154,0|10,1:2|0:0,0:0:0:0:
145,106,68584,1,2,0:0:0:0:
299,106,68979,2,0,P|343:138|286:201,1,154,2|10,0:0|2:3,0:0:0:0:
200,202,69571,6,0,P|135:211|94:297,1,154,4|10,1:2|0:0,0:0:0:0:
247,282,70361,2,0,L|404:282,1,154,2|8,1:2|0:0,0:0:0:0:
231,282,71150,6,0,P|190:222|243:172,1,154,0|8,1:2|0:0,0:0:0:0:
323,172,71742,1,2,0:0:0:0:
168,172,72137,2,0,P|116:158|85:71,1,154,2|2,0:0|0:0,0:0:0:0:
177,70,72729,6,0,L|348:69,1,154,6|10,1:2|0:0,0:0:0:0:
253,69,73321,1,2,0:0:0:0:
98,69,73716,2,0,L|98:233,1,154,2|2,0:0|0:0,0:0:0:0:
118,305,74308,5,4,1:2:0:0:
187,352,74505,1,10,0:0:0:0:
271,353,74703,1,8,0:0:0:0:
117,353,75097,1,6,1:2:0:0:
33,335,75295,1,10,0:0:0:0:
43,251,75492,1,8,1:3:0:0:
127,245,75690,1,10,1:3:0:0:
219,245,75887,6,0,L|383:246,1,154,4|8,1:2|0:0,0:0:0:0:
295,245,76479,2,0,P|221:236|174:173,1,154,2|2,0:0|0:0,0:0:0:0:
329,176,77269,1,2,0:0:0:0:
413,176,77466,6,0,P|454:112|405:67,1,154,0|8,1:2|0:0,0:0:0:0:
251,67,78255,1,2,1:2:0:0:
166,67,78453,2,0,P|119:118|168:171,1,154,2|2,0:0|0:0,0:0:0:0:
259,170,79045,6,0,L|417:169,1,154,4|8,1:2|0:0,0:0:0:0:
335,169,79637,2,0,L|332:331,1,154,2|2,0:0|0:0,0:0:0:0:
178,322,80426,1,2,0:0:0:0:
93,322,80624,6,0,P|47:270|101:221,1,154,0|10,1:2|0:0,0:0:0:0:
182,221,81216,2,0,L|346:220,1,154,2|2,0:0|0:0,0:0:0:0:
331,66,82005,1,2,1:2:0:0:
238,66,82203,6,0,P|160:82|133:150,1,154,4|10,1:2|0:0,0:0:0:0:
286,144,82992,2,0,L|453:144,1,154,2|8,1:2|0:0,0:0:0:0:
270,144,83782,6,0,L|107:144,1,154,0|8,1:2|0:0,0:0:0:0:
193,144,84374,1,2,0:0:0:0:
347,144,84769,2,0,P|397:186|343:238,1,154,2|2,0:0|0:0,0:0:0:0:
254,238,85361,6,0,L|88:238,1,154,6|10,1:2|0:0,0:0:0:0:
184,238,85953,1,2,0:0:0:0:
337,238,86347,1,2,0:0:0:0:
421,238,86545,1,10,0:0:0:0:
266,238,86940,6,0,L|106:239,1,154,2|10,1:2|0:0,0:0:0:0:
266,238,87729,2,0,L|266:107,1,115.5,10|10,1:2|1:2,0:0:0:0:
150,122,88321,1,10,1:2:0:0:
234,122,88519,5,6,1:2:0:0:
256,192,88913,12,0,89703,0:0:0:0:
