osu file format v14

[General]
AudioFilename: audio.mp3
AudioLeadIn: 0
PreviewTime: 19521
Countdown: 0
SampleSet: Soft
StackLeniency: 0.4
Mode: 0
LetterboxInBreaks: 0
WidescreenStoryboard: 1

[Editor]
Bookmarks: 970,4127,6101,19916,32548,38864,45179,57811,60969,64127,65706,76758,89390
DistanceSpacing: 1.2
BeatDivisor: 4
GridSize: 32
TimelineZoom: 1.299999

[Metadata]
Title:Deal with
TitleUnicode:Deal with
Artist:OLDCODEX
ArtistUnicode:OLDCODEX
Creator:Sieg
Version:riffy's Easy
Source:SERVAMP
Tags:themefisto riffy bakari tv size edit version サーヴァンプ ost anime metal rock japanese
BeatmapID:1672059
BeatmapSetID:779144

[Difficulty]
HPDrainRate:2
CircleSize:3
OverallDifficulty:3
ApproachRate:4
SliderMultiplier:1
SliderTickRate:1

[Events]
//Background and Video events
0,0,"2.jpg",0,0
//Break Periods
2,58603,59649
//Storyboard Layer 0 (Background)
//Storyboard Layer 1 (Fail)
//Storyboard Layer 2 (Pass)
//Storyboard Layer 3 (Foreground)
//Storyboard Sound Samples

[TimingPoints]
970,394.736842105263,4,2,69,90,1,0
4127,-100,4,2,69,40,0,0
6101,-100,4,2,69,70,0,0
7285,-100,4,2,69,70,0,1
7335,-100,4,2,69,70,0,0
10443,-100,4,2,69,70,0,0
19719,-100,4,2,69,40,0,0
19917,-100,4,2,69,75,0,1
32548,-100,4,2,69,75,0,1
32597,-100,4,2,69,75,0,0
38469,-100,4,2,69,75,0,0
44390,-100,4,2,69,75,0,0
45180,-100,4,2,69,75,0,1
45229,-100,4,2,69,75,0,0
57812,-100,4,2,69,75,0,0
58404,-100,4,2,69,85,0,1
58452,-100,4,2,69,85,0,0
60969,-100,4,2,69,40,0,0
62350,-100,4,2,69,60,0,0
63535,-100,4,2,69,50,0,0
64127,-100,4,2,69,85,0,1
64176,-100,4,2,69,85,0,0
76759,-100,4,2,69,90,0,1
89341,-100,4,2,69,90,0,0
89391,-100,4,2,69,90,0,1
89439,-100,4,2,69,90,0,0

[Colours]
Combo1 : 46,175,104
Combo2 : 72,134,249
Combo3 : 248,52,71
Combo4 : 231,236,119

[HitObjects]
160,144,4127,6,0,L|148:260,1,100,0|8,0:0|0:0,0:0:0:0:
248,316,4917,2,0,L|260:200,1,100,8|8,0:0|0:0,0:0:0:0:
348,136,5706,1,12,0:0:0:0:
370,276,7285,6,0,B|289:265|289:265|229:309|229:309|174:302,1,200,4|8,0:0|0:0,0:0:0:0:
80,88,8864,6,0,B|160:98|160:98|221:54|221:54|275:61,1,200,8|8,0:0|0:0,0:0:0:0:
436,228,10443,6,0,L|420:336,1,100,4|0,0:0|0:0,0:0:0:0:
312,372,11232,2,0,P|280:360|212:356,1,100,0|0,0:0|0:0,0:0:0:0:
100,324,12022,2,0,L|0:312,2,100,12|0|8,0:0|0:0|0:0,0:0:0:0:
304,196,13601,6,0,B|368:120|368:120|472:136,1,200,4|8,0:0|0:0,0:0:0:0:
288,296,15179,2,0,B|224:372|224:372|120:356,1,200,8|8,0:0|0:0,0:0:0:0:
48,128,16759,6,0,P|60:168|72:240,1,100,12|8,0:3|0:0,0:0:0:0:
188,244,17548,2,0,P|204:196|232:144,1,100,8|0,0:0|0:0,0:0:0:0:
340,116,18337,2,0,P|380:152|416:304,1,200,4|12,0:0|0:0,0:0:0:0:
188,360,19916,5,4,0:0:0:0:
224,244,20311,1,0,0:0:0:0:
140,156,20706,1,8,0:0:0:0:
188,48,21100,1,0,0:0:0:0:
304,80,21496,6,0,L|416:72,1,100
448,184,22285,2,0,L|336:192,1,100,8|0,0:0|0:0,0:0:0:0:
288,296,23074,1,4,0:0:0:0:
196,220,23469,2,0,P|168:232|116:292,2,100,0|8|0,0:0|0:0|0:0,0:0:0:0:
256,116,24653,6,0,L|144:96,1,100,0|0,0:0|0:0,0:0:0:0:
248,20,25442,1,8,0:0:0:0:
356,76,25838,2,0,L|472:64,1,100,8|12,0:3|0:3,0:0:0:0:
428,184,26627,5,0,0:0:0:0:
408,304,27021,1,8,0:0:0:0:
308,236,27416,1,0,0:0:0:0:
280,352,27811,2,0,B|241:325|186:322|186:322|196:279|176:212,1,200,0|8,0:0|0:0,0:0:0:0:
96,136,28995,1,0,0:0:0:0:
28,236,29390,6,0,L|40:348,2,100,4|0|8,0:0|0:0|0:0,0:0:0:0:
108,144,30574,1,0,0:0:0:0:
208,208,30969,1,0,0:0:0:0:
300,128,31364,1,0,0:0:0:0:
400,192,31759,2,0,B|392:216|392:216|408:248|408:248|397:294,1,100,8|8,0:0|0:0,0:0:0:0:
168,352,32943,6,0,B|140:320|80:312|80:312|72:256|28:220,1,200
56,108,34127,1,4,0:0:0:0:
156,176,34522,2,0,L|268:164,1,100,0|8,0:0|0:0,0:0:0:0:
408,352,35706,5,4,0:0:0:0:
376,116,36495,1,8,0:0:0:0:
160,216,37285,2,0,P|204:232|276:228,1,100,4|0,0:0|0:0,0:0:0:0:
360,176,38074,1,8,0:3:0:0:
248,132,38469,1,12,0:3:0:0:
140,348,39258,6,0,P|172:336|292:344,1,150,0|0,0:0|0:0,0:0:0:0:
448,260,40442,2,0,L|296:244,1,150,4|0,0:0|0:0,0:0:0:0:
216,156,41429,2,0,L|268:144,1,50,0|8,0:0|0:0,0:0:0:0:
320,40,42021,5,4,0:0:0:0:
112,156,42811,1,8,0:0:0:0:
280,324,43600,2,0,P|280:272|240:176,1,150,4|0,0:0|0:0,0:0:0:0:
64,56,45179,5,12,0:3:0:0:
64,56,45574,1,0,0:0:0:0:
128,160,45969,2,0,L|116:272,1,100,8|0,0:0|0:0,0:0:0:0:
228,216,46759,2,0,L|240:104,1,100,4|0,0:0|0:0,0:0:0:0:
336,48,47548,1,8,0:0:0:0:
448,260,48337,6,0,P|436:300|336:348,1,150,4|0,0:0|0:0,0:0:0:0:
236,300,49324,2,0,L|80:324,1,150,0|0,0:0|0:0,0:0:0:0:
132,212,50311,1,0,0:0:0:0:
56,120,50706,1,8,0:0:0:0:
128,24,51100,1,8,0:0:0:0:
468,148,52285,6,0,L|456:260,1,100,8|0,0:0|0:0,0:0:0:0:
384,340,53074,1,4,0:0:0:0:
280,280,53469,1,0,0:0:0:0:
160,292,53864,1,8,0:0:0:0:
44,80,54653,6,0,P|88:88|176:24,1,150,4|0,0:0|0:0,0:0:0:0:
458,123,56232,1,0,0:0:0:0:
361,194,56627,1,8,0:0:0:0:
356,312,57022,2,0,L|248:304,1,100,8|8,0:0|0:3,0:0:0:0:
152,364,57811,6,0,B|144:332|116:312|116:312|125:273|125:273|105:213,1,150,12|4,0:3|0:0,0:0:0:0:
256,192,60969,12,0,63338,0:0:0:0:
80,108,64127,6,0,L|200:92,2,100,4|0|8,0:0|0:0|0:0,0:0:0:0:
8,204,65311,1,0,0:0:0:0:
92,292,65706,1,4,0:0:0:0:
184,216,66100,1,0,0:0:0:0:
300,188,66495,1,8,0:0:0:0:
408,356,67285,6,0,P|364:356|296:320,1,100,4|0,0:0|0:0,0:0:0:0:
196,300,68074,2,0,L|88:312,1,100,8|0,0:0|0:0,0:0:0:0:
4,236,68864,1,4,0:0:0:0:
228,148,69653,2,0,L|236:36,1,100,8|0,0:0|0:0,0:0:0:0:
432,184,70837,6,0,P|376:216|308:344,1,200,0|0,0:0|0:0,0:0:0:0:
192,348,72021,2,0,B|160:280|160:280|84:240,1,150,4|0,0:0|0:0,0:0:0:0:
28,148,73008,2,0,B|40:48|40:48|84:12,1,150,0|4,0:0|0:0,0:0:0:0:
164,100,73995,5,0,0:0:0:0:
276,60,74390,2,0,L|396:40,1,100,8|0,0:0|0:0,0:0:0:0:
440,144,75180,2,0,P|424:168|404:240,1,100,4|0,0:0|0:0,0:0:0:0:
440,352,75969,1,8,0:0:0:0:
324,316,76364,1,8,0:3:0:0:
216,364,76758,5,4,0:0:0:0:
32,208,77548,1,12,0:0:0:0:
256,120,78338,2,0,P|244:160|208:228,1,100,12|0,0:0|0:0,0:0:0:0:
100,188,79127,1,12,0:0:0:0:
176,96,79521,1,8,0:0:0:0:
324,284,80311,5,0,0:0:0:0:
444,280,80706,1,12,0:0:0:0:
388,172,81100,1,0,0:0:0:0:
264,164,81495,1,12,0:0:0:0:
208,268,81890,1,0,0:0:0:0:
264,376,82285,1,12,0:0:0:0:
384,356,82680,2,0,B|368:312|368:312|324:268,1,100,0|12,0:0|0:0,0:0:0:0:
104,196,83864,6,0,B|120:240|120:240|164:284,1,100,12|0,0:0|0:0,0:0:0:0:
220,176,84653,2,0,B|204:132|204:132|160:88,1,100,12|0,0:0|0:0,0:0:0:0:
48,88,85442,1,12,0:0:0:0:
8,200,85837,1,8,0:0:0:0:
184,364,86627,6,0,P|224:336|380:344,1,200
464,264,87811,1,12,0:0:0:0:
356,212,88206,1,8,0:3:0:0:
444,128,88601,2,0,L|424:24,1,100,8|8,0:0|0:0,0:0:0:0:
308,0,89390,5,12,0:0:0:0:
