osu file format v14

[General]
AudioFilename: audio.mp3
AudioLeadIn: 0
PreviewTime: 19521
Countdown: 0
SampleSet: Soft
StackLeniency: 0.2
Mode: 0
LetterboxInBreaks: 0
WidescreenStoryboard: 1

[Editor]
Bookmarks: 960,4117,6091,19907,32538,38854,45170,57802,60959,64138,65706,69653,70442,71627,72021,76769,83074,89401
DistanceSpacing: 0.4
BeatDivisor: 4
GridSize: 16
TimelineZoom: 2.899999

[Metadata]
Title:Deal with
TitleUnicode:Deal with
Artist:OLDCODEX
ArtistUnicode:OLDCODEX
Creator:Sieg
Version:TheMefisto's Another
Source:SERVAMP
Tags:themefisto riffy bakari tv size edit version サーヴァンプ ost anime metal rock japanese
BeatmapID:1648043
BeatmapSetID:779144

[Difficulty]
HPDrainRate:6
CircleSize:3.6
OverallDifficulty:8.6
ApproachRate:9.4
SliderMultiplier:3
SliderTickRate:1

[Events]
//Background and Video events
0,0,"2.jpg",0,0
//Break Periods
//Storyboard Layer 0 (Background)
//Storyboard Layer 1 (Fail)
//Storyboard Layer 2 (Pass)
//Storyboard Layer 3 (Foreground)
//Storyboard Sound Samples

[TimingPoints]
970,394.736842105263,4,2,69,90,1,0
4127,-111.111111111111,4,2,69,40,0,0
4522,-71.4285714285714,4,2,69,60,0,0
4917,-111.111111111111,4,2,69,60,0,0
5312,-71.4285714285714,4,2,69,60,0,0
6101,-100,4,2,69,70,0,0
7285,-71.4285714285714,4,2,69,70,0,0
10443,-83.3333333333333,4,2,69,80,0,0
14785,-83.3333333333333,4,2,69,10,0,0
14835,-83.3333333333333,4,2,69,80,0,0
16364,-83.3333333333333,4,2,69,10,0,0
16414,-83.3333333333333,4,2,69,80,0,0
19719,-100,4,2,69,40,0,0
19917,-76.9230769230769,4,2,69,75,0,1
32548,-125,4,2,69,75,0,0
38469,-90.9090909090909,4,2,69,75,0,0
44390,-133.333333333333,4,2,69,80,0,0
45179,-100,4,2,69,75,0,0
45180,-100,4,2,1,80,0,0
45229,-100,4,2,69,75,0,0
51496,-100,4,2,69,45,0,0
51594,-100,4,2,69,50,0,0
51693,-100,4,2,69,55,0,0
51792,-100,4,2,69,60,0,0
51891,-100,4,2,69,65,0,0
51989,-100,4,2,69,70,0,0
52088,-100,4,2,69,75,0,0
57812,-125,4,2,69,75,0,0
58107,-100,4,2,69,50,0,0
58452,-100,4,2,69,85,0,0
58798,-100,4,2,69,30,0,0
60969,-100,4,2,69,40,0,0
62350,-100,4,2,69,60,0,0
63535,-100,4,2,69,50,0,0
64127,-90.9090909090909,4,2,69,75,0,0
76759,-83.3333333333333,4,2,69,80,0,1
89341,-100,4,2,69,80,0,1
89391,-83.3333333333333,4,2,69,80,0,0
89439,-100,4,2,69,80,0,0

[Colours]
Combo1 : 46,175,104
Combo2 : 72,134,249
Combo3 : 248,52,71
Combo4 : 231,236,119

[HitObjects]
138,75,970,5,8,0:0:0:0:
105,119,1068,1,0,0:0:0:0:
95,173,1167,1,8,0:0:0:0:
108,228,1266,1,0,0:0:0:0:
377,359,1463,1,8,0:3:0:0:
210,166,1660,1,8,0:3:0:0:
377,359,1858,1,8,0:0:0:0:
397,313,1956,1,0,0:0:0:0:
423,116,4127,6,0,L|481:132,3,44.999998626709
197,200,4522,6,0,L|125:222,3,69.9999978637696,8|0|0|0,0:0|0:0|0:0|0:0,0:0:0:0:
427,282,4917,6,0,L|485:298,3,44.999998626709
215,66,5312,6,0,L|143:88,5,69.9999978637696,8|0|0|0|8|0,0:0|0:0|0:0|0:0|0:0|0:0,0:0:0:0:
116,71,5706,5,12,0:0:0:0:
1,118,7285,6,0,P|107:142|143:239,1,209.999993591309,4|0,0:0|0:0,0:0:0:0:
128,351,7581,2,0,P|152:245|249:209,1,209.999993591309,0|0,0:0|0:0,0:0:0:0:
240,324,7877,1,0,0:0:0:0:
28,230,8075,1,8,0:0:0:0:
312,43,8667,1,8,0:0:0:0:
352,29,8766,1,8,0:0:0:0:
392,45,8864,6,0,P|432:123|381:270,1,209.999993591309,8|0,0:0|0:0,0:0:0:0:
270,150,9160,2,0,P|169:141|46:183,1,209.999993591309,0|0,0:0|0:0,0:0:0:0:
0,316,9456,1,0,0:0:0:0:
68,55,9654,1,8,0:0:0:0:
203,332,10443,6,0,B|296:351|296:351|376:292,1,179.999994506836,4|0,0:0|0:0,0:0:0:0:
426,185,10739,2,0,B|333:166|333:166|265:217,1,179.999994506836,0|0,0:0|0:0,0:0:0:0:
203,332,11035,1,8,0:0:0:0:
28,184,11232,6,0,B|9:91|9:91|68:11,1,179.999994506836,0|0,0:0|0:0,0:0:0:0:
153,127,11528,2,0,B|172:220|172:220|121:288,1,179.999994506836,0|0,0:0|0:0,0:0:0:0:
28,184,11824,1,0,0:0:0:0:
244,33,12021,5,12,0:0:0:0:
293,287,12219,1,0,0:0:0:0:
268,316,12318,2,0,B|364:358|446:269,1,179.999994506836
319,105,12614,2,0,P|307:147|321:190,1,89.9999972534181
457,34,12811,1,8,0:0:0:0:
171,65,13008,1,0,0:0:0:0:
145,99,13108,2,0,P|234:83|362:132,1,179.999994506836
143,276,13403,2,0,P|99:285|48:328,1,89.9999972534181,0|0,0:0|0:0,0:0:0:0:
248,344,13600,6,0,P|268:256|208:171,1,179.999994506836,4|0,0:0|0:0,0:0:0:0:
73,188,13896,2,0,P|53:100|113:15,1,179.999994506836,0|0,0:0|0:0,0:0:0:0:
226,100,14192,1,0,0:0:0:0:
1,251,14390,1,8,0:0:0:0:
248,344,14587,1,0,0:0:0:0:
218,361,14686,2,0,L|319:352,1,89.9999972534181,0|0,0:0|0:0,0:0:0:0:
489,184,14982,1,8,0:0:0:0:
505,151,15081,1,8,0:0:0:0:
491,118,15179,6,0,P|401:124|324:168,1,179.999994506836,8|0,0:0|0:0,0:0:0:0:
207,269,15475,2,0,P|296:275|373:319,1,179.999994506836,0|0,0:0|0:0,0:0:0:0:
168,374,15771,1,0,0:0:0:0:
255,110,15969,1,8,0:0:0:0:
45,197,16166,1,0,0:0:0:0:
15,213,16265,2,0,L|104:220,1,89.9999972534181,0|0,0:0|0:0,0:0:0:0:
30,59,16561,1,0,0:0:0:0:
94,325,16758,1,12,0:3:0:0:
329,184,16956,6,0,L|239:191,1,89.9999972534181,8|0,0:0|0:0,0:0:0:0:
350,347,17153,2,0,L|439:354,1,89.9999972534181,8|0,0:0|0:0,0:0:0:0:
481,161,17350,1,0,0:0:0:0:
489,125,17449,1,0,0:0:0:0:
496,88,17548,2,0,P|446:82|401:105,1,89.9999972534181,8|0,0:0|0:0,0:0:0:0:
216,60,17745,1,0,0:0:0:0:
208,28,17844,2,0,P|258:22|303:45,1,89.9999972534181,8|0,0:0|0:0,0:0:0:0:
246,219,18041,1,8,0:3:0:0:
254,251,18140,2,0,P|204:245|159:268,1,89.9999972534181,8|0,0:0|0:0,0:0:0:0:
334,364,18337,5,4,0:0:0:0:
87,343,18535,1,8,0:0:0:0:
59,297,18633,1,8,0:0:0:0:
55,242,18732,1,0,0:0:0:0:
76,192,18831,1,8,0:3:0:0:
117,158,18929,1,8,0:3:0:0:
170,146,19028,1,8,0:3:0:0:
168,260,19127,5,12,0:0:0:0:
379,185,19917,6,0,P|396:102|300:14,1,194.999991073609,4|8,0:0|0:0,0:0:0:0:
158,67,20212,1,0,0:0:0:0:
261,322,20410,1,0,0:0:0:0:
239,352,20509,2,0,L|230:255,1,97.4999955368044,8|0,0:0|0:0,0:0:0:0:
40,82,20706,2,0,L|21:276,1,194.999991073609,0|8,0:0|0:0,0:0:0:0:
147,371,21002,1,0,0:0:0:0:
369,214,21199,1,0,0:0:0:0:
403,187,21298,2,0,P|449:199|496:188,1,97.4999955368044,8|0,0:0|0:0,0:0:0:0:
300,109,21495,6,0,P|291:248|336:300,1,194.999991073609,0|8,0:0|0:0,0:0:0:0:
453,100,21791,1,0,0:0:0:0:
468,331,21989,1,0,0:0:0:0:
482,363,22088,2,0,P|435:375|388:364,1,97.4999955368044,8|0,0:0|0:0,0:0:0:0:
178,243,22285,2,0,L|170:348,1,97.4999955368044,0|0,0:0|0:0,0:0:0:0:
35,157,22482,1,8,0:0:0:0:
9,133,22581,2,0,L|17:238,1,97.4999955368044,0|0,0:0|0:0,0:0:0:0:
152,47,22778,1,0,0:0:0:0:
178,23,22877,2,0,L|170:128,1,97.4999955368044,8|0,0:0|0:0,0:0:0:0:
354,243,23074,6,0,P|459:247|512:140,1,194.999991073609,4|8,0:0|0:0,0:0:0:0:
428,23,23370,1,0,0:0:0:0:
266,239,23567,1,0,0:0:0:0:
270,282,23667,2,0,P|232:311|184:310,1,97.4999955368044,8|0,0:0|0:0,0:0:0:0:
22,167,23864,2,0,P|45:253|5:385,1,194.999991073609,0|8,0:0|0:0,0:0:0:0:
175,193,24160,1,0,0:0:0:0:
385,103,24357,1,0,0:0:0:0:
407,71,24456,2,0,P|352:74|284:88,1,97.4999955368044,8|0,0:0|0:0,0:0:0:0:
148,228,24653,6,0,P|248:233|372:259,1,194.999991073609,0|8,0:0|0:0,0:0:0:0:
499,367,24949,1,0,0:0:0:0:
196,341,25146,1,0,0:0:0:0:
169,319,25245,2,0,P|114:322|46:336,1,97.4999955368044,8|0,0:0|0:0,0:0:0:0:
15,131,25443,2,0,L|29:24,1,97.4999955368044
249,40,25640,1,8,0:0:0:0:
281,18,25739,2,0,L|268:114,1,97.4999955368044,8|8,0:3|0:3,0:0:0:0:
481,221,26035,1,8,0:3:0:0:
470,294,26133,1,8,0:3:0:0:
465,370,26232,6,0,P|448:274|352:188,1,194.999991073609,12|8,0:3|0:0,0:0:0:0:
271,368,26528,1,0,0:0:0:0:
292,99,26725,1,0,0:0:0:0:
315,135,26824,2,0,P|319:85|362:39,1,97.4999955368044,8|0,0:0|0:0,0:0:0:0:
321,280,27021,2,0,P|230:263|127:278,1,194.999991073609,0|8,0:0|0:0,0:0:0:0:
315,135,27317,1,0,0:0:0:0:
91,46,27515,1,0,0:0:0:0:
56,66,27614,2,0,L|43:174,1,97.4999955368044,8|0,0:0|0:0,0:0:0:0:
223,366,27811,6,0,P|318:339|349:245,1,194.999991073609,0|8,0:0|0:0,0:0:0:0:
211,93,28107,2,0,P|185:184|243:259,1,194.999991073609,0|0,0:0|0:0,0:0:0:0:
379,133,28403,2,0,P|331:136|292:164,1,97.4999955368044,8|0,0:0|0:0,0:0:0:0:
417,340,28600,1,0,0:0:0:0:
491,112,28798,1,8,0:0:0:0:
480,64,28896,1,0,0:0:0:0:
470,15,28995,2,0,L|346:6,1,97.4999955368044,0|0,0:0|0:0,0:0:0:0:
173,155,29193,2,0,L|297:146,1,97.4999955368044,8|0,0:0|0:0,0:0:0:0:
200,356,29390,6,0,P|102:338|5:341,1,194.999991073609,4|8,0:0|0:0,0:0:0:0:
47,150,29686,2,0,P|94:50|197:31,1,194.999991073609,0|0,0:0|0:0,0:0:0:0:
364,121,29982,2,0,L|351:217,1,97.4999955368044,8|0,0:0|0:0,0:0:0:0:
137,299,30179,1,0,0:0:0:0:
277,48,30377,1,8,0:0:0:0:
321,29,30475,1,0,0:0:0:0:
365,10,30574,2,0,L|464:23,1,97.4999955368044,0|0,0:0|0:0,0:0:0:0:
326,215,30772,2,0,L|227:228,1,97.4999955368044,8|0,0:0|0:0,0:0:0:0:
25,380,30969,6,0,P|53:293|39:187,1,194.999991073609,0|8,0:0|0:0,0:0:0:0:
125,10,31265,2,0,P|106:104|143:193,1,194.999991073609,0|0,0:0|0:0,0:0:0:0:
282,333,31561,2,0,L|378:320,1,97.4999955368044,12|0,0:0|0:0,0:0:0:0:
449,139,31758,5,0,0:0:0:0:
451,80,31858,1,8,0:0:0:0:
419,31,31955,1,8,0:0:0:0:
365,10,32054,1,8,0:3:0:0:
263,79,32153,5,8,0:0:0:0:
261,138,32251,1,8,0:3:0:0:
293,187,32350,1,8,0:3:0:0:
347,208,32449,1,8,0:3:0:0:
356,109,32548,5,12,0:0:0:0:
124,66,32844,2,0,P|68:111|63:188,1,120,0|0,0:0|0:0,0:0:0:0:
159,163,33140,1,0,0:0:0:0:
75,379,33337,1,8,0:0:0:0:
239,283,33535,1,0,0:0:0:0:
243,254,33633,1,0,0:0:0:0:
237,225,33732,1,0,0:0:0:0:
94,250,33929,1,0,0:0:0:0:
290,361,34127,6,0,P|349:368|406:351,1,120,4|0,0:0|0:0,0:0:0:0:
483,230,34423,2,0,P|423:237|366:220,1,120,0|0,0:0|0:0,0:0:0:0:
313,59,34719,1,0,0:0:0:0:
268,28,34817,1,0,0:0:0:0:
214,38,34916,2,0,L|215:173,1,120,8|0,0:0|0:0,0:0:0:0:
92,294,35311,1,0,0:0:0:0:
88,265,35409,1,0,0:0:0:0:
94,236,35508,1,0,0:0:0:0:
294,236,35706,6,0,L|178:266,1,120,4|0,0:0|0:0,0:0:0:0:
112,373,36002,1,0,0:0:0:0:
85,145,36298,1,0,0:0:0:0:
268,9,36495,2,0,L|151:38,1,120,8|0,0:0|0:0,0:0:0:0:
122,31,36791,1,0,0:0:0:0:
92,26,36890,1,0,0:0:0:0:
0,200,37087,1,0,0:0:0:0:
237,157,37285,6,0,L|242:290,1,120,4|0,0:0|0:0,0:0:0:0:
349,356,37581,2,0,L|353:236,1,120,0|0,0:0|0:0,0:0:0:0:
427,149,37877,1,0,0:0:0:0:
244,61,38074,1,8,0:3:0:0:
196,66,38173,1,8,0:3:0:0:
158,95,38271,1,8,0:3:0:0:
139,139,38370,1,8,0:3:0:0:
174,222,38469,6,0,P|174:78|312:114,1,330.000010070801,12|0,0:3|0:0,0:0:0:0:
222,308,39061,5,0,0:0:0:0:
181,313,39160,1,0,0:0:0:0:
140,315,39259,2,0,L|41:278,1,82.5000025177003
0,176,39456,1,0,0:0:0:0:
244,25,39653,2,0,L|250:121,1,82.5000025177003,8|0,0:0|0:0,0:0:0:0:
333,268,39851,1,0,0:0:0:0:
330,309,39950,1,0,0:0:0:0:
327,350,40048,2,0,P|377:331|414:339,1,82.5000025177003,0|0,0:0|0:0,0:0:0:0:
384,189,40245,2,0,P|331:173|298:180,1,82.5000025177003,0|0,0:0|0:0,0:0:0:0:
97,352,40443,6,0,P|91:278|119:182,1,165.000005035401,4|0,0:0|0:0,0:0:0:0:
193,22,40739,2,0,P|215:100|210:182,1,165.000005035401,0|0,0:0|0:0,0:0:0:0:
330,309,41035,2,0,P|372:311|414:291,1,82.5000025177003,0|0,0:0|0:0,0:0:0:0:
305,177,41232,1,8,0:0:0:0:
26,290,41429,1,0,0:0:0:0:
10,251,41528,1,0,0:0:0:0:
21,211,41627,2,0,L|144:226,1,82.5000025177003,8|8,0:0|0:0,0:0:0:0:
250,340,41824,2,0,L|127:355,1,82.5000025177003,8|8,0:3|0:3,0:0:0:0:
397,220,42021,5,4,0:0:0:0:
197,44,42219,1,0,0:0:0:0:
156,25,42318,2,0,P|189:91|127:176,1,165.000005035401,0|0,0:0|0:0,0:0:0:0:
23,75,42614,2,0,P|64:74|101:93,1,82.5000025177003,0|0,0:0|0:0,0:0:0:0:
89,231,42811,1,8,0:0:0:0:
323,52,43008,1,0,0:0:0:0:
346,19,43107,2,0,P|338:119|350:188,1,165.000005035401,0|8,0:0|0:3,0:0:0:0:
451,307,43403,2,0,P|407:302|351:316,1,82.5000025177003,8|0,0:3|0:0,0:0:0:0:
183,374,43601,6,0,B|149:329|149:329|197:265|197:265|149:201|149:201|267:124|229:17|122:-27|50:45|55:108,1,577.500017623902,4|0,0:0|0:0,0:0:0:0:
36,245,44390,6,0,L|11:338,2,75.000002861023,8|0|0,0:0|0:0|0:0,0:0:0:0:
134,106,44785,5,8,0:0:0:0:
260,211,44916,5,8,0:3:0:0:
348,71,45048,5,0,0:0:0:0:
474,176,45179,5,12,0:3:0:0:
336,368,45377,1,0,0:0:0:0:
296,378,45475,2,0,P|206:338|127:367,1,150,0|0,0:0|0:0,0:0:0:0:
46,373,45771,1,0,0:0:0:0:
0,120,45969,2,0,L|85:130,1,75,8|0,0:0|0:0,0:0:0:0:
204,218,46166,1,0,0:0:0:0:
243,237,46265,2,0,L|87:255,1,150,0|0,0:0|0:0,0:0:0:0:
166,135,46561,1,0,0:0:0:0:
315,347,46758,5,4,0:0:0:0:
391,108,46956,1,8,0:3:0:0:
375,25,47054,1,0,0:0:0:0:
110,8,47252,1,8,0:3:0:0:
94,91,47350,1,0,0:0:0:0:
296,241,47548,2,0,P|368:250|416:306,1,150,8|0,0:0|0:0,0:0:0:0:
214,311,47844,2,0,P|185:243|210:174,1,150,0|0,0:0|0:0,0:0:0:0:
327,93,48140,1,0,0:0:0:0:
315,347,48337,5,4,0:0:0:0:
74,256,48535,1,0,0:0:0:0:
38,237,48633,2,0,P|111:218|185:227,1,150,0|0,0:0|0:0,0:0:0:0:
71,356,48929,1,0,0:0:0:0:
13,103,49127,1,8,0:0:0:0:
220,38,49324,1,0,0:0:0:0:
257,10,49423,2,0,L|251:85,1,75
193,333,49621,1,0,0:0:0:0:
156,361,49719,2,0,L|168:205,1,150
385,110,50114,5,0,0:0:0:0:
426,92,50213,2,0,L|499:107,1,75
510,297,50508,1,0,0:0:0:0:
480,331,50607,1,0,0:0:0:0:
450,365,50706,2,0,P|402:370|375:359,1,75,8|0,0:0|0:0,0:0:0:0:
263,205,50903,2,0,P|311:210|338:199,1,75,0|0,0:0|0:0,0:0:0:0:
196,28,51100,1,8,0:0:0:0:
144,37,51199,1,8,0:0:0:0:
104,72,51298,1,8,0:3:0:0:
98,123,51396,1,8,0:3:0:0:
108,134,51495,5,0,0:0:0:0:
115,147,51593,1,0,0:0:0:0:
120,161,51692,1,0,0:0:0:0:
120,176,51791,1,0,0:0:0:0:
117,191,51891,1,0,0:0:0:0:
111,204,51988,1,0,0:0:0:0:
78,245,52087,5,0,0:0:0:0:
66,297,52186,1,0,0:0:0:0:
85,348,52285,2,0,P|150:320|245:338,1,150,8|0,0:0|0:0,0:0:0:0:
352,266,52581,2,0,P|426:275|495:247,1,150
340,120,52877,1,0,0:0:0:0:
311,349,53074,5,4,0:0:0:0:
173,126,53271,1,8,0:3:0:0:
158,38,53370,1,0,0:0:0:0:
28,228,53567,1,8,0:3:0:0:
13,316,53666,1,0,0:0:0:0:
314,149,53864,2,0,P|245:118|124:155,1,150,8|0,0:0|0:0,0:0:0:0:
28,228,54160,2,0,P|101:234|163:276,1,150
68,376,54456,1,0,0:0:0:0:
50,114,54653,5,4,0:0:0:0:
283,233,54850,1,0,0:0:0:0:
309,269,54949,2,0,L|508:283,1,150
508,155,55245,1,0,0:0:0:0:
231,35,55443,2,0,L|236:118,1,75,8|0,0:0|0:0,0:0:0:0:
109,269,55640,1,0,0:0:0:0:
75,240,55739,2,0,L|70:165,1,75,0|0,0:0|0:0,0:0:0:0:
274,359,56035,1,0,0:0:0:0:
39,340,56232,5,0,0:0:0:0:
332,205,56430,2,0,P|342:240|335:289,1,75
224,142,56627,1,8,0:0:0:0:
247,104,56725,1,0,0:0:0:0:
285,81,56824,1,0,0:0:0:0:
330,79,56923,1,0,0:0:0:0:
401,155,57022,2,0,P|441:162|494:141,1,75,8|0,0:0|0:0,0:0:0:0:
248,249,57219,2,0,P|208:256|155:235,1,75,0|0,0:0|0:0,0:0:0:0:
62,32,57416,1,8,0:3:0:0:
54,84,57515,1,8,0:3:0:0:
46,136,57614,1,8,0:3:0:0:
38,188,57712,1,8,0:3:0:0:
77,288,57811,5,12,0:3:0:0:
435,28,58107,1,4,0:0:0:0:
289,372,58403,1,12,0:0:0:0:
217,86,58798,5,0,0:0:0:0:
250,73,58995,1,0,0:0:0:0:
283,60,59192,1,0,0:0:0:0:
397,222,59390,5,0,0:0:0:0:
430,235,59587,1,0,0:0:0:0:
463,248,59784,1,0,0:0:0:0:
496,261,59982,1,0,0:0:0:0:
308,342,60179,5,0,0:0:0:0:
217,306,60377,1,0,0:0:0:0:
350,170,60574,5,0,0:0:0:0:
441,134,60771,1,0,0:0:0:0:
115,35,60969,5,4,0:0:0:0:
461,367,61265,1,4,0:0:0:0:
45,289,61561,1,4,0:0:0:0:
359,89,62350,5,8,0:0:0:0:
342,176,62449,1,8,0:0:0:0:
325,265,62548,1,8,0:0:0:0:
256,192,62597,12,0,63337,0:0:0:0:
227,116,64127,6,0,P|291:58|378:101,1,165.000005035401,4|0,0:0|0:0,0:0:0:0:
344,270,64423,2,0,P|287:214|305:137,1,165.000005035401,0|0,0:0|0:0,0:0:0:0:
447,182,64719,2,0,L|340:192,1,82.5000025177003,0|0,0:0|0:0,0:0:0:0:
204,344,64916,2,0,L|368:359,1,165.000005035401,8|0,0:0|0:0,0:0:0:0:
105,210,65311,2,0,P|90:171|94:130,1,82.5000025177003,0|0,0:0|0:0,0:0:0:0:
237,36,65509,2,0,P|241:76|226:115,1,82.5000025177003
162,313,65706,6,0,B|84:334|84:334|11:285,1,165.000005035401,4|0,0:0|0:0,0:0:0:0:
200,216,66002,2,0,B|259:270|259:270|256:357,1,165.000005035401,0|0,0:0|0:0,0:0:0:0:
105,210,66298,2,0,L|113:122,1,82.5000025177003,0|0,0:0|0:0,0:0:0:0:
293,30,66495,2,0,P|369:1|448:20,1,165.000005035401,8|0,0:0|0:0,0:0:0:0:
511,157,66791,1,0,0:0:0:0:
489,198,66890,2,0,P|442:195|403:209,1,82.5000025177003,0|0,0:0|0:0,0:0:0:0:
228,131,67088,2,0,P|268:128|307:142,1,82.5000025177003
292,364,67285,6,0,P|245:297|255:217,1,165.000005035401,4|0,0:0|0:0,0:0:0:0:
366,70,67581,2,0,P|284:38|190:47,1,165.000005035401,0|0,0:0|0:0,0:0:0:0:
117,191,67877,2,0,P|129:229|124:270,1,82.5000025177003,0|0,0:0|0:0,0:0:0:0:
0,82,68074,2,0,L|85:90,1,82.5000025177003,8|0,0:0|0:0,0:0:0:0:
208,142,68272,2,0,L|290:134,1,82.5000025177003
397,48,68469,1,0,0:0:0:0:
498,288,68666,1,0,0:0:0:0:
305,142,68864,6,0,P|326:223|288:314,1,165.000005035401,4|0,0:0|0:0,0:0:0:0:
197,359,69160,2,0,P|280:338|371:376,1,165.000005035401
199,218,69456,1,0,0:0:0:0:
428,98,69653,2,0,P|473:100|511:120,1,82.5000025177003,8|0,0:0|0:0,0:0:0:0:
355,235,69851,2,0,P|317:252|276:253,1,82.5000025177003
185,56,70048,1,0,0:0:0:0:
137,44,70146,1,8,0:0:0:0:
88,54,70245,1,8,0:0:0:0:
59,94,70344,1,8,0:3:0:0:
26,199,70443,6,0,L|37:366,1,165.000005035401,12|0,0:3|0:0,0:0:0:0:
194,276,70739,1,0,0:0:0:0:
232,294,70838,2,0,P|241:248|237:213,1,82.5000025177003
137,131,71035,1,0,0:0:0:0:
392,15,71232,2,0,P|382:99|395:186,1,165.000005035401,8|0,0:0|0:0,0:0:0:0:
254,354,71627,2,0,P|206:342|167:348,1,82.5000025177003,0|0,0:0|0:0,0:0:0:0:
31,265,71824,2,0,P|79:253|118:259,1,82.5000025177003,0|0,0:0|0:0,0:0:0:0:
247,90,72021,6,0,L|251:282,1,165.000005035401,4|0,0:0|0:0,0:0:0:0:
389,343,72318,2,0,L|392:178,1,165.000005035401
487,22,72614,2,0,L|489:136,1,82.5000025177003,0|0,0:0|0:0,0:0:0:0:
492,321,72811,1,8,0:0:0:0:
334,42,73008,1,0,0:0:0:0:
295,27,73107,1,0,0:0:0:0:
255,38,73206,2,0,P|264:82|250:128,1,82.5000025177003,0|0,0:0|0:0,0:0:0:0:
75,229,73403,2,0,P|66:185|80:139,1,82.5000025177003,0|0,0:0|0:0,0:0:0:0:
229,296,73600,6,0,P|312:262|409:276,1,165.000005035401,4|0,0:0|0:0,0:0:0:0:
490,130,73896,1,0,0:0:0:0:
475,91,73995,2,0,P|425:70|366:78,1,82.5000025177003,0|0,0:0|0:0,0:0:0:0:
285,170,74192,1,0,0:0:0:0:
59,55,74390,2,0,L|63:148,1,82.5000025177003,8|0,0:0|0:0,0:0:0:0:
161,298,74588,2,0,L|165:216,1,82.5000025177003
240,76,74785,1,0,0:0:0:0:
63,233,74982,1,0,0:0:0:0:
269,343,75179,6,0,P|356:358|410:295,1,165.000005035401,4|0,0:0|0:0,0:0:0:0:
370,131,75475,2,0,P|320:194|325:275,1,165.000005035401,0|0,0:0|0:0,0:0:0:0:
490,356,75771,1,0,0:0:0:0:
490,35,75969,5,8,0:0:0:0:
440,43,76067,1,8,0:0:0:0:
390,51,76166,1,8,0:3:0:0:
340,59,76265,1,8,0:3:0:0:
270,149,76364,5,8,0:3:0:0:
220,141,76462,1,0,0:0:0:0:
170,133,76561,1,0,0:0:0:0:
120,125,76660,1,0,0:3:0:0:
50,35,76759,6,0,P|86:132|39:219,1,179.999994506836,4|0,0:0|0:0,0:0:0:0:
32,296,77054,1,0,0:0:0:0:
0,327,77153,2,0,L|91:334,1,89.9999972534181
195,241,77351,2,0,L|284:234,1,89.9999972534181
444,356,77548,2,0,P|421:274|457:183,1,179.999994506836,12|0,0:0|0:0,0:0:0:0:
346,87,77844,1,0,0:0:0:0:
309,63,77943,2,0,P|265:69|237:104,1,89.9999972534181
308,255,78140,1,0,0:0:0:0:
28,348,78337,6,0,P|135:358|221:324,1,179.999994506836,12|0,0:0|0:0,0:0:0:0:
338,226,78633,2,0,P|231:236|145:202,1,179.999994506836
84,83,78929,1,0,0:0:0:0:
363,119,79127,2,0,P|428:165|440:262,1,179.999994506836,12|0,0:0|0:0,0:0:0:0:
298,325,79423,1,0,0:0:0:0:
274,364,79522,2,0,P|320:368|361:357,1,89.9999972534181,8|0,0:0|0:0,0:0:0:0:
253,220,79719,2,0,P|207:224|166:213,1,89.9999972534181
38,46,79916,6,0,L|47:236,1,179.999994506836,4|0,0:0|0:0,0:0:0:0:
175,89,80212,1,0,0:0:0:0:
215,114,80311,2,0,L|219:24,1,89.9999972534181
362,161,80509,2,0,L|366:250,1,89.9999972534181
220,363,80706,2,0,P|143:318|55:327,1,179.999994506836,12|0,0:0|0:0,0:0:0:0:
126,180,81002,1,0,0:0:0:0:
147,146,81101,2,0,P|183:124|230:121,1,89.9999972534181
288,225,81298,1,0,0:0:0:0:
20,230,81495,6,0,P|16:132|86:62,1,179.999994506836,12|0,0:0|0:0,0:0:0:0:
229,120,81791,2,0,P|321:126|404:63,1,179.999994506836
193,13,82087,1,0,0:0:0:0:
138,276,82285,2,0,L|146:381,1,89.9999972534181,12|0,0:0|0:0,0:0:0:0:
290,213,82482,2,0,L|283:302,1,89.9999972534181
442,150,82679,1,0,0:0:0:0:
445,202,82779,1,0,0:0:0:0:
449,254,82877,2,0,L|457:359,1,89.9999972534181,8|0,0:0|0:0,0:0:0:0:
339,116,83074,5,12,0:0:0:0:
299,92,83173,2,0,P|257:111|195:101,1,89.9999972534181
40,41,83370,2,0,P|123:10|214:14,1,179.999994506836
124,177,83667,2,0,L|131:269,1,89.9999972534181
302,381,83864,2,0,L|315:201,1,179.999994506836,12|0,0:0|0:0,0:0:0:0:
436,77,84160,1,0,0:0:0:0:
473,50,84259,2,0,P|488:92|490:136,1,89.9999972534181
410,292,84456,1,0,0:0:0:0:
202,46,84653,6,0,P|115:59|88:167,1,179.999994506836,12|0,0:0|0:0,0:0:0:0:
213,278,84949,2,0,P|227:192|168:129,1,179.999994506836
35,255,85245,1,0,0:0:0:0:
51,306,85344,1,0,0:0:0:0:
67,357,85443,2,0,L|162:373,1,89.9999972534181,12|0,0:0|0:0,0:0:0:0:
321,306,85640,2,0,L|409:291,1,89.9999972534181
141,171,85838,2,0,L|236:187,1,89.9999972534181,8|0,0:0|0:0,0:0:0:0:
395,120,86035,2,0,L|483:105,1,89.9999972534181
224,21,86232,5,12,0:0:0:0:
491,220,86429,1,0,0:0:0:0:
506,271,86528,1,0,0:0:0:0:
489,321,86627,2,0,P|447:292|380:302,1,89.9999972534181
216,273,86824,2,0,P|260:268|295:242,1,89.9999972534181
316,34,87021,2,0,P|241:80|225:166,1,179.999994506836,12|0,0:0|0:0,0:0:0:0:
425,182,87317,1,0,0:0:0:0:
415,142,87417,2,0,P|372:130|329:141,1,89.9999972534181
253,357,87614,2,0,P|210:368|167:356,1,89.9999972534181
9,215,87811,6,0,L|17:125,1,89.9999972534181,12|0,0:0|0:0,0:0:0:0:
232,31,88008,1,8,0:3:0:0:
285,24,88107,1,8,0:3:0:0:
330,54,88206,1,8,0:3:0:0:
490,334,88403,2,0,L|376:345,1,89.9999972534181,8|8,0:0|0:0,0:0:0:0:
256,203,88601,2,0,L|345:211,1,89.9999972534181,8|8,0:0|0:0,0:0:0:0:
106,357,88797,1,0,0:0:0:0:
89,305,88896,1,8,0:0:0:0:
99,252,88995,1,8,0:0:0:0:
129,206,89094,1,8,0:3:0:0:
134,152,89192,1,8,0:3:0:0:
116,100,89291,1,8,0:0:0:0:
5,166,89390,5,12,0:0:0:0:
