osu file format v14

[General]
AudioFilename: audio.mp3
AudioLeadIn: 0
PreviewTime: 19521
Countdown: 0
SampleSet: Soft
StackLeniency: 0.4
Mode: 0
LetterboxInBreaks: 0
WidescreenStoryboard: 1

[Editor]
Bookmarks: 970,4127,6101,19916,32548,38864,45179,57811,60969,64127,65706,76758,89390
DistanceSpacing: 1.2
BeatDivisor: 2
GridSize: 16
TimelineZoom: 1.699999

[Metadata]
Title:Deal with
TitleUnicode:Deal with
Artist:OLDCODEX
ArtistUnicode:OLDCODEX
Creator:Sieg
Version:Normal
Source:SERVAMP
Tags:themefisto riffy bakari tv size edit version サーヴァンプ ost anime metal rock japanese
BeatmapID:1671982
BeatmapSetID:779144

[Difficulty]
HPDrainRate:4
CircleSize:3
OverallDifficulty:5
ApproachRate:6
SliderMultiplier:1.4
SliderTickRate:1

[Events]
//Background and Video events
0,0,"2.jpg",0,0
//Break Periods
2,58604,61300
//Storyboard Layer 0 (Background)
//Storyboard Layer 1 (Fail)
//Storyboard Layer 2 (Pass)
//Storyboard Layer 3 (Foreground)
//Storyboard Sound Samples

[TimingPoints]
970,394.736842105263,4,2,69,90,1,0
4127,-100,4,2,69,40,0,0
6101,-83.3333333333333,4,2,69,70,0,0
7285,-83.3333333333333,4,2,69,70,0,1
7335,-83.3333333333333,4,2,69,70,0,0
10443,-83.3333333333333,4,2,69,70,0,0
19719,-83.3333333333333,4,2,69,40,0,0
19917,-83.3333333333333,4,2,69,75,0,1
32548,-100,4,2,69,75,0,1
32597,-100,4,2,69,75,0,0
38469,-83.3333333333333,4,2,69,75,0,0
44390,-100,4,2,69,75,0,0
45180,-100,4,2,69,75,0,1
45229,-100,4,2,69,75,0,0
57812,-100,4,2,69,75,0,0
58404,-142.857142857143,4,2,69,85,0,1
58452,-142.857142857143,4,2,69,85,0,0
60969,-142.857142857143,4,2,69,40,0,0
62350,-142.857142857143,4,2,69,60,0,0
63535,-100,4,2,69,50,0,0
64127,-100,4,2,69,85,0,1
64176,-100,4,2,69,85,0,0
76759,-90.9090909090909,4,2,69,90,0,1
89341,-90.9090909090909,4,2,69,90,0,0
89391,-90.9090909090909,4,2,69,90,0,1
89439,-90.9090909090909,4,2,69,90,0,0

[Colours]
Combo1 : 46,175,104
Combo2 : 72,134,249
Combo3 : 248,52,71
Combo4 : 231,236,119

[HitObjects]
92,256,970,6,0,P|157:240|204:138,1,175,8|8,0:0|0:3,0:0:0:0:
263,89,1660,2,0,P|317:118|386:114,1,105,8|0,0:3|0:0,0:0:0:0:
449,107,4127,6,0,P|423:94|368:93,1,70
329,155,4522,2,0,P|296:157|249:182,1,70,8|8,0:0|0:0,0:0:0:0:
228,248,4917,2,0,P|190:248|148:232,1,70,8|8,0:0|0:0,0:0:0:0:
84,201,5312,2,0,P|81:139|118:67,1,140,8|12,0:0|0:0,0:0:0:0:
329,241,6101,6,0,P|408:203|488:199,1,167.999994873047
321,346,6891,1,0,0:0:0:0:
125,296,7285,6,0,L|-4:312,2,125.999996154785,4|0|0,0:0|0:0|0:0,0:0:0:0:
217,254,8075,2,0,P|207:200|157:143,1,125.999996154785,8|0,0:0|0:0,0:0:0:0:
46,49,8667,1,8,0:0:0:0:
143,22,8864,6,0,L|269:7,2,125.999996154785,8|0|0,0:0|0:0|0:0,0:0:0:0:
46,49,9654,2,0,P|26:104|40:173,1,125.999996154785,8|0,0:0|0:0,0:0:0:0:
118,296,10246,1,0,0:0:0:0:
190,365,10443,6,0,L|316:350,1,125.999996154785,4|0,0:0|0:0,0:0:0:0:
459,305,11035,1,8,0:0:0:0:
507,216,11232,2,0,P|484:147|487:74,1,125.999996154785,0|0,0:0|0:0,0:0:0:0:
354,172,11824,1,0,0:0:0:0:
263,128,12021,6,0,P|269:61|244:-10,1,125.999996154785,12|0,0:0|0:0,0:0:0:0:
109,55,12614,1,0,0:0:0:0:
40,128,12811,2,0,P|46:195|21:266,1,125.999996154785,8|0,0:0|0:0,0:0:0:0:
120,371,13403,1,0,0:0:0:0:
167,281,13601,6,0,B|150:144,2,125.999996154785,4|0|0,0:0|0:0|0:0,0:0:0:0:
252,333,14390,2,0,P|304:283|423:300,1,167.999994873047,8|0,0:0|0:0,0:0:0:0:
485,330,14983,1,8,0:0:0:0:
511,230,15180,6,0,L|502:80,2,125.999996154785,8|0|0,0:0|0:0|0:0,0:0:0:0:
485,330,15969,2,0,L|310:344,1,167.999994873047,8|0,0:0|0:0,0:0:0:0:
232,287,16562,1,0,0:0:0:0:
147,341,16759,5,12,0:3:0:0:
76,268,16956,2,0,P|40:289|-10:291,2,83.9999974365235,8|8|0,0:0|0:0|0:0,0:0:0:0:
9,191,17549,2,0,P|6:128|25:65,1,125.999996154785,8|8,0:0|0:0,0:0:0:0:
170,33,18140,1,8,0:0:0:0:
238,106,18337,6,0,P|239:171|251:242,2,125.999996154785,4|8|8,0:0|0:0|0:3,0:0:0:0:
329,62,19127,1,12,0:0:0:0:
176,302,19916,6,0,P|117:295|38:315,2,125.999996154785,4|0|8,0:0|0:0|0:0,0:0:0:0:
248,231,20706,2,0,L|394:244,1,125.999996154785,0|0,0:0|0:0,0:0:0:0:
495,331,21298,1,8,0:0:0:0:
405,375,21495,6,0,L|259:362,1,125.999996154785
133,323,22087,1,8,0:0:0:0:
51,262,22285,2,0,P|44:209|35:122,2,125.999996154785,0|0|8,0:0|0:0|0:0,0:0:0:0:
133,323,23074,5,4,0:0:0:0:
200,248,23271,2,0,L|301:232,1,83.9999974365235,8|0,0:0|0:0,0:0:0:0:
352,308,23666,1,0,0:0:0:0:
435,365,23864,1,0,0:0:0:0:
508,296,24061,2,0,P|507:203|501:106,1,167.999994873047,8|8,0:0|0:0,0:0:0:0:
435,58,24653,5,0,0:0:0:0:
339,25,24850,2,0,P|280:31|200:40,2,125.999996154785,8|0|0,0:0|0:0|0:0,0:0:0:0:
435,58,25640,1,8,0:0:0:0:
379,141,25838,2,0,P|317:160|207:171,1,167.999994873047,8|12,0:3|0:3,0:0:0:0:
134,109,26430,6,0,P|114:158|171:265,1,167.999994873047,8|8,0:0|0:0,0:0:0:0:
233,325,27022,2,0,L|323:301,2,83.9999974365235,0|8|0,0:0|0:0|0:0,0:0:0:0:
145,376,27614,1,8,0:0:0:0:
46,353,27811,6,0,L|19:208,1,125.999996154785,0|0,0:0|0:0,0:0:0:0:
134,109,28403,2,0,L|152:201,1,83.9999974365235,8|0,0:0|0:0,0:0:0:0:
224,123,28798,2,0,P|208:52|106:22,1,167.999994873047,8|8,0:0|0:0,0:0:0:0:
40,71,29391,6,0,L|34:206,2,125.999996154785,4|0|8,0:0|0:0|0:0,0:0:0:0:
134,109,30180,2,0,L|127:250,2,125.999996154785,0|0|8,0:0|0:0|0:0,0:0:0:0:
179,19,30969,5,0,0:0:0:0:
278,34,31167,2,0,P|338:22|432:109,1,167.999994873047,8|12,0:0|0:0,0:0:0:0:
435,179,31759,2,0,P|482:181|524:213,2,83.9999974365235,0|8|8,0:0|0:0|0:0,0:0:0:0:
347,229,32350,2,0,P|303:236|241:225,1,83.9999974365235,8|12,0:3|0:0,0:0:0:0:
206,120,32844,6,0,P|159:104|90:114,1,105,0|0,0:0|0:0,0:0:0:0:
36,157,33338,2,0,P|43:232|30:304,1,140,8|0,0:0|0:0,0:0:0:0:
67,372,33930,1,0,0:0:0:0:
146,340,34127,6,0,L|157:222,1,105,4|0,0:0|0:0,0:0:0:0:
249,151,34719,2,0,L|256:72,1,70,0|8,0:0|0:0,0:0:0:0:
338,96,35114,2,0,L|325:247,1,140,0|0,0:0|0:0,0:0:0:0:
350,316,35706,6,0,P|406:319|459:337,1,105,4|0,0:0|0:0,0:0:0:0:
496,215,36298,1,0,0:0:0:0:
478,132,36496,2,0,L|486:23,1,105,8|0,0:0|0:0,0:0:0:0:
359,30,37088,1,0,0:0:0:0:
318,103,37285,6,0,P|337:169|339:218,2,105,4|0|0,0:0|0:0|0:0,0:0:0:0:
235,68,38074,2,0,L|152:61,1,70,8|8,0:3|0:3,0:0:0:0:
84,30,38469,2,0,P|55:99|94:193,1,167.999994873047,12|0,0:3|0:0,0:0:0:0:
166,242,39062,5,0,0:0:0:0:
105,322,39259,2,0,L|-4:344,2,83.9999974365235,0|0|8,0:0|0:0|0:0,0:0:0:0:
195,365,39851,2,0,P|266:368|345:302,1,167.999994873047
423,253,40443,6,0,P|441:316|508:351,2,125.999996154785,4|0|0,0:0|0:0|0:0,0:0:0:0:
458,158,41233,1,8,0:0:0:0:
379,95,41430,2,0,L|384:5,2,83.9999974365235,0|8|8,0:0|0:0|0:3,0:0:0:0:
315,174,42022,6,0,L|307:318,2,125.999996154785,4|0|0,0:0|0:0|0:0,0:0:0:0:
215,188,42811,2,0,L|209:319,1,125.999996154785,8|0,0:0|0:0,0:0:0:0:
77,231,43403,1,8,0:3:0:0:
26,144,43600,6,0,P|27:89|-4:20,2,125.999996154785,4|0|0,0:0|0:0|0:0,0:0:0:0:
77,231,44390,2,0,P|60:280|58:379,1,140,8|8,0:0|0:0,0:0:0:0:
217,321,45179,6,0,P|293:266|245:155,1,210,12|0,0:3|0:0,0:0:0:0:
238,86,45969,2,0,L|94:111,1,140,8|0,0:0|0:0,0:0:0:0:
265,166,46758,6,0,P|321:171|381:180,2,105,4|0|0,0:0|0:0|0:0,0:0:0:0:
221,238,47548,2,0,P|179:237|104:229,2,105,8|0|0,0:0|0:0|0:0,0:0:0:0:
273,303,48337,6,0,L|380:313,1,105,4|0,0:0|0:0,0:0:0:0:
491,258,48929,1,0,0:0:0:0:
505,175,49127,2,0,P|512:98|396:48,1,210,8|0,0:0|0:0,0:0:0:0:
332,83,49917,6,0,P|303:51|195:46,1,140
136,78,50508,2,0,P|102:75|38:90,1,70,0|8,0:0|0:0,0:0:0:0:
60,163,50903,2,0,P|38:166|-8:200,2,70,0|8|8,0:0|0:0|0:3,0:0:0:0:
143,179,51496,6,0,B|224:198|224:198|284:159|284:159|360:153,1,210
418,128,52285,2,0,P|429:201|435:289,1,140,8|0,0:0|0:0,0:0:0:0:
417,349,52878,1,0,0:0:0:0:
333,337,53074,6,0,P|280:350|148:282,1,210,4|0,0:0|0:0,0:0:0:0:
68,255,53864,2,0,L|64:390,2,105,8|0|0,0:0|0:0|0:0,0:0:0:0:
28,180,54653,6,0,P|54:86|183:56,1,210,4|0,0:0|0:0,0:0:0:0:
194,120,55443,2,0,L|205:247,1,105,8|0,0:0|0:0,0:0:0:0:
369,352,56232,5,0,0:0:0:0:
306,196,56627,1,8,0:0:0:0:
424,77,57021,1,8,0:0:0:0:
487,233,57416,1,8,0:3:0:0:
325,280,57812,6,0,B|245:295|191:246|191:246|155:261|113:246,1,210,12|12,0:3|0:0,0:0:0:0:
256,192,62350,12,0,63337,0:0:0:0:
123,91,64127,6,0,P|191:88|271:104,1,140,4|0,0:0|0:0,0:0:0:0:
347,87,64719,2,0,P|368:64|412:41,2,70,0|8|0,0:0|0:0|0:0,0:0:0:0:
383,165,65311,2,0,L|390:255,1,70,0|0,0:0|0:0,0:0:0:0:
412,315,65706,6,0,P|456:303|535:333,2,105,4|0|0,0:0|0:0|0:0,0:0:0:0:
336,350,66495,1,8,0:0:0:0:
169,327,66890,2,0,L|87:317,1,70,0|0,0:0|0:0,0:0:0:0:
27,362,67285,6,0,P|17:305|38:257,1,105,4|0,0:0|0:0,0:0:0:0:
140,197,67877,1,0,0:0:0:0:
147,113,68075,2,0,L|-13:92,1,140,8|0,0:0|0:0,0:0:0:0:
164,31,68864,6,0,L|406:62,1,210,4|0,0:0|0:0,0:0:0:0:
450,86,69653,2,0,P|475:144|469:240,1,140,8|0,0:0|0:0,0:0:0:0:
410,274,70245,2,0,P|422:310|420:356,1,70,8|12,0:0|0:3,0:0:0:0:
342,366,70640,6,0,L|184:349,1,140
184,268,71233,2,0,P|143:278|100:281,1,70,8|0,0:0|0:0,0:0:0:0:
75,207,71627,2,0,P|42:211|-8:200,1,70,0|0,0:0|0:0,0:0:0:0:
42,126,72022,6,0,P|35:69|10:2,2,105,4|0|0,0:0|0:0|0:0,0:0:0:0:
75,207,72812,1,8,0:0:0:0:
152,157,73009,2,0,P|178:136|285:138,1,140
347,186,73601,6,0,L|463:169,1,105,4|0,0:0|0:0,0:0:0:0:
487,50,74192,1,0,0:0:0:0:
408,19,74390,2,0,L|263:41,1,140,8|0,0:0|0:0,0:0:0:0:
196,82,74983,1,0,0:0:0:0:
120,118,75180,6,0,P|72:97|14:97,1,105,4|0,0:0|0:0,0:0:0:0:
7,221,75772,1,0,0:0:0:0:
55,289,75969,2,0,P|115:315|235:223,1,210,8|0,0:0|0:0,0:0:0:0:
315,212,76759,6,0,L|311:334,1,115.50000352478,4|0,0:0|0:0,0:0:0:0:
448,345,77351,1,0,0:0:0:0:
495,265,77548,2,0,L|499:143,1,115.50000352478,12|0,0:0|0:0,0:0:0:0:
399,51,78141,1,0,0:0:0:0:
319,96,78337,6,0,L|315:218,1,115.50000352478,12|0,0:0|0:0,0:0:0:0:
254,336,78930,1,0,0:0:0:0:
177,284,79127,2,0,P|185:221|125:135,1,154.000004699707,12|8,0:0|0:0,0:0:0:0:
21,286,79916,5,4,0:0:0:0:
2,195,80114,2,0,L|9:32,1,154.000004699707,0|0,0:0|0:0,0:0:0:0:
99,24,80706,1,12,0:0:0:0:
173,78,80903,2,0,L|166:241,1,154.000004699707,0|0,0:0|0:0,0:0:0:0:
145,322,81495,6,0,P|103:335|13:325,2,115.50000352478,12|0|0,0:0|0:0|0:0,0:0:0:0:
232,353,82285,2,0,L|323:339,1,77.0000023498536,12|0,0:0|0:0,0:0:0:0:
388,295,82679,2,0,L|479:281,1,77.0000023498536,0|8,0:0|0:0,0:0:0:0:
429,197,83074,6,0,L|315:215,1,115.50000352478,12|0,0:0|0:0,0:0:0:0:
195,143,83667,1,0,0:0:0:0:
134,212,83864,2,0,P|62:238|2:227,1,115.50000352478,12|0,0:0|0:0,0:0:0:0:
26,95,84456,1,0,0:0:0:0:
100,40,84653,6,0,L|214:22,1,115.50000352478,12|0,0:0|0:0,0:0:0:0:
307,124,85245,1,0,0:0:0:0:
373,60,85443,2,0,P|428:50|499:128,1,154.000004699707,12|8,0:0|0:0,0:0:0:0:
481,203,86035,1,0,0:0:0:0:
471,295,86233,6,0,L|333:310,1,115.50000352478,12|0,0:0|0:0,0:0:0:0:
242,227,86825,1,0,0:0:0:0:
176,292,87022,2,0,P|93:305|39:282,1,115.50000352478,12|0,0:0|0:0,0:0:0:0:
26,162,87614,1,0,0:0:0:0:
74,83,87811,6,0,L|187:60,1,115.50000352478,12|8,0:0|0:3,0:0:0:0:
313,25,88403,1,8,0:0:0:0:
366,99,88600,2,0,L|360:182,1,77.0000023498536,8|0,0:0|0:0,0:0:0:0:
287,231,88995,2,0,L|281:314,1,77.0000023498536,8|8,0:0|0:3,0:0:0:0:
202,355,89390,1,12,0:0:0:0:
