osu file format v14

[General]
AudioFilename: audio.mp3
AudioLeadIn: 0
PreviewTime: 19521
Countdown: 0
SampleSet: Soft
StackLeniency: 0.4
Mode: 0
LetterboxInBreaks: 0
WidescreenStoryboard: 1

[Editor]
Bookmarks: 970,4127,6101,19916,32548,38864,45179,57811,60969,64127,65706,76758,89390
DistanceSpacing: 1.9
BeatDivisor: 4
GridSize: 32
TimelineZoom: 3.499998

[Metadata]
Title:Deal with
TitleUnicode:Deal with
Artist:OLDCODEX
ArtistUnicode:OLDCODEX
Creator:Sieg
Version:Insane
Source:SERVAMP
Tags:themefisto riffy bakari tv size edit version サーヴァンプ ost anime metal rock japanese
BeatmapID:1636256
BeatmapSetID:779144

[Difficulty]
HPDrainRate:6
CircleSize:2.5
OverallDifficulty:8
ApproachRate:9
SliderMultiplier:2.6
SliderTickRate:1

[Events]
//Background and Video events
0,0,"2.jpg",0,0
//Break Periods
2,58604,60369
//Storyboard Layer 0 (Background)
//Storyboard Layer 1 (Fail)
//Storyboard Layer 2 (Pass)
//Storyboard Layer 3 (Foreground)
//Storyboard Sound Samples

[TimingPoints]
970,394.736842105263,4,2,69,90,1,0
4127,-100,4,2,69,40,0,0
6101,-83.3333333333333,4,2,69,70,0,0
7285,-83.3333333333333,4,2,69,70,0,1
7335,-83.3333333333333,4,2,69,70,0,0
10443,-83.3333333333333,4,2,69,70,0,0
19719,-83.3333333333333,4,2,69,40,0,0
19917,-83.3333333333333,4,2,69,75,0,1
32548,-100,4,2,69,75,0,1
32597,-100,4,2,69,75,0,0
38469,-83.3333333333333,4,2,69,75,0,0
44390,-125,4,2,69,75,0,0
45180,-100,4,2,69,75,0,1
45229,-100,4,2,69,75,0,0
51496,-100,4,2,69,45,0,0
51594,-100,4,2,69,50,0,0
51693,-100,4,2,69,55,0,0
51792,-100,4,2,69,60,0,0
51891,-100,4,2,69,65,0,0
51989,-100,4,2,69,70,0,0
52088,-100,4,2,69,75,0,0
57812,-142.857142857143,4,2,69,75,0,0
58404,-142.857142857143,4,2,69,85,0,1
58452,-142.857142857143,4,2,69,85,0,0
60969,-142.857142857143,4,2,69,40,0,0
62350,-142.857142857143,4,2,69,60,0,0
63535,-100,4,2,69,50,0,0
64127,-100,4,2,69,85,0,1
64176,-100,4,2,69,85,0,0
76759,-90.9090909090909,4,2,69,90,0,1
89341,-90.9090909090909,4,2,69,90,0,0
89391,-90.9090909090909,4,2,69,90,0,1
89456,-90.9090909090909,4,2,69,90,0,0

[Colours]
Combo1 : 46,175,104
Combo2 : 72,134,249
Combo3 : 248,52,71
Combo4 : 231,236,119

[HitObjects]
170,173,970,6,0,P|203:174|233:187,1,65,8|0,0:0|0:0,0:0:0:0:
387,126,1167,2,0,P|412:119|445:86,1,65,8|0,0:0|0:0,0:0:0:0:
255,270,1463,1,8,0:3:0:0:
373,42,1660,1,8,0:3:0:0:
125,252,1858,2,0,P|103:237|57:234,1,65,8|0,0:0|0:0,0:0:0:0:
336,165,4127,6,0,P|363:152|397:149,3,43.3333333333333
92,234,4522,2,0,P|61:230|31:216,3,43.3333333333333,8|8|8|8,0:0|0:0|0:0|0:0,0:0:0:0:
223,71,4917,2,0,P|221:41|207:10,3,43.3333333333333,8|8|8|8,0:0|0:0|0:0|0:0,0:0:0:0:
306,284,5312,2,0,P|320:311|322:345,6,43.3333333333333,8|8|8|8|8|8|12,0:0|0:0|0:0|0:3|0:3|0:3|0:0,0:0:0:0:
54,243,6101,6,0,P|28:156|89:24,1,233.999992858887
145,166,6496,2,0,P|152:243|160:332,1,155.999995239258
218,90,6891,1,8,0:3:0:0:
218,90,7088,1,0,0:0:0:0:
218,90,7285,6,0,P|277:34|360:52,1,155.999995239258,4|0,0:0|0:0,0:0:0:0:
510,169,7581,2,0,P|436:179|355:190,1,155.999995239258
301,117,7877,1,0,0:0:0:0:
462,323,8075,2,0,P|352:344|290:250,1,233.999992858887,8|0,0:0|0:0,0:0:0:0:
355,189,8469,1,0,0:0:0:0:
112,336,8667,1,8,0:0:0:0:
95,340,8765,1,8,0:0:0:0:
78,344,8864,6,0,P|165:351|243:356,1,155.999995239258,8|0,0:0|0:0,0:0:0:0:
155,221,9160,2,0,P|75:217|0:210,1,155.999995239258
143,77,9456,2,0,L|228:84,1,77.999997619629
89,144,9654,2,0,P|72:28|184:2,1,233.999992858887,8|0,0:0|0:0,0:0:0:0:
208,162,10048,2,0,L|293:169,2,77.999997619629
497,30,10443,6,0,P|420:34|332:44,1,155.999995239258,4|0,0:0|0:0,0:0:0:0:
257,22,10739,1,0,0:0:0:0:
281,280,10937,1,0,0:0:0:0:
281,280,11035,2,0,L|289:363,1,77.999997619629,8|0,0:0|0:0,0:0:0:0:
447,305,11233,2,0,P|443:227|496:134,1,155.999995239258
363,144,11529,1,0,0:0:0:0:
181,303,11726,1,0,0:0:0:0:
181,303,11824,2,0,L|173:386,1,77.999997619629
48,318,12022,6,0,P|52:240|-1:147,1,155.999995239258,12|0,0:0|0:0,0:0:0:0:
118,140,12318,1,0,0:0:0:0:
345,112,12516,1,0,0:0:0:0:
345,112,12614,2,0,P|339:64|345:31,1,77.999997619629
200,169,12812,2,0,P|192:101|111:50,1,155.999995239258,8|0,0:0|0:0,0:0:0:0:
243,13,13108,1,0,0:0:0:0:
371,243,13305,1,0,0:0:0:0:
371,243,13404,2,0,P|387:296|381:341,1,77.999997619629
282,224,13601,6,0,P|334:160|422:174,1,155.999995239258,4|0,0:0|0:0,0:0:0:0:
297,327,13897,2,0,P|223:337|142:348,1,155.999995239258
45,304,14193,1,0,0:0:0:0:
344,159,14391,2,0,P|427:149|523:135,1,155.999995239258,8|0,0:0|0:0,0:0:0:0:
452,209,14687,1,0,0:0:0:0:
452,209,14785,1,0,0:0:0:0:
229,27,14983,1,8,0:0:0:0:
212,30,15081,1,8,0:0:0:0:
195,35,15180,6,0,P|283:36|338:85,1,155.999995239258,8|0,0:0|0:0,0:0:0:0:
195,139,15476,2,0,P|114:128|20:120,1,155.999995239258
1,272,15772,2,0,L|79:258,1,77.999997619629
249,209,15970,2,0,P|268:93|241:65,1,155.999995239258,8|0,0:0|0:0,0:0:0:0:
176,26,16266,1,0,0:0:0:0:
176,26,16364,1,0,0:0:0:0:
77,258,16562,1,0,0:0:0:0:
1,28,16759,1,12,0:3:0:0:
195,139,16956,6,0,P|236:128|286:137,1,77.999997619629,8|0,0:0|0:0,0:0:0:0:
404,182,17154,2,0,P|440:159|486:153,2,77.999997619629,8|0|0,0:0|0:0|0:0,0:0:0:0:
235,351,17549,2,0,P|313:343|401:377,1,155.999995239258,8|0,0:0|0:0,0:0:0:0:
494,332,17845,1,8,0:0:0:0:
207,234,18042,1,8,0:3:0:0:
207,234,18140,2,0,P|171:222|120:225,1,77.999997619629,8|0,0:0|0:0,0:0:0:0:
26,358,18338,6,0,P|74:356|105:340,1,77.999997619629,4|0,0:0|0:0,0:0:0:0:
49,273,18535,1,8,0:0:0:0:
44,234,18633,1,8,0:0:0:0:
40,195,18732,1,0,0:0:0:0:
36,156,18831,1,8,0:3:0:0:
32,117,18929,1,8,0:3:0:0:
28,79,19028,1,8,0:3:0:0:
24,40,19127,2,0,P|90:77|71:178,1,155.999995239258,12|0,0:0|0:0,0:0:0:0:
325,329,19719,5,4,0:0:0:0:
325,329,19917,2,0,L|314:167,1,155.999995239258,4|8,0:0|0:0,0:0:0:0:
428,24,20213,2,0,P|494:73|502:149,1,155.999995239258
412,285,20509,2,0,B|405:370,1,77.999997619629,8|0,0:0|0:0,0:0:0:0:
236,206,20706,2,0,L|249:361,1,155.999995239258,0|8,0:0|0:0,0:0:0:0:
315,172,21002,2,0,P|246:121|181:141,1,155.999995239258
13,328,21298,6,0,L|0:228,1,77.999997619629,8|0,0:0|0:0,0:0:0:0:
70,57,21496,2,0,P|99:144|66:221,1,155.999995239258,0|8,0:0|0:0,0:0:0:0:
0,28,21792,2,0,P|77:33|159:35,1,155.999995239258
291,111,22088,2,0,L|213:107,1,77.999997619629,8|0,0:0|0:0,0:0:0:0:
323,213,22285,2,0,L|404:201,1,77.999997619629
488,89,22483,2,0,P|454:164|472:248,1,155.999995239258,8|0,0:0|0:0,0:0:0:0:
512,320,22779,1,0,0:0:0:0:
512,320,22877,1,8,0:0:0:0:
248,184,23075,1,4,0:0:0:0:
0,321,23272,5,8,0:0:0:0:
0,321,23371,2,0,P|87:351|172:339,1,155.999995239258
308,288,23667,2,0,B|314:210,1,77.999997619629,8|0,0:0|0:0,0:0:0:0:
178,128,23864,2,0,L|184:205,1,77.999997619629
266,364,24062,1,8,0:0:0:0:
266,364,24160,2,0,P|379:336|394:298,1,155.999995239258
503,162,24456,6,0,P|509:205|514:256,1,77.999997619629,8|0,0:0|0:0,0:0:0:0:
367,158,24654,2,0,P|368:82|373:0,1,155.999995239258,0|8,0:0|0:0,0:0:0:0:
436,236,24950,2,0,P|359:232|269:252,1,155.999995239258
96,326,25246,2,0,P|65:314|11:317,1,77.999997619629,8|0,0:0|0:0,0:0:0:0:
171,231,25443,2,0,P|170:155|165:73,1,155.999995239258,0|8,0:0|0:0,0:0:0:0:
288,58,25739,5,8,0:3:0:0:
236,51,25837,1,8,0:3:0:0:
184,45,25936,1,8,0:3:0:0:
133,39,26035,1,8,0:3:0:0:
81,33,26133,1,8,0:3:0:0:
29,27,26232,1,12,0:3:0:0:
338,39,26430,5,8,0:0:0:0:
338,39,26529,2,0,P|416:22|499:24,1,155.999995239258
512,191,26825,2,0,P|508:234|505:276,1,77.999997619629,8|0,0:0|0:0,0:0:0:0:
341,305,27022,2,0,P|340:214|374:149,1,155.999995239258,0|8,0:0|0:0,0:0:0:0:
422,363,27318,2,0,P|349:353|255:339,1,155.999995239258
215,176,27614,2,0,P|216:129|205:76,1,77.999997619629,8|0,0:0|0:0,0:0:0:0:
90,280,27812,2,0,P|171:272|262:264,1,155.999995239258,0|8,0:0|0:0,0:0:0:0:
211,98,28108,2,0,P|134:93|52:91,1,155.999995239258
11,250,28404,2,0,P|6:293|100:365,1,155.999995239258,8|0,0:0|0:0,0:0:0:0:
310,189,28798,5,8,0:0:0:0:
310,189,28897,2,0,P|346:279|297:346,1,155.999995239258
258,263,29193,1,8,0:0:0:0:
430,57,29391,1,4,0:0:0:0:
155,54,29588,1,8,0:0:0:0:
155,54,29687,2,0,P|72:51|-14:41,1,155.999995239258
183,160,29983,2,0,B|261:166,1,77.999997619629,8|0,0:0|0:0,0:0:0:0:
414,20,30180,2,0,L|337:26,1,77.999997619629
339,209,30378,1,8,0:0:0:0:
339,209,30476,2,0,P|326:108|272:78,1,155.999995239258
129,241,30772,6,0,B|207:247,1,77.999997619629,8|0,0:0|0:0,0:0:0:0:
354,113,30970,2,0,P|430:114|512:119,1,155.999995239258,0|8,0:0|0:0,0:0:0:0:
412,330,31266,2,0,P|408:253|464:177,1,155.999995239258
314,295,31562,2,0,L|323:373,1,77.999997619629,12|0,0:0|0:0,0:0:0:0:
224,307,31759,5,0,0:0:0:0:
223,310,31858,1,8,0:0:0:0:
222,313,31956,1,8,0:0:0:0:
220,317,32055,1,8,0:3:0:0:
224,264,32153,1,8,0:0:0:0:
226,212,32252,1,8,0:3:0:0:
229,161,32351,1,8,0:3:0:0:
231,108,32449,1,8,0:3:0:0:
233,56,32548,1,12,0:0:0:0:
14,334,32844,6,0,P|5:273|-1:194,1,130
23,118,33141,1,0,0:0:0:0:
121,280,33338,2,0,P|175:274|223:208,1,130,8|0,0:0|0:0,0:0:0:0:
302,51,33733,1,0,0:0:0:0:
137,194,33930,1,0,0:0:0:0:
252,355,34127,6,0,P|315:349|381:368,1,130,4|0,0:0|0:0,0:0:0:0:
376,270,34423,2,0,P|441:258|532:250,1,130
512,347,34719,1,0,0:0:0:0:
512,347,34818,1,0,0:0:0:0:
512,347,34917,1,8,0:0:0:0:
369,184,35114,2,0,P|304:196|213:204,1,130
163,167,35410,1,0,0:0:0:0:
163,167,35509,1,0,0:0:0:0:
402,109,35706,6,0,P|446:174|438:226,1,130,4|0,0:0|0:0,0:0:0:0:
406,306,36002,2,0,P|344:300|263:303,1,130
196,341,36298,1,0,0:0:0:0:
5,279,36496,2,0,P|9:211|22:128,1,130,8|0,0:0|0:0,0:0:0:0:
57,72,36792,1,0,0:0:0:0:
331,25,37088,1,0,0:0:0:0:
171,122,37285,6,0,P|237:133|321:131,1,130,4|0,0:0|0:0,0:0:0:0:
345,211,37581,2,0,P|414:206|484:191,1,130
510,109,37877,1,0,0:0:0:0:
331,25,38075,1,8,0:3:0:0:
276,27,38173,1,8,0:3:0:0:
222,30,38272,1,8,0:3:0:0:
168,33,38371,1,8,0:3:0:0:
114,35,38469,2,0,B|90:59|75:69|75:69|78:106|78:106|8:129|-18:189|-6:258|44:290,1,311.999990478516,12|0,0:3|0:0,0:0:0:0:
255,212,39062,5,0,0:0:0:0:
255,212,39160,1,0,0:0:0:0:
255,212,39259,2,0,P|175:216|95:204,1,155.999995239258
341,134,39654,1,8,0:0:0:0:
506,330,39851,1,0,0:0:0:0:
506,330,39950,2,0,P|427:344|338:346,1,155.999995239258
278,298,40246,1,0,0:0:0:0:
486,172,40443,6,0,B|474:89,1,77.999997619629,4|0,0:0|0:0,0:0:0:0:
342,56,40641,1,0,0:0:0:0:
342,56,40739,2,0,L|336:140,1,77.999997619629
207,200,40937,1,0,0:0:0:0:
207,200,41035,2,0,P|134:182|89:111,1,155.999995239258,0|8,0:0|0:0,0:0:0:0:
332,220,41430,1,0,0:0:0:0:
351,248,41528,1,0,0:0:0:0:
358,282,41627,1,8,0:0:0:0:
353,316,41726,1,8,0:0:0:0:
336,346,41824,1,8,0:3:0:0:
310,368,41923,1,8,0:3:0:0:
277,379,42022,6,0,P|197:367|103:364,1,155.999995239258,4|0,0:0|0:0,0:0:0:0:
14,241,42318,2,0,P|93:238|184:230,1,155.999995239258
318,164,42614,2,0,P|273:163|237:151,1,77.999997619629
78,100,42812,2,0,P|126:87|152:61,1,77.999997619629,8|0,0:0|0:0,0:0:0:0:
228,23,43009,1,0,0:0:0:0:
286,27,43107,1,0,0:0:0:0:
344,32,43206,1,8,0:3:0:0:
402,36,43305,1,8,0:3:0:0:
461,41,43403,1,8,0:3:0:0:
488,320,43601,6,0,P|479:221|479:142,1,155.999995239258,4|0,0:0|0:0,0:0:0:0:
434,241,43897,1,0,0:0:0:0:
120,346,44193,1,0,0:0:0:0:
319,208,44391,6,0,P|356:191|378:153,2,69.3333333333333,8|0|0,0:0|0:0|0:0,0:0:0:0:
179,105,44785,1,8,0:0:0:0:
226,283,44916,2,0,P|258:295|322:291,1,69.3333333333333,8|0,0:3|0:0,0:0:0:0:
469,172,45180,1,12,0:3:0:0:
202,194,45377,5,0,0:0:0:0:
202,194,45476,2,0,P|129:184|44:177,1,130
5,122,45772,1,0,0:0:0:0:
196,39,45969,6,0,P|263:31|332:25,1,130,8|0,0:0|0:0,0:0:0:0:
411,64,46266,1,0,0:0:0:0:
411,64,46364,1,0,0:0:0:0:
216,237,46562,1,0,0:0:0:0:
496,106,46759,1,4,0:0:0:0:
231,261,46956,2,0,L|139:270,1,65,8|0,0:3|0:0,0:0:0:0:
429,329,47252,2,0,L|521:320,1,65,8|0,0:3|0:0,0:0:0:0:
214,367,47548,2,0,P|295:364|340:328,1,130,8|0,0:0|0:0,0:0:0:0:
478,219,47844,2,0,L|336:200,1,130
276,147,48141,1,0,0:0:0:0:
22,54,48338,6,0,P|86:34|172:41,1,130,4|0,0:0|0:0,0:0:0:0:
149,163,48634,2,0,P|214:164|289:143,1,130
264,47,48930,1,0,0:0:0:0:
60,222,49127,1,8,0:0:0:0:
354,79,49325,5,0,0:0:0:0:
354,79,49423,2,0,P|402:45|496:67,1,130
444,258,49719,2,0,P|438:196|429:129,1,130
225,25,50114,1,0,0:0:0:0:
225,25,50213,2,0,P|231:87|240:154,1,130
306,270,50509,2,0,P|332:246|373:231,1,65
512,336,50706,2,0,L|434:346,1,65,8|0,0:0|0:0,0:0:0:0:
383,374,50904,5,0,0:0:0:0:
329,369,51002,1,0,0:0:0:0:
275,364,51101,1,8,0:0:0:0:
221,359,51200,1,8,0:0:0:0:
167,354,51298,1,8,0:3:0:0:
113,350,51397,1,8,0:3:0:0:
63,296,51496,2,0,P|30:305|-9:311,5,65
117,224,52088,5,0,0:0:0:0:
120,221,52187,1,0,0:0:0:0:
123,218,52285,2,0,P|114:147|109:82,1,130,8|0,0:0|0:0,0:0:0:0:
40,35,52582,1,0,0:0:0:0:
40,35,52680,1,0,0:0:0:0:
198,245,52878,1,0,0:0:0:0:
274,10,53075,1,4,0:0:0:0:
219,273,53272,2,0,L|211:348,1,65,8|0,0:3|0:0,0:0:0:0:
294,93,53568,2,0,L|302:18,1,65,8|0,0:3|0:0,0:0:0:0:
293,355,53864,2,0,P|357:354|413:310,1,130,8|0,0:0|0:0,0:0:0:0:
507,213,54160,2,0,P|442:212|376:209,1,130
289,236,54457,1,0,0:0:0:0:
39,36,54654,6,0,P|114:36|187:56,1,130,4|0,0:0|0:0,0:0:0:0:
300,134,54950,2,0,P|360:106|443:108,1,130
504,27,55246,1,0,0:0:0:0:
246,64,55443,6,0,P|213:126|226:185,1,130,8|0,0:0|0:0,0:0:0:0:
345,330,55739,2,0,L|362:192,1,130
300,134,56035,1,0,0:0:0:0:
145,302,56233,2,0,L|133:388,1,65
215,246,56430,2,0,L|227:160,1,65
254,63,56627,1,8,0:0:0:0:
254,63,56726,2,0,L|384:48,1,130
485,187,57022,2,0,P|422:188|357:157,1,130,8|0,0:0|0:0,0:0:0:0:
114,21,57417,5,8,0:3:0:0:
120,67,57516,1,8,0:3:0:0:
125,121,57614,1,8,0:3:0:0:
129,175,57713,1,8,0:3:0:0:
142,222,57812,2,0,P|112:252|118:196,1,136.499995834351,12|0,0:3|0:0,0:0:0:0:
397,31,58404,1,12,0:0:0:0:
277,144,60969,5,4,0:0:0:0:
216,309,61266,1,4,0:0:0:0:
104,175,61562,1,4,0:0:0:0:
386,72,62351,5,8,0:0:0:0:
386,72,62450,1,8,0:0:0:0:
386,72,62548,1,8,0:0:0:0:
256,192,62598,12,0,63337,0:0:0:0:
260,179,63536,6,0,L|245:42,1,130,8|0,0:3|0:0,0:0:0:0:
356,303,63929,1,0,0:0:0:0:
245,49,64127,6,0,P|320:24|388:40,1,130,4|0,0:0|0:0,0:0:0:0:
480,125,64424,2,0,P|414:134|343:142,1,130
260,179,64720,1,0,0:0:0:0:
0,331,64917,2,0,P|65:322|137:314,1,130,8|0,0:0|0:0,0:0:0:0:
387,322,65312,1,0,0:0:0:0:
176,236,65509,1,0,0:0:0:0:
366,351,65706,6,0,L|500:337,1,130,4|0,0:0|0:0,0:0:0:0:
506,186,66003,2,0,P|444:193|372:200,1,130
303,269,66299,1,0,0:0:0:0:
387,27,66496,2,0,P|447:84|443:156,1,130,8|0,0:0|0:0,0:0:0:0:
363,113,66792,1,0,0:0:0:0:
286,68,66891,2,0,L|212:60,1,65
146,179,67088,2,0,L|219:170,1,65
98,103,67285,6,0,P|60:159|79:239,1,130,4|0,0:0|0:0,0:0:0:0:
230,290,67581,2,0,P|239:223|190:156,1,130
131,282,67878,1,0,0:0:0:0:
345,147,68075,2,0,P|413:136|475:132,1,130,8|0,0:0|0:0,0:0:0:0:
131,282,68470,2,0,P|70:292|1:297,1,130
370,350,68864,6,0,P|391:268|358:211,1,130,4|0,0:0|0:0,0:0:0:0:
249,124,69160,2,0,P|244:193|244:272,1,130
283,334,69456,1,0,0:0:0:0:
146,35,69654,2,0,P|125:117|158:174,1,130,8|0,0:0|0:0,0:0:0:0:
213,97,69950,1,0,0:0:0:0:
264,91,70048,1,0,0:0:0:0:
316,85,70147,1,8,0:0:0:0:
368,80,70246,1,8,0:0:0:0:
419,74,70344,1,8,0:3:0:0:
471,69,70443,1,12,0:3:0:0:
281,329,70641,5,0,0:0:0:0:
281,329,70739,2,0,P|220:360|150:341,1,130
45,264,71035,2,0,P|39:235|32:188,1,65
154,104,71233,2,0,P|150:173|146:235,1,130,8|0,0:0|0:0,0:0:0:0:
382,327,71628,2,0,P|380:262|374:198,1,130
154,104,72022,6,0,P|150:173|146:235,1,130,4|0,0:0|0:0,0:0:0:0:
284,122,72318,2,0,P|310:74|293:-9,1,130
223,50,72614,1,0,0:0:0:0:
304,319,72812,1,8,0:0:0:0:
360,69,73009,1,0,0:0:0:0:
360,69,73108,1,0,0:0:0:0:
360,69,73206,2,0,L|442:57,1,65
448,201,73404,2,0,L|526:210,1,65
379,254,73601,6,0,P|362:191|390:135,1,130,4|0,0:0|0:0,0:0:0:0:
422,293,73897,2,0,P|360:300|268:310,1,130
167,366,74193,2,0,P|201:371|239:374,1,65
97,230,74391,2,0,L|74:363,1,130,8|0,0:0|0:0,0:0:0:0:
48,45,74785,1,0,0:0:0:0:
7,283,74983,1,0,0:0:0:0:
7,283,75081,1,0,0:0:0:0:
7,283,75180,6,0,P|71:276|157:264,1,130,4|0,0:0|0:0,0:0:0:0:
306,248,75476,2,0,P|316:182|306:105,1,130
252,49,75772,1,0,0:0:0:0:
36,33,75970,1,8,0:0:0:0:
90,37,76068,1,8,0:0:0:0:
144,41,76167,1,8,0:3:0:0:
198,45,76266,1,8,0:3:0:0:
252,49,76364,2,0,P|372:41|457:34,1,195,8|0,0:3|0:3,0:3:0:0:
509,147,76759,6,0,P|452:153|366:163,1,143.000004364014,4|0,0:0|0:0,0:0:0:0:
289,127,77055,1,0,0:0:0:0:
283,173,77153,1,0,0:0:0:0:
296,213,77252,1,0,0:0:0:0:
328,240,77351,1,8,0:3:0:0:
370,246,77449,1,8,0:3:0:0:
410,226,77549,2,0,P|479:266|455:385,1,214.500006546021,12|0,0:0|0:0,0:0:0:0:
406,313,77943,1,0,0:0:0:0:
133,382,78141,1,0,0:0:0:0:
282,182,78338,5,12,0:0:0:0:
228,177,78436,1,0,0:0:0:0:
175,172,78535,1,8,0:3:0:0:
121,167,78634,1,8,0:3:0:0:
68,162,78732,1,8,0:3:0:0:
271,355,78930,1,0,0:0:0:0:
16,366,79127,2,0,P|9:298|2:208,1,143.000004364014,12|0,0:0|0:0,0:0:0:0:
68,162,79424,1,0,0:0:0:0:
68,162,79522,1,0,0:0:0:0:
271,355,79720,1,0,0:0:0:0:
23,84,79917,5,4,0:0:0:0:
76,88,80015,1,0,0:0:0:0:
129,93,80114,1,8,0:3:0:0:
183,98,80213,1,8,0:3:0:0:
236,103,80311,1,8,0:3:0:0:
490,36,80509,1,0,0:0:0:0:
216,179,80706,1,12,0:0:0:0:
273,170,80804,1,0,0:0:0:0:
309,125,80903,1,8,0:3:0:0:
303,67,81002,1,8,0:3:0:0:
259,29,81100,2,0,L|111:19,1,143.000004364014,8|0,0:3|0:0,0:0:0:0:
415,49,81496,5,4,0:0:0:0:
441,45,81594,1,0,0:0:0:0:
463,59,81693,1,8,0:0:0:0:
471,83,81792,1,8,0:0:0:0:
462,108,81890,1,8,0:3:0:0:
439,121,81989,1,8,0:3:0:0:
413,116,82088,1,0,0:0:0:0:
396,96,82186,1,0,0:0:0:0:
396,70,82285,2,0,P|388:158|392:222,1,143.000004364014,12|0,0:0|0:0,0:0:0:0:
116,233,82679,2,0,P|83:217|37:217,2,71.5000021820069,4|0|0,0:0|0:0|0:0,0:0:0:0:
284,342,83074,6,0,P|341:316|429:315,1,143.000004364014,4|0,0:0|0:0,0:0:0:0:
506,358,83371,1,0,0:0:0:0:
506,358,83470,1,0,0:0:0:0:
196,359,83667,1,0,0:0:0:0:
196,359,83766,1,0,0:0:0:0:
196,359,83864,2,0,P|119:364|41:370,1,143.000004364014,12|0,0:0|0:0,0:0:0:0:
0,299,84160,1,0,0:0:0:0:
0,299,84259,1,0,0:0:0:0:
282,216,84456,1,0,0:0:0:0:
59,182,84654,6,0,P|135:177|214:171,1,143.000004364014,4|0,0:0|0:0,0:0:0:0:
282,216,84950,1,0,0:0:0:0:
282,216,85049,1,0,0:0:0:0:
497,85,85246,1,0,0:0:0:0:
242,83,85443,2,0,P|165:88|87:94,1,143.000004364014,12|0,0:0|0:0,0:0:0:0:
19,49,85739,1,0,0:0:0:0:
19,49,85838,1,0,0:0:0:0:
306,138,86035,1,0,0:0:0:0:
466,342,86233,6,0,P|477:242|477:184,1,143.000004364014,4|0,0:0|0:0,0:0:0:0:
433,121,86529,1,0,0:0:0:0:
433,121,86628,1,0,0:0:0:0:
313,358,86825,1,0,0:0:0:0:
205,65,87022,2,0,P|194:165|194:223,1,143.000004364014,12|0,0:0|0:0,0:0:0:0:
242,289,87318,1,0,0:0:0:0:
242,289,87417,1,0,0:0:0:0:
376,36,87614,1,0,0:0:0:0:
313,358,87812,5,4,0:0:0:0:
330,121,88009,1,8,0:3:0:0:
305,88,88107,1,8,0:3:0:0:
269,70,88206,1,8,0:3:0:0:
228,69,88305,1,8,0:3:0:0:
191,86,88403,1,8,0:0:0:0:
165,117,88502,1,8,0:0:0:0:
155,156,88601,1,8,0:0:0:0:
163,196,88699,1,8,0:0:0:0:
408,253,88897,5,8,0:0:0:0:
350,248,88995,1,8,0:0:0:0:
293,243,89094,1,8,0:3:0:0:
236,239,89193,1,8,0:3:0:0:
179,234,89291,1,8,0:0:0:0:
122,230,89390,1,12,0:0:0:0:
