osu file format v14

[General]
AudioFilename: audio.mp3
AudioLeadIn: 0
PreviewTime: 19521
Countdown: 0
SampleSet: Soft
StackLeniency: 0.4
Mode: 0
LetterboxInBreaks: 0
WidescreenStoryboard: 1

[Editor]
Bookmarks: 970,4127,6101,19916,32548,38864,45179,57811,60969,64127,65706,76758,89390
DistanceSpacing: 1.7
BeatDivisor: 4
GridSize: 32
TimelineZoom: 3.499998

[Metadata]
Title:Deal with
TitleUnicode:Deal with
Artist:OLDCODEX
ArtistUnicode:OLDCODEX
Creator:Sieg
Version:Hard
Source:SERVAMP
Tags:themefisto riffy bakari tv size edit version サーヴァンプ ost anime metal rock japanese
BeatmapID:1650684
BeatmapSetID:779144

[Difficulty]
HPDrainRate:5
CircleSize:3.5
OverallDifficulty:7
ApproachRate:8
SliderMultiplier:1.8
SliderTickRate:1

[Events]
//Background and Video events
0,0,"2.jpg",0,0
//Break Periods
//Storyboard Layer 0 (Background)
//Storyboard Layer 1 (Fail)
//Storyboard Layer 2 (Pass)
//Storyboard Layer 3 (Foreground)
//Storyboard Sound Samples

[TimingPoints]
970,394.736842105263,4,2,69,90,1,0
4127,-100,4,2,69,40,0,0
6101,-83.3333333333333,4,2,69,70,0,0
7285,-83.3333333333333,4,2,69,70,0,1
7335,-83.3333333333333,4,2,69,70,0,0
10443,-83.3333333333333,4,2,69,70,0,0
19719,-83.3333333333333,4,2,69,40,0,0
19917,-83.3333333333333,4,2,69,75,0,1
32548,-100,4,2,69,75,0,1
32597,-100,4,2,69,75,0,0
38469,-83.3333333333333,4,2,69,75,0,0
44390,-100,4,2,69,75,0,0
45180,-100,4,2,69,75,0,1
45229,-100,4,2,69,75,0,0
57812,-142.857142857143,4,2,69,75,0,0
58404,-142.857142857143,4,2,69,85,0,1
58452,-142.857142857143,4,2,69,85,0,0
60969,-142.857142857143,4,2,69,40,0,0
62350,-142.857142857143,4,2,69,60,0,0
63535,-100,4,2,69,50,0,0
64127,-100,4,2,69,85,0,1
64176,-100,4,2,69,85,0,0
76759,-90.9090909090909,4,2,69,90,0,1
89341,-90.9090909090909,4,2,69,90,0,0
89391,-90.9090909090909,4,2,69,90,0,1
89439,-90.9090909090909,4,2,69,90,0,0

[Colours]
Combo1 : 46,175,104
Combo2 : 72,134,249
Combo3 : 248,52,71
Combo4 : 231,236,119

[HitObjects]
151,214,970,6,0,P|125:206|91:206,2,45,8|8|0,0:0|0:0|0:0,0:0:0:0:
226,255,1266,2,0,L|336:241,1,90,0|8,0:0|0:3,0:0:0:0:
453,143,1660,1,8,0:3:0:0:
407,308,1858,2,0,L|350:318,1,45,8|0,0:0|0:0,0:0:0:0:
337,36,4127,6,0,L|370:9,3,30
448,164,4522,2,0,L|488:149,3,30,8|0|0|8,0:0|0:0|0:0|0:0,0:0:0:0:
271,135,4917,2,0,L|304:108,3,30,8|0|0|8,0:0|0:0|0:0|0:0,0:0:0:0:
382,263,5312,2,0,L|422:248,6,30,8|0|0|8|0|0|12,0:0|0:0|0:0|0:3|0:0|0:0|0:0,0:0:0:0:
39,169,6101,6,0,P|21:108|64:16,1,161.999995056153
139,64,6496,2,0,P|144:118|149:180,1,107.999996704102,0|0,0:0|0:0,0:0:0:0:
231,335,6891,1,0,0:0:0:0:
231,335,7088,1,0,0:0:0:0:
231,335,7285,6,0,P|226:281|221:219,1,107.999996704102,4|0,0:0|0:0,0:0:0:0:
271,149,7581,2,0,P|322:209|323:288,1,161.999995056153,0|0,0:0|0:0,0:0:0:0:
489,367,8075,2,0,P|496:288|495:187,1,161.999995056153,8|0,0:0|0:0,0:0:0:0:
454,124,8469,1,0,0:0:0:0:
295,30,8667,1,8,0:0:0:0:
340,268,8864,6,0,P|345:207|348:153,1,107.999996704102,8|0,0:0|0:0,0:0:0:0:
261,192,9160,2,0,P|255:249|246:362,1,161.999995056153,0|0,0:0|0:0,0:0:0:0:
133,207,9654,2,0,P|52:195|-4:255,1,161.999995056153,8|0,0:0|0:0,0:0:0:0:
82,281,10048,2,0,L|70:347,2,53.9999983520508,0|0|0,0:0|0:0|0:0,0:0:0:0:
6,43,10443,6,0,P|88:51|168:60,1,161.999995056153,4|0,0:0|0:0,0:0:0:0:
407,195,11035,2,0,L|397:126,1,53.9999983520508,8|0,0:0|0:0,0:0:0:0:
325,86,11232,2,0,P|378:93|495:47,1,161.999995056153,0|0,0:0|0:0,0:0:0:0:
292,261,11824,2,0,L|285:318,1,53.9999983520508,0|0,0:0|0:0,0:0:0:0:
367,363,12021,6,0,P|314:370|197:324,1,161.999995056153,12|0,0:0|0:0,0:0:0:0:
113,70,12614,2,0,L|104:10,1,53.9999983520508
178,115,12811,2,0,P|125:108|8:154,1,161.999995056153,8|0,0:0|0:0,0:0:0:0:
298,159,13403,1,0,0:0:0:0:
221,346,13601,6,0,P|276:338|353:330,1,107.999996704102,4|0,0:0|0:0,0:0:0:0:
411,372,13897,2,0,P|463:365|499:265,1,161.999995056153,0|0,0:0|0:0,0:0:0:0:
327,244,14390,2,0,L|198:262,1,107.999996704102,8|0,0:0|0:0,0:0:0:0:
134,293,14686,2,0,L|63:303,1,53.9999983520508,0|0,0:0|0:0,0:0:0:0:
223,152,14983,1,8,0:0:0:0:
392,290,15180,6,0,P|405:242|360:172,1,107.999996704102,8|0,0:0|0:0,0:0:0:0:
310,131,15476,2,0,P|232:124|124:110,1,161.999995056153,0|0,0:0|0:0,0:0:0:0:
313,33,15969,2,0,L|439:47,1,107.999996704102,8|0,0:0|0:0,0:0:0:0:
471,128,16265,2,0,L|396:121,1,53.9999983520508,0|0,0:0|0:0,0:0:0:0:
230,205,16562,1,0,0:0:0:0:
81,68,16759,5,12,0:3:0:0:
8,239,16956,2,0,L|-2:309,1,53.9999983520508,8|0,0:0|0:0,0:0:0:0:
93,285,17154,2,0,L|99:354,2,53.9999983520508,8|0|0,0:0|0:0|0:0,0:0:0:0:
81,68,17549,2,0,L|200:55,1,107.999996704102,8|0,0:0|0:0,0:0:0:0:
271,87,17845,1,8,0:0:0:0:
451,61,18041,2,0,L|460:-4,2,53.9999983520508,8|8|0,0:3|0:0|0:0,0:0:0:0:
486,146,18337,5,4,0:0:0:0:
329,243,18535,2,0,P|299:228|263:224,2,53.9999983520508,8|8|0,0:0|0:0|0:0,0:0:0:0:
410,286,18831,2,0,P|433:262|448:229,2,53.9999983520508,8|8|8,0:3|0:3|0:3,0:0:0:0:
357,361,19127,2,0,L|476:371,1,107.999996704102,12|0,0:0|0:0,0:0:0:0:
84,231,19719,5,0,0:0:0:0:
84,231,19916,2,0,L|64:96,1,107.999996704102,4|8,0:0|0:0,0:0:0:0:
175,164,20212,2,0,L|180:30,1,107.999996704102,0|0,0:0|0:0,0:0:0:0:
102,5,20508,1,8,0:0:0:0:
270,109,20706,2,0,L|265:243,1,107.999996704102,0|8,0:0|0:0,0:0:0:0:
210,290,21002,2,0,P|270:273|337:285,1,107.999996704102,0|0,0:0|0:0,0:0:0:0:
402,304,21298,1,8,0:0:0:0:
232,381,21495,6,0,L|95:372,1,107.999996704102,0|8,0:0|0:0,0:0:0:0:
35,348,21791,1,0,0:0:0:0:
210,290,21989,1,0,0:0:0:0:
210,290,22088,2,0,P|234:216|211:58,1,215.999993408203,8|8,0:0|0:0,0:0:0:0:
146,31,22581,2,0,L|279:25,1,107.999996704102,0|0,0:0|0:0,0:0:0:0:
341,54,22877,1,8,0:0:0:0:
468,185,23074,5,4,0:0:0:0:
375,343,23271,1,8,0:0:0:0:
375,343,23370,2,0,L|242:349,1,107.999996704102,0|0,0:0|0:0,0:0:0:0:
297,260,23666,2,0,L|430:254,1,107.999996704102,8|0,0:0|0:0,0:0:0:0:
251,153,24061,1,8,0:0:0:0:
251,153,24160,2,0,L|118:159,1,107.999996704102
84,77,24456,2,0,L|217:71,1,107.999996704102,8|0,0:0|0:0,0:0:0:0:
371,34,24850,5,8,0:0:0:0:
371,34,24949,2,0,P|409:77|409:146,1,107.999996704102,0|0,0:0|0:0,0:0:0:0:
323,115,25246,2,0,P|318:175|320:237,2,107.999996704102,8|0|8,0:0|0:0|0:0,0:0:0:0:
136,27,25838,2,0,L|78:40,1,53.9999983520508,8|0,0:3|0:0,0:0:0:0:
166,101,26035,2,0,L|224:107,2,53.9999983520508,8|8|12,0:3|0:3|0:3,0:0:0:0:
0,205,26429,6,0,L|9:379,1,161.999995056153,8|0,0:0|0:0,0:0:0:0:
59,290,26824,1,8,0:0:0:0:
155,126,27022,2,0,L|150:260,1,107.999996704102,0|8,0:0|0:0,0:0:0:0:
203,309,27318,2,0,P|258:290|321:306,1,107.999996704102,0|0,0:0|0:0,0:0:0:0:
391,333,27614,1,8,0:0:0:0:
507,191,27811,6,0,L|511:83,1,107.999996704102,0|8,0:0|0:0,0:0:0:0:
456,9,28107,1,0,0:0:0:0:
319,132,28305,1,0,0:0:0:0:
319,132,28403,2,0,L|435:145,1,107.999996704102,8|0,0:0|0:0,0:0:0:0:
297,275,28798,1,8,0:0:0:0:
297,275,28896,2,0,L|181:262,1,107.999996704102,0|0,0:0|0:0,0:0:0:0:
114,208,29193,1,8,0:0:0:0:
48,36,29390,5,4,0:0:0:0:
231,29,29587,1,8,0:0:0:0:
231,29,29686,2,0,P|257:92|249:160,1,107.999996704102,0|0,0:0|0:0,0:0:0:0:
301,211,29982,2,0,L|293:323,1,107.999996704102,8|0,0:0|0:0,0:0:0:0:
111,349,30377,1,8,0:0:0:0:
111,349,30476,2,0,L|-22:355,1,107.999996704102,0|0,0:0|0:0,0:0:0:0:
22,263,30772,2,0,L|156:261,1,107.999996704102,8|0,0:0|0:0,0:0:0:0:
298,324,31166,5,8,0:0:0:0:
298,324,31265,2,0,P|376:341|418:333,1,107.999996704102,0|0,0:0|0:0,0:0:0:0:
489,305,31561,1,12,0:0:0:0:
335,205,31758,2,0,P|301:191|267:184,2,53.9999983520508,0|8|8,0:0|0:0|0:0,0:0:0:0:
379,124,32054,2,0,P|374:97|362:65,2,53.9999983520508,8|8|8,0:3|0:0|0:3,0:0:0:0:
472,153,32350,2,0,P|480:125|481:76,2,53.9999983520508,8|8|12,0:3|0:3|0:0,0:0:0:0:
204,225,32844,6,0,P|198:182|267:103,1,135,0|0,0:0|0:0,0:0:0:0:
246,295,33338,2,0,L|141:278,1,90,8|0,0:0|0:0,0:0:0:0:
5,257,33733,1,0,0:0:0:0:
104,372,33930,1,0,0:0:0:0:
246,295,34127,6,0,P|292:301|351:312,1,90,4|0,0:0|0:0,0:0:0:0:
406,356,34423,2,0,P|454:355|515:342,1,90,0|0,0:0|0:0,0:0:0:0:
472,267,34719,2,0,L|527:242,2,45,0|0|8,0:0|0:0|0:0,0:0:0:0:
346,178,35114,2,0,P|290:182|237:109,1,135,0|0,0:0|0:0,0:0:0:0:
314,106,35509,1,0,0:0:0:0:
487,33,35706,6,0,P|441:26|393:22,1,90,4|0,0:0|0:0,0:0:0:0:
319,23,36002,2,0,P|278:32|213:31,1,90,0|0,0:0|0:0,0:0:0:0:
154,19,36298,1,0,0:0:0:0:
58,139,36496,2,0,L|49:294,1,135,8|0,0:0|0:0,0:0:0:0:
11,47,37088,1,0,0:0:0:0:
144,109,37285,6,0,L|138:214,1,90,4|0,0:0|0:0,0:0:0:0:
222,167,37581,2,0,L|231:12,1,135
334,143,38074,2,0,P|362:132|393:135,2,45
267,328,38469,2,0,P|337:233|447:252,1,215.999993408203,12|0,0:3|0:0,0:0:0:0:
512,74,39062,5,0,0:0:0:0:
512,74,39160,1,0,0:0:0:0:
512,74,39259,2,0,L|507:186,1,107.999996704102,0|0,0:0|0:0,0:0:0:0:
511,374,39654,1,8,0:0:0:0:
329,354,39851,1,0,0:0:0:0:
329,354,39950,2,0,P|244:349|176:293,1,161.999995056153,0|0,0:0|0:0,0:0:0:0:
0,360,40443,6,0,B|130:344,1,107.999996704102,4|0,0:0|0:0,0:0:0:0:
57,251,40739,2,0,L|116:256,1,53.9999983520508
316,220,41035,2,0,L|209:207,1,107.999996704102,0|8,0:0|0:0,0:0:0:0:
100,58,41429,2,0,P|98:29|84:-14,2,53.9999983520508,0|0|8,0:0|0:0|0:0,0:0:0:0:
31,124,41725,2,0,P|27:95|15:61,2,53.9999983520508,8|8|8,0:0|0:3|0:3,0:0:0:0:
116,166,42022,6,0,P|117:222|115:288,1,107.999996704102,4|0,0:0|0:0,0:0:0:0:
31,313,42318,2,0,P|67:355|175:350,1,161.999995056153,0|0,0:0|0:0,0:0:0:0:
264,200,42811,2,0,P|263:144|371:83,1,161.999995056153,8|0,0:0|0:0,0:0:0:0:
441,93,43206,2,0,P|471:96|507:86,2,53.9999983520508,0|8|8,0:0|0:3|0:3,0:0:0:0:
311,268,43600,6,0,P|249:281|183:196,2,161.999995056153,4|0|0,0:0|0:0|0:0,0:0:0:0:
316,83,44390,6,0,P|317:61|339:15,2,60,8|0|0,0:0|0:0|0:0,0:0:0:0:
244,144,44785,2,0,P|260:176|263:218,2,60,8|8|0,0:0|0:3|0:0,0:0:0:0:
192,56,45179,1,12,0:3:0:0:
13,115,45377,5,0,0:0:0:0:
13,115,45476,2,0,P|0:183|26:271,1,135,0|0,0:0|0:0,0:0:0:0:
115,359,45969,2,0,P|161:353|210:349,1,90,8|0,0:0|0:0,0:0:0:0:
278,370,46265,2,0,P|273:316|200:273,1,135,0|0,0:0|0:0,0:0:0:0:
60,305,46758,5,4,0:0:0:0:
170,182,46956,2,0,L|229:164,1,45,8|0,0:3|0:0,0:0:0:0:
83,67,47252,2,0,L|153:76,1,45,8|0,0:3|0:0,0:0:0:0:
278,45,47548,2,0,P|321:27|375:33,1,90,8|0,0:0|0:0,0:0:0:0:
334,107,47844,2,0,P|327:174|324:254,1,135,0|0,0:0|0:0,0:0:0:0:
420,359,48337,6,0,P|463:377|517:371,1,90,4|0,0:0|0:0,0:0:0:0:
476,297,48633,2,0,P|481:226|486:146,1,135,0|0,0:0|0:0,0:0:0:0:
499,9,49127,1,8,0:0:0:0:
374,109,49325,1,0,0:0:0:0:
374,109,49423,2,0,P|368:178|364:260,1,135,0|0,0:0|0:0,0:0:0:0:
276,381,49916,5,0,0:0:0:0:
243,202,50114,1,0,0:0:0:0:
243,202,50213,2,0,P|239:159|233:112,1,90,0|0,0:0|0:0,0:0:0:0:
154,77,50508,2,0,P|144:49|125:23,2,45,0|0|8,0:0|0:0|0:0,0:0:0:0:
74,236,50903,2,0,P|58:247|22:257,2,45,0|0|8,0:0|0:0|0:0,0:0:0:0:
117,307,51199,2,0,P|142:316|177:316,2,45,8|8|8,0:0|0:3|0:3,0:0:0:0:
156,236,51496,2,0,P|104:161|17:173,1,180
5,347,52088,5,0,0:0:0:0:
5,347,52187,1,0,0:0:0:0:
5,347,52285,2,0,P|78:352|154:360,1,135,8|0,0:0|0:0,0:0:0:0:
215,351,52680,1,0,0:0:0:0:
306,227,52878,1,0,0:0:0:0:
384,358,53075,5,4,0:0:0:0:
471,232,53272,2,0,L|524:209,1,45,8|0,0:3|0:0,0:0:0:0:
454,71,53568,2,0,L|493:26,1,45,8|0,0:3|0:0,0:0:0:0:
328,44,53864,2,0,P|286:26|222:36,1,90,8|0,0:0|0:0,0:0:0:0:
273,102,54160,2,0,P|264:173|269:239,1,135
177,358,54653,6,0,P|137:377|46:272,1,180,4|0,0:0|0:0,0:0:0:0:
121,172,55246,1,0,0:0:0:0:
18,51,55443,2,0,P|9:100|7:146,1,90,8|0,0:0|0:0,0:0:0:0:
71,98,55739,2,0,P|157:93|204:134,1,135,0|0,0:0|0:0,0:0:0:0:
264,269,56232,6,0,P|265:317|254:372,2,90,0|0|8,0:0|0:0|0:0,0:0:0:0:
300,201,56725,2,0,L|414:178,1,90
416,99,57021,2,0,L|302:122,1,90,8|0,0:0|0:0,0:0:0:0:
440,277,57416,2,0,P|467:261|505:264,2,45,8|8|8,0:3|0:3|0:3,0:0:0:0:
339,358,57812,6,0,P|318:379|322:340,1,94.499997116089,12|0,0:3|0:0,0:0:0:0:
388,183,58404,1,12,0:0:0:0:
270,158,60969,5,4,0:0:0:0:
228,273,61266,1,4,0:0:0:0:
149,180,61562,1,4,0:0:0:0:
346,108,62351,5,8,0:0:0:0:
346,108,62450,1,8,0:0:0:0:
346,108,62548,1,8,0:0:0:0:
256,192,62598,12,0,63337,0:0:0:0:
222,244,63535,6,0,P|231:288|242:348,1,90,0|0,0:0|0:0,0:0:0:0:
292,186,63929,1,0,0:0:0:0:
292,186,64127,6,0,P|278:111|266:43,1,135,4|0,0:0|0:0,0:0:0:0:
362,262,64719,1,0,0:0:0:0:
475,148,64917,2,0,L|485:43,1,90,8|0,0:0|0:0,0:0:0:0:
420,206,65312,1,0,0:0:0:0:
494,339,65509,1,0,0:0:0:0:
362,262,65706,6,0,P|318:261|273:286,1,90,4|0,0:0|0:0,0:0:0:0:
247,352,66003,2,0,P|175:359|100:335,1,135,0|0,0:0|0:0,0:0:0:0:
2,241,66495,1,8,0:0:0:0:
98,32,66791,1,0,0:0:0:0:
98,32,66890,2,0,L|109:143,1,90,0|0,0:0|0:0,0:0:0:0:
213,231,67285,6,0,P|225:166|203:99,1,135,4|0,0:0|0:0,0:0:0:0:
135,319,67877,1,0,0:0:0:0:
288,312,68075,2,0,P|334:297|387:295,1,90,8|0,0:0|0:0,0:0:0:0:
400,143,68469,2,0,P|441:167|492:181,1,90,0|0,0:0|0:0,0:0:0:0:
329,193,68864,6,0,P|317:126|353:67,1,135,4|0,0:0|0:0,0:0:0:0:
375,294,69456,1,0,0:0:0:0:
400,143,69653,1,8,0:0:0:0:
257,34,69850,2,0,P|230:23|194:22,2,45
194,173,70245,2,0,P|173:189|143:196,2,45,8|8|12,0:0|0:3|0:3,0:0:0:0:
53,73,70641,5,0,0:0:0:0:
53,73,70739,2,0,P|34:149|46:222,1,135,0|0,0:0|0:0,0:0:0:0:
111,340,71233,2,0,P|159:343|203:345,1,90,8|0,0:0|0:0,0:0:0:0:
291,222,71627,2,0,P|243:219|199:217,1,90,0|0,0:0|0:0,0:0:0:0:
316,318,72022,6,0,P|364:321|408:323,1,90,4|0,0:0|0:0,0:0:0:0:
463,378,72318,2,0,P|481:344|431:250,1,135,0|0,0:0|0:0,0:0:0:0:
335,156,72812,1,8,0:0:0:0:
423,31,73009,1,0,0:0:0:0:
423,31,73108,1,0,0:0:0:0:
423,31,73206,2,0,L|536:19,1,90,0|0,0:0|0:0,0:0:0:0:
463,166,73601,6,0,P|420:177|323:147,1,135,4|0,0:0|0:0,0:0:0:0:
150,18,74192,1,0,0:0:0:0:
237,145,74391,2,0,P|243:193|244:242,1,90,8|0,0:0|0:0,0:0:0:0:
149,106,74785,1,0,0:0:0:0:
33,211,74983,1,0,0:0:0:0:
33,211,75081,1,0,0:0:0:0:
33,211,75180,6,0,L|15:74,1,135,4|0,0:0|0:0,0:0:0:0:
100,290,75772,1,0,0:0:0:0:
245,340,75970,1,8,0:0:0:0:
247,343,76068,1,8,0:0:0:0:
249,346,76167,1,8,0:3:0:0:
251,349,76266,1,8,0:3:0:0:
253,352,76364,2,0,L|390:332,1,135,8|0,0:3|0:3,0:0:0:0:
464,363,76759,6,0,P|468:324|393:254,1,148.50000453186,4|0,0:0|0:0,0:0:0:0:
253,45,77351,1,0,0:0:0:0:
253,45,77449,1,0,0:0:0:0:
253,45,77549,2,0,P|239:122|243:216,1,148.50000453186,12|0,0:0|0:0,0:0:0:0:
273,271,77943,1,0,0:0:0:0:
130,361,78141,1,0,0:0:0:0:
3,251,78337,6,0,P|29:197|113:184,1,148.50000453186,12|0,0:0|0:0,0:0:0:0:
81,256,78732,1,0,0:0:0:0:
222,347,78930,1,0,0:0:0:0:
349,215,79127,2,0,P|408:223|446:298,1,148.50000453186,12|0,0:0|0:0,0:0:0:0:
368,291,79522,1,8,0:0:0:0:
222,347,79720,1,0,0:0:0:0:
81,256,79917,5,4,0:0:0:0:
195,116,80114,1,0,0:0:0:0:
195,116,80213,1,0,0:0:0:0:
195,116,80311,2,0,P|140:112|66:104,1,99.0000030212403,0|0,0:0|0:0,0:0:0:0:
250,37,80706,1,12,0:0:0:0:
414,73,80903,1,0,0:0:0:0:
414,73,81002,1,0,0:0:0:0:
414,73,81100,2,0,P|469:69|543:61,1,99.0000030212403,0|0,0:0|0:0,0:0:0:0:
494,232,81495,6,0,P|472:288|390:308,1,148.50000453186,12|0,0:0|0:0,0:0:0:0:
416,233,81890,2,0,P|416:210|422:166,2,49.5000015106202,0|0|0,0:0|0:0|0:0,0:0:0:0:
284,338,82285,2,0,P|280:289|274:233,1,99.0000030212403,12|0,0:0|0:0,0:0:0:0:
261,71,82679,2,0,P|275:49|291:32,2,49.5000015106202,0|0|8,0:0|0:0|0:0,0:0:0:0:
118,162,83074,6,0,P|58:153|20:78,1,148.50000453186,12|0,0:0|0:0,0:0:0:0:
99,86,83469,1,0,0:0:0:0:
164,241,83667,1,0,0:0:0:0:
164,241,83864,2,0,P|92:248|16:258,1,148.50000453186,12|0,0:0|0:0,0:0:0:0:
81,304,84259,1,0,0:0:0:0:
258,291,84456,1,0,0:0:0:0:
258,291,84653,6,0,P|342:300|406:308,1,148.50000453186,12|0,0:0|0:0,0:0:0:0:
341,354,85048,1,0,0:0:0:0:
474,258,85246,1,0,0:0:0:0:
474,258,85442,2,0,P|467:201|488:111,1,148.50000453186,12|0,0:0|0:0,0:0:0:0:
419,164,85838,1,8,0:0:0:0:
328,22,86035,1,0,0:0:0:0:
235,163,86233,6,0,L|86:136,1,148.50000453186,12|0,0:0|0:0,0:0:0:0:
15,94,86628,1,0,0:0:0:0:
170,31,86825,1,0,0:0:0:0:
309,124,87022,2,0,P|306:207|251:248,1,148.50000453186,12|0,0:0|0:0,0:0:0:0:
235,163,87417,1,0,0:0:0:0:
388,95,87614,1,0,0:0:0:0:
369,262,87812,5,12,0:0:0:0:
235,163,88008,2,0,P|204:156|164:160,2,49.5000015106202,8|8|8,0:3|0:3|0:3,0:0:0:0:
316,186,88304,2,0,P|340:178|384:177,2,49.5000015106202,0|8|8,0:0|0:0|0:0,0:0:0:0:
259,245,88600,2,0,L|273:351,1,99.0000030212403,8|0,0:0|0:0,0:0:0:0:
182,302,88896,2,0,P|154:271|117:262,2,49.5000015106202,8|8|8,0:0|0:0|0:3,0:0:0:0:
113,359,89193,2,0,P|93:365|35:376,1,49.5000015106202,8|8,0:3|0:0,0:0:0:0:
0,315,89390,1,12,0:0:0:0:
