osu file format v14

[General]
AudioFilename: audio.mp3
AudioLeadIn: 0
PreviewTime:79274
Countdown: 0
SampleSet: Soft
StackLeniency: 0.5
Mode: 0
LetterboxInBreaks: 0
WidescreenStoryboard: 1

[Editor]
DistanceSpacing: 1.1
BeatDivisor: 8
GridSize: 8
TimelineZoom: 2.999999

[Metadata]
Title:Welcome My Friend (TV Size)
TitleUnicode:Welcome My Friend (TV Size)
Artist:OKAMOTO'S
ArtistUnicode:OKAMOTO'S
Creator:Flask
Version:Difficulty:YURI'S HARD
Source:富豪刑事 Balance:UNLIMITED
Tags:fugou keiji balance unlimited 神戸大助 kanbe daisuke 加藤 春 katou haru katō ending japanese anime the millionaire detective fugō rock jrock Yahuri rap
BeatmapID:2931040
BeatmapSetID:1247093

[Difficulty]
HPDrainRate:4
CircleSize:3.5
OverallDifficulty:6
ApproachRate:7.6
SliderMultiplier:3
SliderTickRate:1

[Events]
//Background and Video events
0,0,"Fugou.Keiji_.Balance_UNLIMITED.full.3034908.jpg",0,0
Video,110,"FugouKeiji-ED1.mp4"
//Break Periods
//Storyboard Layer 0 (Background)
//Storyboard Layer 1 (Fail)
//Storyboard Layer 2 (Pass)
//Storyboard Layer 3 (Foreground)
//Storyboard Layer 4 (Overlay)
//Storyboard Sound Samples

[TimingPoints]
903,550.45871559633,4,2,1,35,1,0
903,-142.857142857143,4,2,1,35,0,0
9710,-100,4,2,1,50,0,0
18517,-100,4,2,1,70,0,0
22921,-100,4,2,1,80,0,0
25103,550.45871559633,4,2,1,80,1,0
26203,-100,4,2,1,50,0,0
26754,-100,4,2,1,60,0,0
26891,-100,4,2,1,65,0,0
27029,-100,4,2,1,70,0,0
27167,-100,4,2,1,80,0,0
27325,550.45871559633,4,2,1,70,1,0
27325,-83.3333333333333,4,2,1,70,0,1
44939,-100,4,2,1,60,0,0
62554,-100,4,2,1,60,0,1
62691,-100,4,2,1,60,0,0
71361,-100,4,2,1,65,0,0
73563,-100,4,2,1,70,0,0
75765,-100,4,2,1,75,0,0
77967,-100,4,2,1,80,0,0
80169,-100,4,2,1,70,0,0
84572,-100,4,2,1,80,0,0
86754,550.45871559633,4,2,1,90,1,0
87854,-100,4,2,1,50,0,0
88405,-100,4,2,1,60,0,0
88542,-100,4,2,1,65,0,0
88680,-100,4,2,1,70,0,0
88818,-100,4,2,1,80,0,0
88955,-100,4,2,1,90,0,0

[Colours]
Combo1 : 105,117,150
Combo2 : 141,111,92
Combo3 : 78,220,220
Combo4 : 175,163,122

[HitObjects]
318,49,903,6,0,P|419:33|485:114,1,209.999993591309,2|0,0:0|0:0,0:0:0:0:
456,208,1728,1,0,0:0:0:0:
382,133,2003,2,0,B|276:98|284:184|180:150,1,209.999993591309
119,65,2829,1,0,0:0:0:0:
223,54,3104,6,0,P|260:151|261:255,1,209.999993591309,2|0,0:0|0:0,0:0:0:0:
233,357,3930,1,0,0:0:0:0:
329,314,4205,2,0,L|433:322,1,104.999996795654
494,236,4756,2,0,L|389:227,1,104.999996795654
329,314,5306,6,0,P|240:296|284:217,1,209.999993591309,2|0,0:0|0:0,0:0:0:0:
389,227,6132,1,0,0:0:0:0:
345,131,6407,2,0,P|247:168|143:169,1,209.999993591309
45,129,7233,1,0,0:0:0:0:
2,225,7508,6,0,B|107:259|99:173|203:207,1,209.999993591309,2|0,0:0|0:0,0:0:0:0:
287,270,8334,1,0,0:0:0:0:
365,200,8609,2,0,P|368:147|355:97,1,104.999996795654
280,33,9159,1,0,0:0:0:0:
280,33,9297,2,0,L|228:37,1,52.4999983978272
88,109,9710,6,0,L|13:115,2,75,2|0|0,0:0|0:0|0:0,0:0:0:0:
165,141,10123,1,0,0:0:0:0:
165,141,10260,1,0,0:0:0:0:
128,294,10536,1,0,0:0:0:0:
274,350,10811,2,0,P|346:331|421:334,1,150,2|0,0:0|0:0,0:0:0:0:
491,368,11224,2,0,P|439:314|404:248,1,150
417,170,11636,1,0,0:0:0:0:
292,73,11912,6,0,P|290:36|299:-1,2,75,2|0|0,0:0|0:0|0:0,0:0:0:0:
219,95,12325,1,0,0:0:0:0:
219,95,12462,2,0,P|198:63|187:26,2,75
165,152,12875,1,0,0:0:0:0:
165,152,13013,2,0,L|178:301,1,150,2|0,0:0|0:0,0:0:0:0:
154,376,13425,1,0,0:0:0:0:
32,179,13838,1,0,0:0:0:0:
32,179,13976,1,0,0:0:0:0:
140,30,14297,6,0,L|65:24,2,75
193,36,14664,1,0,0:0:0:0:
204,44,14939,2,0,P|200:118|220:190,1,150,2|0,0:0|0:0,0:0:0:0:
290,269,15398,6,0,L|284:344,2,75
295,216,15765,1,0,0:0:0:0:
308,209,16040,2,0,P|382:205|454:225,1,150,2|0,0:0|0:0,0:0:0:0:
498,129,16499,6,0,L|505:54,2,75
450,107,16866,2,0,B|460:-11|460:-11|438:10,1,150,2|0,0:0|0:3,0:3:0:0:
392,160,17416,2,0,B|402:278|402:278|380:256,1,150,2|0,0:0|0:3,0:3:0:0:
336,105,17967,1,2,0:0:0:0:
203,227,18242,1,0,0:0:0:0:
114,92,18517,5,4,0:3:0:0:
398,292,19618,5,4,0:3:0:0:
356,50,20719,5,4,0:3:0:0:
156,334,21820,5,4,0:3:0:0:
398,292,22370,5,8,0:0:0:0:
400,306,22646,1,0,1:0:0:0:
258,232,22921,5,4,1:2:0:0:
258,232,23150,2,0,P|191:223|131:252,1,125
98,283,23471,2,0,L|123:135,1,150,10|0,0:0|1:0,0:0:0:0:
277,76,24022,5,4,1:2:0:0:
277,76,24251,2,0,P|336:103|402:96,1,125
436,64,24572,2,0,L|410:211,1,150,10|0,0:0|1:0,0:0:0:0:
490,343,25103,5,12,0:0:0:0:
492,357,25378,1,0,1:0:0:0:
351,272,25653,1,12,0:0:0:0:
349,286,25928,2,0,P|308:289|260:304,1,75,0|0,1:0|1:0,0:0:0:0:
225,364,26203,6,0,P|223:288|199:217,1,150,14|0,1:2|1:0,0:0:0:0:
126,180,26616,1,0,1:0:0:0:
196,136,26754,2,0,L|269:122,1,75,8|8,0:0|0:0,0:0:0:0:
337,74,27029,1,8,0:0:0:0:
418,89,27166,1,8,0:0:0:0:
504,25,27325,6,0,P|441:85|439:173,1,179.999994506836,4|0,1:2|0:0,0:0:0:0:
505,359,27875,2,0,P|423:323|333:327,1,179.999994506836,10|0,0:0|0:0,0:0:0:0:
140,367,28425,1,2,1:2:0:0:
137,384,28701,1,0,1:0:0:0:
21,223,28976,2,0,L|198:253,1,179.999994506836,10|0,0:0|0:0,0:0:0:0:
278,195,29389,5,0,0:0:0:0:
278,195,29526,2,0,B|327:274|258:286|308:366,1,179.999994506836,6|0,1:2|0:0,0:0:0:0:
494,295,30077,1,10,0:0:0:0:
512,98,30352,2,0,P|446:155|358:149,1,179.999994506836,2|0,0:0|1:0,0:0:0:0:
208,20,30902,1,2,1:2:0:0:
56,148,31178,2,0,L|233:178,1,179.999994506836,10|0,0:0|0:0,0:0:0:0:
318,239,31591,5,0,0:0:0:0:
318,239,31728,2,0,B|437:217|437:217|490:242,1,179.999994506836,4|0,1:2|0:0,0:0:0:0:
339,370,32279,2,0,P|297:352|252:354,1,89.9999972534181,10|0,0:0|0:0,0:0:0:0:
158,384,32554,2,0,L|173:295,1,89.9999972534181,2|0,0:0|0:0,0:0:0:0:
145,200,32829,1,2,1:2:0:0:
32,37,33104,1,2,1:2:0:0:
210,123,33380,2,0,P|299:126|380:90,1,179.999994506836,10|0,0:0|0:0,0:0:0:0:
459,31,33792,5,0,0:0:0:0:
459,31,33930,2,0,L|474:119,1,89.9999972534181,6|0,1:2|0:0,0:0:0:0:
396,178,34205,2,0,L|381:90,1,89.9999972534181,2|0,0:0|0:0,0:0:0:0:
288,64,34480,2,0,L|303:152,1,89.9999972534181,10|0,0:0|0:0,0:0:0:0:
225,211,34756,2,0,L|210:123,1,89.9999972534181,2|0,0:0|0:0,0:0:0:0:
117,97,35031,1,6,1:2:0:0:
52,283,35306,1,2,1:2:0:0:
244,239,35581,2,0,B|334:219|322:288|414:269,1,179.999994506836,10|0,0:0|0:0,0:0:0:0:
508,316,35994,5,0,0:0:0:0:
508,317,36132,2,0,P|418:313|337:349,1,179.999994506836,4|0,1:2|0:0,0:0:0:0:
160,259,36682,2,0,P|250:263|331:227,1,179.999994506836,10|0,0:0|0:0,0:0:0:0:
304,30,37233,1,2,1:2:0:0:
287,27,37508,1,0,1:0:0:0:
99,89,37783,2,0,P|166:147|254:140,1,179.999994506836,10|0,0:0|0:0,0:0:0:0:
339,199,38196,5,0,0:0:0:0:
339,199,38334,2,0,B|314:252|314:252|336:371,1,179.999994506836,6|0,1:2|0:0,0:0:0:0:
499,259,38884,2,0,B|524:206|524:206|502:87,1,179.999994506836,10|0,0:0|0:0,0:0:0:0:
323,0,39435,1,0,1:0:0:0:
320,17,39710,1,0,1:0:0:0:
150,116,39985,2,0,P|231:151|320:147,1,179.999994506836,10|0,0:0|0:0,0:0:0:0:
418,120,40398,5,0,0:0:0:0:
418,120,40536,2,0,B|367:136|359:182|359:182|343:269,1,179.999994506836,6|0,1:2|0:0,0:0:0:0:
174,373,41086,2,0,B|158:286|158:286|150:240|99:223,1,179.999994506836,10|0,0:0|0:0,0:0:0:0:
0,51,41636,1,0,1:0:0:0:
17,48,41912,1,0,1:0:0:0:
200,122,42187,2,0,L|377:92,1,179.999994506836,8|0,0:0|0:0,0:0:0:0:
474,64,42600,5,0,0:0:0:0:
474,64,42737,2,0,B|463:124|463:124|478:181|478:181|468:241,1,179.999994506836,6|0,1:2|1:0,0:0:0:0:
306,355,43288,2,0,P|264:337|219:339,1,89.9999972534181,14|0,0:0|0:0,0:0:0:0:
160,254,43563,2,0,P|204:255|245:237,1,89.9999972534181,2|0,1:2|0:0,0:0:0:0:
320,172,43838,6,0,L|303:84,1,89.9999972534181,12|0,0:0|0:0,0:0:0:0:
387,29,44113,2,0,L|403:116,1,89.9999972534181,2|0,1:2|0:0,0:0:0:0:
417,207,44389,2,0,B|326:187|338:256|246:237,1,179.999994506836,12|0,1:2|1:0,0:0:0:0:
104,321,44939,6,0,L|178:327,1,75,6|0,1:2|0:0,0:0:0:0:
252,364,45214,2,0,L|326:370,1,75
406,346,45490,2,0,P|387:274|390:199,1,150,10|0,0:0|0:0,0:0:0:0:
459,49,46040,2,0,L|310:62,1,150,2|0,1:2|0:0,0:0:0:0:
231,87,46453,2,0,L|82:100,1,150,2|0,0:0|0:0,0:0:0:0:
7,131,46866,1,0,0:0:0:0:
7,131,47003,1,0,0:0:0:0:
33,209,47141,6,0,P|24:245|27:283,2,75,2|0|0,1:2|0:0|0:0,0:0:0:0:
107,178,47554,1,0,0:0:0:0:
180,215,47691,2,0,P|229:224|278:222,1,100,10|0,0:0|0:0,0:0:0:0:
390,139,48104,1,0,0:0:0:0:
390,139,48242,2,0,P|386:213|406:285,1,150,2|0,1:2|0:0,0:0:0:0:
459,356,48655,1,2,0:0:0:0:
459,356,48792,1,8,0:0:0:0:
512,199,49068,1,0,1:0:0:0:
440,56,49343,5,0,1:0:0:0:
440,56,49526,2,0,L|288:42,1,150
245,11,49893,2,0,P|264:83|261:158,1,150,10|2,0:0|0:0,0:0:0:0:
128,256,50444,5,0,1:0:0:0:
128,256,50627,2,0,L|53:249,2,75,0|0|0,0:3|0:0|0:3,0:0:0:0:
171,289,50994,2,0,L|255:296,1,75,10|0,0:0|0:0,0:0:0:0:
306,352,51269,2,0,P|302:277|322:205,1,150,2|0,0:0|1:0,0:0:0:0:
348,98,51728,6,0,L|273:105,2,75,0|0|0,0:3|0:0|0:3,0:0:0:0:
396,68,52095,1,10,0:0:0:0:
396,68,52233,1,0,0:0:0:0:
459,120,52370,2,0,P|468:156|465:194,1,75
429,268,52646,2,0,L|355:274,1,75,2|0,1:2|0:0,0:0:0:0:
294,331,52921,2,0,L|220:337,1,75
166,272,53196,2,0,P|146:200|150:125,1,150,10|0,0:0|1:0,0:0:0:0:
180,48,53609,1,0,0:0:0:0:
232,112,53747,6,0,P|251:183|247:258,1,150,2|0,1:2|0:0,0:0:0:0:
219,337,54159,1,2,0:0:0:0:
219,337,54297,1,8,0:0:0:0:
334,219,54572,2,0,L|483:206,1,150,2|0,0:0|1:0,0:0:0:0:
502,125,54985,2,0,L|353:138,1,150,2|0,0:0|0:0,0:0:0:0:
274,163,55398,2,0,P|293:234|289:309,2,150,10|0|0,0:2|0:0|1:0,0:0:0:0:
231,98,56086,5,0,0:0:0:0:
231,98,56224,1,0,0:0:0:0:
160,141,56361,2,0,P|124:150|86:147,1,75,2|8,0:0|0:0,0:0:0:0:
11,111,56636,2,0,L|5:37,2,75
18,193,57049,2,0,L|24:267,1,75,2|0,1:2|0:0,0:0:0:0:
62,341,57325,2,0,P|98:332|136:335,1,75
210,370,57600,2,0,P|284:374|356:354,1,150,10|0,0:0|1:0,0:0:0:0:
463,228,58150,6,0,P|389:224|317:244,1,150,2|0,1:2|0:0,0:0:0:0:
250,293,58563,1,0,0:0:0:0:
241,210,58701,2,0,L|228:61,1,150,10|0,0:0|0:0,0:0:0:0:
72,5,59251,5,0,1:0:0:0:
102,81,59389,2,0,P|64:83|28:74,2,75,2|0|0,0:0|0:0|0:0,0:0:0:0:
156,144,59802,2,0,L|162:218,1,75,10|0,0:0|0:0,0:0:0:0:
214,283,60077,2,0,L|220:357,1,75
296,314,60352,6,0,P|300:240|280:168,1,150,2|0,1:2|0:0,0:0:0:0:
244,93,60765,1,0,0:0:0:0:
271,15,60902,2,0,L|420:2,1,150,10|0,0:0|0:0,0:0:0:0:
487,50,61315,1,0,0:0:0:0:
412,85,61453,6,0,P|403:121|406:159,1,75,2|0,1:2|0:0,0:0:0:0:
455,224,61728,2,0,P|464:260|461:298,1,75
422,370,62003,1,10,0:0:0:0:
426,384,62279,1,0,1:0:0:0:
283,301,62554,6,0,P|209:297|137:317,1,150,6|0,1:2|0:0,0:0:0:0:
62,348,62967,1,0,0:0:0:0:
62,348,63104,2,0,L|55:273,1,75,0|0,1:0|0:0,0:0:0:0:
48,340,63380,2,0,L|42:266,1,75
36,182,63655,6,0,P|103:185|153:126,1,150,2|0,1:2|0:0,0:0:0:0:
198,57,64068,1,0,0:0:0:0:
198,57,64205,2,0,P|235:65|273:63,1,75,0|0,1:0|0:0,0:0:0:0:
207,44,64480,2,0,P|243:52|281:50,1,75
358,20,64756,6,0,L|371:169,1,150,2|0,1:2|0:0,0:0:0:0:
407,249,65169,1,0,0:0:0:0:
407,249,65306,2,0,L|400:324,1,75,2|0,1:3|0:0,0:0:0:0:
393,257,65581,2,0,L|387:331,1,75
311,272,65857,2,0,L|304:347,1,75,2|0,1:2|0:0,0:0:0:0:
297,280,66132,2,0,L|291:354,1,75
215,295,66407,1,2,1:3:0:0:
201,302,66682,1,2,1:3:0:0:
126,154,66958,6,0,P|193:151|243:210,1,150,2|0,1:2|0:0,0:0:0:0:
297,279,67370,1,0,0:0:0:0:
297,279,67508,2,0,P|334:287|372:285,1,75,0|0,1:0|0:0,0:0:0:0:
306,266,67783,2,0,P|342:274|380:272,1,75
445,220,68058,6,0,P|424:148|428:73,1,150,2|0,1:2|0:0,0:0:0:0:
362,28,68471,1,0,0:0:0:0:
362,28,68609,2,0,L|287:35,1,75,0|0,1:0|0:0,0:0:0:0:
354,42,68884,2,0,L|280:48,1,75
204,84,69159,6,0,L|55:97,1,150,2|0,1:2|0:0,0:0:0:0:
12,169,69572,1,0,0:0:0:0:
12,169,69710,2,0,P|4:206|6:244,1,75,2|0,1:3|0:0,0:0:0:0:
24,178,69985,2,0,P|15:214|19:252,1,75
107,190,70260,2,0,P|99:227|101:265,1,75,2|0,1:2|0:0,0:0:0:0:
119,198,70536,2,0,P|110:234|114:272,1,75
203,211,70811,1,2,1:3:0:0:
216,219,71086,1,2,1:3:0:0:
336,331,71361,6,0,B|261:312|265:362|190:343,1,150,2|0,1:2|0:0,0:0:0:0:
118,313,71774,1,0,0:0:0:0:
118,313,71912,2,0,L|111:238,1,75,0|0,1:0|0:0,0:0:0:0:
75,163,72187,2,0,L|69:89,1,75
94,9,72462,6,0,P|161:6|211:65,1,150,2|0,1:2|0:0,0:0:0:0:
226,155,72875,1,0,0:0:0:0:
226,155,73013,2,0,P|252:128|285:109,1,75,0|0,1:0|0:0,0:0:0:0:
340,47,73288,2,0,P|376:56|409:75,1,75,0|0,1:0|0:0,0:0:0:0:
489,93,73563,6,0,P|499:166|475:236,1,150,2|0,1:2|0:0,0:0:0:0:
426,304,73976,1,0,0:0:0:0:
426,304,74113,2,0,L|351:311,1,75,2|0,1:3|0:0,0:0:0:0:
320,233,74389,2,0,L|394:227,1,75
409,145,74664,2,0,L|334:152,1,75,2|0,1:2|0:0,0:0:0:0:
303,74,74939,2,0,L|377:68,1,75
442,18,75214,1,2,1:3:0:0:
456,22,75490,1,2,1:3:0:0:
497,181,75765,6,0,P|452:238|379:237,1,150,2|0,1:2|0:0,0:0:0:0:
308,207,76178,1,0,0:0:0:0:
308,207,76315,2,0,P|270:205|234:213,1,75,0|0,1:0|0:0,0:0:0:0:
171,268,76591,2,0,P|134:275|97:274,1,75
23,237,76866,6,0,P|13:163|37:93,1,150,2|0,1:2|0:0,0:0:0:0:
102,41,77279,1,0,0:0:0:0:
102,41,77416,2,0,L|177:48,1,75,0|0,1:0|0:0,0:0:0:0:
251,85,77691,2,0,L|325:91,1,75
400,127,77967,6,0,L|387:276,1,150,2|0,1:2|0:0,0:0:0:0:
313,252,78380,1,0,0:0:0:0:
313,252,78517,2,0,P|275:250|239:258,1,75,2|0,1:3|0:0,0:0:0:0:
252,339,78792,2,0,P|289:340|325:332,1,75
405,355,79068,5,2,1:3:0:0:
462,245,79274,2,0,P|460:176|444:113,1,112.5,2|0,0:0|0:0,0:3:0:0:
412,61,79618,1,2,1:2:0:0:
248,37,79893,1,0,1:0:0:0:
101,112,80169,5,8,0:0:0:0:
411,272,81269,5,8,0:0:0:0:
336,37,82370,5,8,0:0:0:0:
176,347,83471,5,8,0:0:0:0:
101,112,84022,5,8,0:0:0:0:
99,126,84297,1,0,1:0:0:0:
202,254,84572,5,4,0:0:0:0:
214,246,84847,2,0,P|251:245|287:253,1,75
350,309,85123,2,0,P|346:235|366:163,1,150,10|0,0:0|1:0,0:0:0:0:
227,73,85673,5,4,0:0:0:0:
215,81,85948,2,0,P|165:85|105:67,1,112.5
71,44,86224,2,0,L|84:193,1,150,10|0,0:0|1:0,0:0:0:0:
61,344,86754,5,12,0:0:0:0:
64,330,87029,1,0,1:0:0:0:
177,210,87305,1,12,0:0:0:0:
180,196,87580,2,0,P|217:199|253:210,1,75,0|0,1:0|1:0,0:0:0:0:
318,260,87855,6,0,P|390:260|435:203,1,150,14|0,1:2|1:0,0:0:0:0:
435,121,88268,1,0,1:0:0:0:
373,65,88405,2,0,L|299:72,1,75,8|8,0:0|0:0,0:0:0:0:
225,111,88681,1,8,0:0:0:0:
146,87,88818,1,8,0:0:0:0:
72,125,88956,1,12,1:2:0:0:
