osu file format v14

[General]
AudioFilename: audio.mp3
AudioLeadIn: 0
PreviewTime: 79274
Countdown: 0
SampleSet: Soft
StackLeniency: 0.7
Mode: 0
LetterboxInBreaks: 0
WidescreenStoryboard: 1

[Editor]
Bookmarks: 9176,18258,27066,62295,78533,80494,80735,80942,81217,81802,84313
DistanceSpacing: 1.1
BeatDivisor: 4
GridSize: 4
TimelineZoom: 2.3

[Metadata]
Title:Welcome My Friend (TV Size)
TitleUnicode:Welcome My Friend (TV Size)
Artist:OKAMOTO'S
ArtistUnicode:OKAMOTO'S
Creator:Flask
Version:Difficulty:NORMAL
Source:富豪刑事 Balance:UNLIMITED
Tags:fugou keiji balance unlimited 神戸大助 kanbe daisuke 加藤 春 katou haru katō ending japanese anime the millionaire detective fugō rock jrock Yahuri rap
BeatmapID:3010231
BeatmapSetID:1247093

[Difficulty]
HPDrainRate:3
CircleSize:3
OverallDifficulty:4
ApproachRate:5.5
SliderMultiplier:2
SliderTickRate:1

[Events]
//Background and Video events
0,0,"Fugou.Keiji_.Balance_UNLIMITED.full.3034908.jpg",0,0
Video,110,"FugouKeiji-ED1.mp4"
//Break Periods
//Storyboard Layer 0 (Background)
//Storyboard Layer 1 (Fail)
//Storyboard Layer 2 (Pass)
//Storyboard Layer 3 (Foreground)
//Storyboard Layer 4 (Overlay)
//Storyboard Sound Samples

[TimingPoints]
903,550.45871559633,4,2,1,35,1,0
903,-125,4,2,1,35,0,0
9297,-125,4,2,1,35,0,0
9710,-125,4,2,1,50,0,0
17416,-125,4,2,1,60,0,0
17967,-125,4,2,1,70,0,0
18517,-100,4,2,1,70,0,0
25103,550.45871559633,4,2,1,70,1,0
25103,-100,4,2,1,70,0,0
26410,-100,4,2,1,50,0,0
26754,-100,4,2,1,60,0,0
26892,-100,4,2,1,65,0,0
27029,-100,4,2,1,70,0,0
27167,-100,4,2,1,80,0,0
27325,550.45871559633,4,2,1,70,1,0
27325,-100,4,2,1,70,0,0
29251,-100,4,2,1,50,0,0
29526,-100,4,2,1,70,0,0
43288,-100,4,2,1,70,0,0
43838,-100,4,2,1,70,0,0
44939,-100,4,2,1,60,0,0
62003,-100,4,2,1,60,0,0
62554,-100,4,2,1,60,0,1
62623,-100,4,2,1,60,0,0
63104,-100,4,2,1,50,0,0
66682,-100,4,2,1,50,0,0
68884,-100,4,2,1,50,0,0
71361,-100,4,2,1,60,0,0
72462,-100,4,2,1,65,0,0
73563,-100,4,2,1,70,0,0
75765,-100,4,2,1,75,0,0
76040,-100,4,2,1,75,0,0
78792,-100,4,2,1,80,0,1
78930,-100,4,2,1,80,0,0
79205,-100,4,2,1,75,0,0
84572,-100,4,2,1,80,0,0
86754,550.45871559633,4,2,1,80,1,0
86754,-100,4,2,1,80,0,0
87305,-100,4,2,1,80,0,0
87855,-100,4,2,1,60,0,0
88130,-100,4,2,1,65,0,0
88405,-100,4,2,1,70,0,0
88681,-100,4,2,1,80,0,0
88956,-100,4,2,1,90,0,0

[Colours]
Combo1 : 105,117,150
Combo2 : 141,111,92
Combo3 : 78,220,220
Combo4 : 175,163,122

[HitObjects]
27,216,903,6,0,P|84:214|136:113,1,160,2|2,0:0|0:0,0:0:0:0:
183,50,1728,1,2,0:0:0:0:
183,50,2003,2,0,L|368:78,1,160,2|2,0:0|0:0,0:0:0:0:
431,41,2829,1,2,0:0:0:0:
431,41,3104,6,0,B|455:144|388:123|432:223,1,160,2|2,0:0|0:0,0:0:0:0:
387,286,3930,1,2,0:0:0:0:
307,231,4205,2,0,P|266:231|227:262,2,80,2|2|2,0:0|0:0|0:0,0:0:0:0:
132,311,5306,6,0,P|88:252|99:163,1,160,2|2,0:0|0:0,0:0:0:0:
183,128,6132,1,2,0:0:0:0:
183,128,6407,2,0,P|96:145|29:94,1,160,2|2,0:0|0:0,0:0:0:0:
52,13,7233,1,2,0:0:0:0:
52,13,7508,6,0,P|138:-4|205:46,1,160,2|2,0:0|0:0,0:0:0:0:
266,95,8334,1,2,0:0:0:0:
349,47,8609,2,0,L|448:26,2,80,2|2|2,0:0|0:0|0:0,0:0:0:0:
346,143,9435,1,0,0:0:0:0:
431,187,9710,6,0,P|447:230|426:279,1,80,2|2,0:0|0:0,0:0:0:0:
384,341,10260,2,0,L|283:334,1,80,2|2,0:0|0:0,0:0:0:0:
230,273,10811,2,0,L|101:292,1,120,2|2,0:0|0:0,0:0:0:0:
27,243,11499,2,0,L|43:200,1,40,2|2,0:0|0:0,0:0:0:0:
116,145,11912,6,0,B|129:102|129:102|117:58,2,80,2|2|2,0:0|0:0|0:0,0:0:0:0:
203,184,12737,1,2,0:0:0:0:
198,279,13013,2,0,L|320:246,1,120,2|2,0:0|0:0,0:0:0:0:
433,155,13838,2,0,L|415:109,1,40,2|0,0:0|0:0,0:0:0:0:
408,21,14251,6,0,L|460:33,2,40,0|2|0,0:0|0:0|0:0,0:0:0:0:
365,44,14664,2,0,L|254:68,1,80,2|2,0:0|0:0,0:0:0:0:
144,37,15352,2,0,L|161:-14,2,40,0|2|0,0:0|0:0|0:0,0:0:0:0:
105,65,15765,2,0,L|129:176,1,80,2|2,0:0|0:1,0:0:0:0:
155,281,16453,6,0,L|144:335,2,40,0|0|2,0:0|0:0|0:0,0:0:0:0:
193,252,16866,2,0,P|230:237|279:260,1,80,2|0,0:0|0:0,0:0:0:0:
323,325,17416,2,0,P|371:329|404:288,1,80,2|2,0:0|0:0,0:0:0:0:
434,223,17967,2,0,L|522:241,2,80,2|0|4,0:0|0:0|1:2,0:0:0:0:
131,28,19618,5,4,1:2:0:0:
221,376,20719,5,4,1:2:0:0:
156,21,21820,5,4,1:2:0:0:
23,142,22370,2,0,P|24:196|64:238,1,100,8|0,0:0|1:0,0:0:0:0:
80,337,22921,6,0,P|116:313|124:147,1,200,4|10,1:2|1:2,0:0:0:0:
219,94,23747,1,2,1:2:0:0:
308,156,24022,2,0,B|421:175|421:175|494:85,1,200,4|10,1:2|1:2,0:0:0:0:
409,20,24847,1,2,1:2:0:0:
306,59,25103,6,0,P|258:55|213:11,2,100,12|0|12,0:0|1:0|1:2,0:0:0:0:
381,139,25928,1,0,1:0:0:0:
317,229,26204,2,0,L|324:291,2,50,4|0|0,1:2|1:0|1:0,0:0:0:0:
217,182,26754,2,0,L|224:120,2,50,8|8|8,1:2|1:2|1:2,0:0:0:0:
173,215,27167,1,8,1:2:0:0:
121,194,27325,6,0,P|71:198|42:340,1,200,4|10,1:2|1:2,0:0:0:0:
124,374,28150,1,2,0:0:0:0:
225,330,28425,2,0,L|342:312,1,100,2|0,1:2|1:0,0:0:0:0:
406,241,28976,2,0,P|418:193|395:139,1,100,8|4,1:2|0:0,0:0:0:0:
397,42,29526,6,0,P|382:102|252:122,1,200,4|10,1:2|1:2,0:0:0:0:
186,38,30352,2,0,P|149:71|136:128,1,100,2|0,0:2|1:0,0:0:0:0:
89,218,30902,1,2,1:2:0:0:
176,285,31178,2,0,P|231:294|280:264,1,100,8|0,1:2|0:0,0:0:0:0:
345,196,31728,6,0,P|423:181|483:280,1,200,4|10,1:2|1:2,0:0:0:0:
408,350,32554,1,2,0:0:0:0:
305,311,32829,2,0,P|259:304|217:335,1,100,2|2,1:2|1:2,0:0:0:0:
115,375,33380,2,0,L|88:223,1,150,8|0,1:2|0:0,0:0:0:0:
80,172,33930,5,4,1:2:0:0:
28,74,34205,1,2,0:0:0:0:
130,35,34480,2,0,P|171:35|212:85,1,100,10|2,1:2|0:0,0:0:0:0:
260,174,35031,2,0,L|246:284,2,100,4|2|8,1:2|1:2|1:2,0:0:0:0:
457,201,36132,6,0,B|435:67|492:129|494:8,2,200,4|10|2,1:2|1:2|1:2,0:0:0:0:
358,151,37508,1,0,1:0:0:0:
277,225,37783,2,0,L|166:211,1,100,10|0,1:2|1:0,0:0:0:0:
90,145,38334,6,0,B|137:199|137:199|109:326,2,200,4|10|2,1:2|1:2|1:2,0:0:0:0:
302,204,39985,2,0,P|320:158|298:101,1,100,10|0,1:2|0:0,0:0:0:0:
232,29,40536,6,0,L|109:53,2,100,4|2|10,1:2|1:2|1:2,0:0:0:0:
339,6,41361,1,2,1:2:0:0:
426,72,41636,2,0,B|417:163|417:163|406:169|406:169|394:270,1,200,2|12,1:2|1:2,0:0:0:0:
322,347,42462,1,2,1:2:0:0:
212,338,42737,6,0,P|166:310|152:250,1,100,12|2,1:2|1:2,0:0:0:0:
87,177,43288,2,0,P|114:131|174:117,1,100,12|2,1:2|1:2,0:0:0:0:
246,52,43838,2,0,P|291:79|305:139,2,100,12|2|8,1:2|1:2|1:2,0:0:0:0:
146,4,44664,1,2,1:2:0:0:
56,68,44939,6,0,L|89:227,1,150,6|0,1:2|0:0,0:0:0:0:
96,269,45490,1,8,1:2:0:0:
192,216,45765,1,0,1:0:0:0:
274,289,46040,2,0,P|329:310|411:255,1,150,2|2,1:2|1:2,0:0:0:0:
457,251,46591,2,0,L|435:143,1,100,8|2,1:2|1:2,0:0:0:0:
334,113,47141,6,0,L|354:8,1,100,2|0,1:2|1:0,0:0:0:0:
242,13,47691,2,0,P|193:10|155:52,1,100,8|0,1:2|0:0,0:0:0:0:
108,141,48242,2,0,P|121:187|217:225,1,150,2|2,1:2|0:0,0:0:0:0:
258,203,48792,2,0,L|359:223,1,100,8|0,1:2|1:2,0:0:0:0:
195,372,49618,5,2,0:0:0:0:
112,301,49893,2,0,P|59:289|12:318,2,100,10|2|0,1:2|1:2|1:2,0:0:0:0:
212,254,50719,1,2,0:0:0:0:
125,186,50994,2,0,L|109:128,1,50,10|2,1:2|0:0,0:0:0:0:
140,90,51269,2,0,P|182:88|225:126,1,100,2|2,1:2|1:2,0:0:0:0:
333,134,51820,5,2,0:0:0:0:
403,50,52095,2,0,L|460:43,2,50,10|0|2,1:2|0:0|1:2,0:0:0:0:
466,140,52646,2,0,L|502:189,2,50,2|0|2,1:2|0:0|1:2,0:0:0:0:
399,227,53196,2,0,L|389:286,2,50,8|0|2,1:2|0:0|1:2,0:0:0:0:
298,189,53747,6,0,P|244:181|186:258,1,150,2|2,1:2|0:0,0:0:0:0:
185,302,54297,1,8,1:2:0:0:
83,344,54572,2,0,L|46:183,1,150,2|2,1:2|0:0,0:0:0:0:
112,44,55398,2,0,P|173:29|277:113,1,200,10|2,1:2|1:2,0:0:0:0:
326,86,56086,6,0,L|358:42,2,50,2|2|2,0:0|1:2|0:0,0:0:0:0:
415,150,56636,2,0,L|464:143,2,50,2|2|2,0:0|1:2|0:0,0:0:0:0:
365,174,57049,2,0,P|345:225|362:273,1,100,0|0,1:0|1:0,0:0:0:0:
324,365,57600,1,8,1:2:0:0:
218,334,57875,2,0,L|161:321,1,50,2|0,1:2|1:0,0:0:0:0:
151,270,58150,6,0,L|172:115,1,150,2|0,1:2|1:0,0:0:0:0:
145,72,58701,2,0,P|105:56|44:81,1,100,10|2,1:2|1:2,0:0:0:0:
6,175,59251,2,0,L|-8:283,2,100,2|0|8,1:2|1:0|1:2,0:0:0:0:
102,228,60077,1,2,1:2:0:0:
191,164,60352,6,0,L|184:111,2,50,2|0|2,1:2|0:0|1:2,0:0:0:0:
276,232,60902,2,0,L|269:285,2,50,8|0|2,1:2|0:0|1:2,0:0:0:0:
381,198,61453,2,0,L|366:84,1,100,2|2,1:2|1:2,0:0:0:0:
299,10,62003,2,0,B|209:4|247:53|151:50,1,150,12|0,1:2|0:0,0:0:0:0:
117,86,62554,6,0,L|15:75,2,100,4|2|2,1:2|0:0|1:2,0:0:0:0:
163,185,63380,1,2,0:2:0:0:
271,202,63655,2,0,L|373:191,2,100,2|2|2,1:2|0:2|1:2,0:0:0:0:
200,286,64480,1,2,0:2:0:0:
120,362,64756,6,0,P|81:360|36:322,1,100,2|2,1:2|0:0,0:0:0:0:
18,213,65306,2,0,P|20:174|58:129,1,100,2|2,1:2|0:0,0:0:0:0:
166,106,65857,2,0,L|145:0,2,100,2|2|2,1:2|0:0|1:2,0:0:0:0:
271,137,66682,1,2,1:3:0:0:
375,102,66958,6,0,P|381:158|360:205,1,100,2|2,1:2|0:0,0:0:0:0:
268,249,67508,2,0,L|283:361,1,100,2|2,1:2|0:0,0:0:0:0:
390,358,68058,2,0,P|433:351|466:302,2,100,2|2|2,1:2|0:0|1:2,0:0:0:0:
373,248,68884,1,2,1:3:0:0:
322,150,69159,6,0,L|342:37,1,100,2|2,1:2|0:0,0:0:0:0:
230,33,69710,2,0,L|118:19,1,100,2|2,1:2|1:2,0:0:0:0:
22,40,70260,2,0,P|9:94|29:141,1,100,2|2,1:2|0:0,0:0:0:0:
122,184,70811,2,0,P|175:168|205:127,1,100,2|2,1:2|1:3,0:0:0:0:
276,216,71361,6,0,L|381:238,1,100,2|2,1:2|0:0,0:0:0:0:
474,190,71912,2,0,B|488:242|488:242|471:293,1,100,2|2,1:2|0:0,0:0:0:0:
392,359,72462,1,2,1:2:0:0:
308,286,72737,1,2,0:0:0:0:
210,337,73013,2,0,L|101:320,1,100,2|2,1:2|1:3,0:0:0:0:
48,231,73563,6,0,P|89:216|115:154,1,100,2|2,1:2|0:0,0:0:0:0:
82,63,74114,1,2,1:2:0:0:
180,14,74389,1,2,1:3:0:0:
252,96,74664,2,0,L|357:85,1,100,2|2,1:2|1:3,0:0:0:0:
378,192,75214,2,0,L|273:203,1,100,2|2,1:2|1:2,0:0:0:0:
168,189,75765,6,0,P|146:232|160:288,1,100,2|2,1:2|1:3,0:0:0:0:
235,356,76315,1,2,1:2:0:0:
334,307,76591,1,2,1:3:0:0:
426,365,76866,2,0,P|464:334|471:279,1,100,2|2,1:2|0:0,0:0:0:0:
419,189,77416,2,0,L|306:174,1,100,2|2,1:2|1:3,0:0:0:0:
230,111,77967,6,0,P|194:68|202:27,2,100,2|2|2,1:2|1:3|1:2,0:0:0:0:
124,141,78792,2,2,B|138:241|138:241|135:247|135:247|153:345,1,200,6|0,1:2|0:0,0:1:0:0:
256,372,79618,1,0,1:0:0:0:
340,301,79893,1,2,1:2:0:0:
240,252,80169,5,4,1:2:0:0:
506,10,81269,5,4,1:2:0:0:
500,369,82370,5,4,1:2:0:0:
222,140,83471,5,4,1:2:0:0:
378,48,84022,2,0,P|426:68|448:122,1,100,8|2,1:2|1:2,0:0:0:0:
490,209,84572,6,0,P|398:218|364:316,1,200,4|10,1:2|1:2,0:0:0:0:
268,367,85398,1,2,1:2:0:0:
184,295,85673,2,0,L|156:90,1,200,4|10,1:2|1:2,0:0:0:0:
61,41,86499,1,0,1:2:0:0:
6,136,86754,6,0,P|12:187|48:218,1,100,12|2,1:2|0:0,0:0:0:0:
151,182,87304,2,0,L|262:161,1,100,12|0,1:2|1:2,0:0:0:0:
344,109,87854,2,0,L|355:51,2,50,4|0|0,1:2|1:0|1:0,0:0:0:0:
439,163,88404,2,0,L|452:228,1,50,8|8,1:2|1:2,0:0:0:0:
414,255,88680,2,0,L|401:320,1,50,8|8,1:2|1:2,0:0:0:0:
362,340,88955,5,12,1:2:0:0:
