osu file format v14

[General]
AudioFilename: audio.mp3
AudioLeadIn: 0
PreviewTime: 79274
Countdown: 0
SampleSet: Soft
StackLeniency: 0.7
Mode: 0
LetterboxInBreaks: 0
WidescreenStoryboard: 1

[Editor]
Bookmarks: 9176,18258,27066,62295,78533,80494,80735,80942,81217,81802,84313
DistanceSpacing: 1
BeatDivisor: 12
GridSize: 4
TimelineZoom: 4.199998

[Metadata]
Title:Welcome My Friend (TV Size)
TitleUnicode:Welcome My Friend (TV Size)
Artist:OKAMOTO'S
ArtistUnicode:OKAMOTO'S
Creator:Flask
Version:Difficulty:EXPERT
Source:富豪刑事 Balance:UNLIMITED
Tags:fugou keiji balance unlimited 神戸大助 kanbe daisuke 加藤 春 katou haru katō ending japanese anime the millionaire detective fugō rock jrock Yahuri rap
BeatmapID:3008424
BeatmapSetID:1247093

[Difficulty]
HPDrainRate:5
CircleSize:4.2
OverallDifficulty:7.5
ApproachRate:9.2
SliderMultiplier:2.6
SliderTickRate:1

[Events]
//Background and Video events
0,0,"Fugou.Keiji_.Balance_UNLIMITED.full.3034908.jpg",0,0
Video,110,"FugouKeiji-ED1.mp4"
//Break Periods
//Storyboard Layer 0 (Background)
//Storyboard Layer 1 (Fail)
//Storyboard Layer 2 (Pass)
//Storyboard Layer 3 (Foreground)
//Storyboard Layer 4 (Overlay)
//Storyboard Sound Samples

[TimingPoints]
903,550.45871559633,4,2,1,35,1,0
9297,-125,4,2,1,35,0,0
9710,-100,4,2,1,50,0,0
13976,-200,4,2,1,50,0,0
14251,-100,4,2,1,50,0,0
14664,-83.3333333333333,4,2,1,50,0,0
14847,-83.3333333333333,4,2,1,5,0,0
14881,-83.3333333333333,4,2,1,50,0,0
15123,-83.3333333333333,4,2,1,5,0,0
15157,-83.3333333333333,4,2,1,50,0,0
15948,-83.3333333333333,4,2,1,5,0,0
15982,-83.3333333333333,4,2,1,50,0,0
16040,-38.4615384615385,4,2,1,50,0,0
16453,-125,4,2,1,50,0,0
17003,-125,4,2,1,5,0,0
17037,-125,4,2,1,50,0,0
17210,-125,4,2,1,5,0,0
17244,-125,4,2,1,50,0,0
17347,-125,4,2,1,5,0,0
17381,-125,4,2,1,50,0,0
17416,-90.9090909090909,4,2,1,60,0,0
17623,-90.9090909090909,4,2,1,5,0,0
17657,-90.9090909090909,4,2,1,60,0,0
17760,-90.9090909090909,4,2,1,5,0,0
17829,-66.6666666666667,4,2,1,70,0,0
17967,-66.6666666666667,4,2,1,5,0,0
18001,-66.6666666666667,4,2,1,70,0,0
18242,-66.6666666666667,4,2,1,5,0,0
18276,-66.6666666666667,4,2,1,70,0,0
18425,-66.6666666666667,4,2,1,5,0,0
18459,-66.6666666666667,4,2,1,70,0,0
19251,-66.6666666666667,4,2,1,5,0,0
19297,-66.6666666666667,4,2,1,70,0,0
19435,-66.6666666666667,4,2,1,5,0,0
19480,-66.6666666666667,4,2,1,70,0,0
20306,-66.6666666666667,4,2,1,5,0,0
20352,-66.6666666666667,4,2,1,70,0,0
20513,-66.6666666666667,4,2,1,5,0,0
20547,-66.6666666666667,4,2,1,70,0,0
20685,-66.6666666666667,4,2,1,5,0,0
20719,-66.6666666666667,4,2,1,70,0,0
21407,-66.6666666666667,4,2,1,5,0,0
21441,-66.6666666666667,4,2,1,70,0,0
21591,-66.6666666666667,4,2,1,5,0,0
21625,-66.6666666666667,4,2,1,70,0,0
21751,-66.6666666666667,4,2,1,5,0,0
21785,-66.6666666666667,4,2,1,70,0,0
22164,-66.6666666666667,4,2,1,5,0,0
22198,-66.6666666666667,4,2,1,70,0,0
22302,-66.6666666666667,4,2,1,5,0,0
22336,-66.6666666666667,4,2,1,70,0,0
22554,-66.6666666666667,4,2,1,5,0,0
22588,-66.6666666666667,4,2,1,70,0,0
22737,-66.6666666666667,4,2,1,5,0,0
22771,-66.6666666666667,4,2,1,70,0,0
22875,-66.6666666666667,4,2,1,5,0,0
22909,-66.6666666666667,4,2,1,70,0,0
23471,-55.5555555555556,4,2,1,70,0,0
23655,-55.5555555555556,4,2,1,5,0,0
23689,-55.5555555555556,4,2,1,70,0,0
23930,-55.5555555555556,4,2,1,5,0,0
23964,-55.5555555555556,4,2,1,5,0,0
23976,-55.5555555555556,4,2,1,70,0,0
24251,-66.6666666666667,4,2,1,70,0,0
24572,-55.5555555555556,4,2,1,70,0,0
24756,-55.5555555555556,4,2,1,5,0,0
24790,-55.5555555555556,4,2,1,70,0,0
24847,-50,4,2,1,70,0,0
25031,-50,4,2,1,5,0,0
25065,-50,4,2,1,70,0,0
25103,550.45871559633,4,2,1,70,1,0
25103,-66.6666666666667,4,2,1,70,0,0
25378,-76.9230769230769,4,2,1,70,0,0
25653,-58.8235294117647,4,2,1,70,0,0
26341,-58.8235294117647,4,2,1,50,0,0
26754,-58.8235294117647,4,2,1,60,0,0
26892,-58.8235294117647,4,2,1,65,0,0
27029,-58.8235294117647,4,2,1,70,0,0
27167,-58.8235294117647,4,2,1,80,0,0
27325,550.45871559633,4,2,1,70,1,0
27325,-76.9230769230769,4,2,1,70,0,0
27875,-86.9565217391304,4,2,1,70,0,0
29251,-66.6666666666667,4,2,1,50,0,0
29526,-76.9230769230769,4,2,1,70,0,0
30077,-86.9565217391304,4,2,1,70,0,0
32279,-100,4,2,1,70,0,0
32554,-86.9565217391304,4,2,1,70,0,0
32829,-76.9230769230769,4,2,1,70,0,0
33930,-86.9565217391304,4,2,1,70,0,0
34205,-66.6666666666667,4,2,1,70,0,0
34480,-74.0740740740741,4,2,1,70,0,0
34756,-83.3333333333333,4,2,1,70,0,0
35031,-76.9230769230769,4,2,1,70,0,0
36132,-86.9565217391304,4,2,1,70,0,0
39985,-76.9230769230769,4,2,1,70,0,0
40536,-100,4,2,1,70,0,0
40811,-86.9565217391304,4,2,1,70,0,0
41086,-76.9230769230769,4,2,1,70,0,0
42187,-64.5161290322581,4,2,1,70,0,0
43013,-90.9090909090909,4,2,1,70,0,0
43288,-60.6060606060606,4,2,1,70,0,0
43563,-83.3333333333333,4,2,1,70,0,0
43838,-57.1428571428571,4,2,1,70,0,0
44939,-100,4,2,1,60,0,0
46040,-76.9230769230769,4,2,1,60,0,0
47141,-100,4,2,1,60,0,0
48242,-66.6666666666667,4,2,1,60,0,0
48792,-80,4,2,1,60,0,0
49068,-125,4,2,1,60,0,0
49480,-90.9090909090909,4,2,1,60,0,0
49893,-74.0740740740741,4,2,1,60,0,0
50169,-66.6666666666667,4,2,1,60,0,0
51269,-90.9090909090909,4,2,1,60,0,0
53747,-66.6666666666667,4,2,1,60,0,0
54572,-74.0740740740741,4,2,1,60,0,0
54951,-66.6666666666667,4,2,1,60,0,0
55673,-76.9230769230769,4,2,1,60,0,0
55948,-90.9090909090909,4,2,1,60,0,0
58150,-76.9230769230769,4,2,1,60,0,0
58701,-66.6666666666667,4,2,1,60,0,0
62003,-50,4,2,1,60,0,0
62554,-125,4,2,1,60,0,1
62623,-125,4,2,1,60,0,0
62829,-142.857142857143,4,2,1,60,0,0
63104,-125,4,2,1,50,0,0
63380,-111.111111111111,4,2,1,50,0,0
63655,-100,4,2,1,50,0,0
63930,-111.111111111111,4,2,1,50,0,0
64205,-125,4,2,1,50,0,0
64480,-111.111111111111,4,2,1,50,0,0
64756,-100,4,2,1,50,0,0
65031,-83.3333333333333,4,2,1,50,0,0
65306,-90.9090909090909,4,2,1,50,0,0
65581,-100,4,2,1,50,0,0
65857,-90.9090909090909,4,2,1,50,0,0
66132,-100,4,2,1,50,0,0
66407,-90.9090909090909,4,2,1,50,0,0
66682,-100,4,2,1,50,0,0
67233,-111.111111111111,4,2,1,50,0,0
67508,-100,4,2,1,50,0,0
67783,-90.9090909090909,4,2,1,50,0,0
68058,-76.9230769230769,4,2,1,50,0,0
68609,-83.3333333333333,4,2,1,50,0,0
68884,-76.9230769230769,4,2,1,50,0,0
69159,-71.4285714285714,4,2,1,50,0,0
69435,-66.6666666666667,4,2,1,50,0,0
69710,-71.4285714285714,4,2,1,50,0,0
69985,-76.9230769230769,4,2,1,50,0,0
70260,-71.4285714285714,4,2,1,50,0,0
70536,-76.9230769230769,4,2,1,50,0,0
70811,-71.4285714285714,4,2,1,50,0,0
71086,-76.9230769230769,4,2,1,50,0,0
71361,-55.5555555555556,4,2,1,60,0,0
71636,-62.5,4,2,1,60,0,0
72462,-55.5555555555556,4,2,1,65,0,0
73563,-55.5555555555556,4,2,1,70,0,0
73838,-50,4,2,1,70,0,0
74113,-55.5555555555556,4,2,1,70,0,0
75490,-62.5,4,2,1,70,0,0
75765,-71.4285714285714,4,2,1,75,0,0
76315,-62.5,4,2,1,75,0,0
76866,-55.5555555555556,4,2,1,75,0,0
77967,-50,4,2,1,75,0,0
78242,-41.6666666666667,4,2,1,75,0,0
78792,-28.5714285714286,4,2,1,80,0,1
78930,-28.5714285714286,4,2,1,80,0,0
79205,-50,4,2,1,75,0,0
79687,-43.4782608695652,4,2,1,75,0,0
80513,-43.4782608695652,4,2,1,5,0,0
80547,-43.4782608695652,4,2,1,75,0,0
80650,-43.4782608695652,4,2,1,5,0,0
80684,-43.4782608695652,4,2,1,75,0,0
80925,-43.4782608695652,4,2,1,5,0,0
80959,-43.4782608695652,4,2,1,75,0,0
81166,-43.4782608695652,4,2,1,5,0,0
81200,-43.4782608695652,4,2,1,75,0,0
81579,-43.4782608695652,4,2,1,5,0,0
81613,-43.4782608695652,4,2,1,75,0,0
81717,-43.4782608695652,4,2,1,5,0,0
81751,-43.4782608695652,4,2,1,75,0,0
81958,-43.4782608695652,4,2,1,5,0,0
82026,-43.4782608695652,4,2,1,75,0,0
82141,-43.4782608695652,4,2,1,5,0,0
82175,-43.4782608695652,4,2,1,75,0,0
83058,-43.4782608695652,4,2,1,5,0,0
83092,-43.4782608695652,4,2,1,75,0,0
83288,-43.4782608695652,4,2,1,5,0,0
83322,-43.4782608695652,4,2,1,75,0,0
84228,-43.4782608695652,4,2,1,5,0,0
84262,-43.4782608695652,4,2,1,75,0,0
84572,-43.4782608695652,4,2,1,80,0,0
84779,-43.4782608695652,4,2,1,5,0,0
84813,-43.4782608695652,4,2,1,80,0,0
84951,-43.4782608695652,4,2,1,5,0,0
84985,-43.4782608695652,4,2,1,80,0,0
85054,-43.4782608695652,4,2,1,5,0,0
85088,-43.4782608695652,4,2,1,80,0,0
85329,-43.4782608695652,4,2,1,5,0,0
85363,-43.4782608695652,4,2,1,80,0,0
85604,-43.4782608695652,4,2,1,5,0,0
85638,-43.4782608695652,4,2,1,80,0,0
85880,-43.4782608695652,4,2,1,5,0,0
85914,-43.4782608695652,4,2,1,80,0,0
86086,-43.4782608695652,4,2,1,5,0,0
86120,-43.4782608695652,4,2,1,80,0,0
86430,-43.4782608695652,4,2,1,5,0,0
86464,-43.4782608695652,4,2,1,80,0,0
86705,-43.4782608695652,4,2,1,5,0,0
86739,-43.4782608695652,4,2,1,80,0,0
86754,550.45871559633,4,2,1,80,1,0
86754,-55.5555555555556,4,2,1,80,0,0
87304,-50,4,2,1,80,0,0
87855,-50,4,2,1,60,0,0
88130,-50,4,2,1,65,0,0
88405,-50,4,2,1,70,0,0
88681,-50,4,2,1,80,0,0
88956,-50,4,2,1,90,0,0

[Colours]
Combo1 : 105,117,150
Combo2 : 141,111,92
Combo3 : 78,220,220
Combo4 : 175,163,122

[HitObjects]
26,51,628,5,0,0:0:0:0:
26,51,766,1,0,0:0:0:0:
115,114,904,5,2,0:0:0:0:
178,80,1041,1,0,0:0:0:0:
240,114,1179,1,0,0:0:0:0:
308,133,1316,1,0,0:0:0:0:
371,98,1454,1,2,0:0:0:0:
43,201,1729,5,2,0:0:0:0:
61,271,1867,1,0,0:0:0:0:
125,309,2004,5,2,0:0:0:0:
128,314,2142,1,0,0:0:0:0:
133,310,2280,1,0,0:0:0:0:
131,303,2417,1,0,0:0:0:0:
124,303,2555,1,2,0:0:0:0:
352,192,2830,5,2,0:0:0:0:
352,192,2968,1,0,0:0:0:0:
381,288,3105,5,2,0:0:0:0:
439,246,3243,1,0,0:0:0:0:
450,175,3381,1,0,0:0:0:0:
419,110,3518,1,0,0:0:0:0:
399,40,3656,1,2,0:0:0:0:
343,344,3931,5,2,0:0:0:0:
282,306,4069,1,0,0:0:0:0:
225,349,4206,5,2,0:0:0:0:
220,353,4344,1,0,0:0:0:0:
217,346,4481,1,2,0:0:0:0:
223,345,4619,1,0,0:0:0:0:
225,349,4757,6,0,B|187:288|234:291|187:218,1,130,2|0,0:0|0:0,0:0:0:0:
191,226,5170,2,0,P|177:237|148:236,1,32.5
30,200,5307,5,2,0:0:0:0:
72,142,5445,1,0,0:0:0:0:
46,75,5582,1,0,0:0:0:0:
97,25,5720,1,0,0:0:0:0:
166,43,5858,1,2,0:0:0:0:
327,184,6133,5,2,0:0:0:0:
396,167,6270,1,0,0:0:0:0:
412,97,6408,5,2,0:0:0:0:
416,92,6546,1,0,0:0:0:0:
412,86,6683,1,0,0:0:0:0:
405,87,6821,1,0,0:0:0:0:
401,92,6959,1,2,0:0:0:0:
462,332,7234,5,2,0:0:0:0:
462,332,7371,1,0,0:0:0:0:
373,290,7509,5,2,0:0:0:0:
301,283,7647,1,0,0:0:0:0:
250,332,7784,1,0,0:0:0:0:
178,337,7922,1,0,0:0:0:0:
133,281,8059,1,2,0:0:0:0:
373,290,8335,5,2,0:0:0:0:
403,225,8472,1,0,0:0:0:0:
362,165,8610,5,2,0:0:0:0:
355,163,8748,1,0,0:0:0:0:
350,167,8885,1,2,0:0:0:0:
355,163,9023,1,0,0:0:0:0:
359,162,9160,1,2,0:0:0:0:
417,32,9344,5,0,0:0:0:0:
471,85,9436,2,0,P|459:115|454:138,1,52,2|0,0:0|0:0,0:0:0:0:
275,242,9711,6,0,P|268:213|249:173,2,65,2|0|2,0:0|0:0|0:0,0:0:0:0:
331,298,10124,1,0,0:0:0:0:
221,299,10261,2,0,P|270:321|314:311,1,97.5,2|0,0:0|0:0,0:0:0:0:
331,298,10537,2,0,L|286:356,1,65,2|0,0:0|0:0,0:0:0:0:
75,309,10812,6,0,L|50:196,1,97.5,2|0,0:0|0:0,0:0:0:0:
52,200,11087,1,2,0:0:0:0:
119,125,11225,2,0,P|152:141|156:185,1,65,2|0,0:0|0:0,0:0:0:0:
41,18,11500,1,2,0:0:0:0:
116,37,11637,1,2,0:0:0:0:
191,58,11775,1,0,0:0:0:0:
202,64,11913,6,0,P|196:31|188:-9,1,65,2|0,0:0|0:0,0:0:0:0:
326,177,12188,2,0,P|331:144|340:104,1,65,2|0,0:0|0:0,0:0:0:0:
218,233,12463,1,2,0:0:0:0:
394,320,12601,2,0,P|368:275|286:272,1,130
133,365,13014,6,0,B|193:359|165:332|233:321,1,97.5,2|0,0:0|0:0,0:0:0:0:
236,327,13289,1,2,0:0:0:0:
38,265,13426,2,0,P|46:301|49:328,1,65,0|2,0:0|0:0,0:0:0:0:
46,335,13839,5,2,0:0:0:0:
111,204,13977,2,0,P|129:211|150:216,1,32.5,0|2,0:0|0:0,0:0:0:0:
329,222,14298,5,2,0:0:0:0:
371,213,14390,1,2,0:0:0:0:
464,44,14573,1,2,0:0:0:0:
442,8,14665,2,0,P|437:62|396:89,1,103.999996826172,2|0,0:0|0:0,0:0:0:0:
376,105,14940,2,0,P|332:79|273:90,1,103.999996826172,2|0,0:0|0:0,0:0:0:0:
262,104,15215,1,0,0:0:0:0:
68,93,15399,5,2,0:0:0:0:
49,141,15491,1,2,0:0:0:0:
202,299,15674,1,2,0:0:0:0:
239,263,15766,2,0,P|207:216|157:222,1,103.999996826172,2|0,0:0|0:0,0:0:0:0:
92,243,16040,6,2,B|155:266|178:216|178:216|219:165|307:173|337:256|293:313,1,337.999984527589,0|2,0:1|0:0,0:1:0:0:
472,361,16523,6,0,P|457:339|453:308,1,52,0|2,0:0|0:0,0:0:0:0:
496,245,16775,1,0,0:0:0:0:
461,178,16867,6,0,L|449:237,1,52,2|0,0:0|0:0,0:0:0:0:
437,241,17073,2,0,P|410:242|381:225,1,52,2|0,0:0|0:0,0:0:0:0:
372,235,17280,1,2,0:0:0:0:
263,148,17417,6,0,L|247:29,1,107.25000327301,2|0,0:0|0:0,0:0:0:0:
248,41,17692,2,0,P|230:56|222:73,1,35.7500010910034,2|0,0:0|0:0,0:0:0:0:
215,220,17865,2,0,P|197:205|184:151,1,73.1250027894975,2|0,0:0|0:0,0:0:0:0:
31,53,18059,6,0,P|75:51|102:134,1,130.000004959107,2|0,0:0|0:0,0:0:0:0:
15,159,18289,2,0,L|124:130,1,97.50000371933,2|0,0:0|0:0,0:0:0:0:
288,273,18518,5,4,1:2:0:0:
297,279,18725,2,0,P|350:277|374:235,1,97.50000371933,2|2,0:0|0:0,0:0:0:0:
415,154,19000,1,0,0:0:0:0:
217,112,19115,2,0,L|228:213,1,97.50000371933,2|0,0:0|0:0,0:0:0:0:
218,218,19298,2,0,L|120:197,1,97.50000371933,2|0,0:0|0:0,0:0:0:0:
108,202,19527,1,2,0:0:0:0:
25,342,19619,5,4,1:2:0:0:
25,342,19894,1,2,0:0:0:0:
120,292,20032,1,2,0:0:0:0:
281,364,20170,2,0,P|314:368|358:327,1,97.50000371933,2|0,0:0|0:0,0:0:0:0:
379,335,20376,2,0,L|361:235,1,97.50000371933,2|0,0:0|0:0,0:0:0:0:
379,220,20617,1,2,0:0:0:0:
285,267,20720,5,4,1:2:0:0:
419,31,20903,1,2,0:0:0:0:
397,107,20995,2,0,P|353:81|341:28,1,97.50000371933,2|0,0:0|0:0,0:0:0:0:
499,44,21236,6,0,P|475:111|467:162,1,121.875004649162,2|0,0:0|0:0,0:0:0:0:
461,178,21454,2,0,P|412:181|360:207,1,97.50000371933,2|0,0:0|0:0,0:0:0:0:
347,220,21649,1,2,0:0:0:0:
170,297,21821,5,4,1:2:0:0:
170,297,22027,2,0,P|136:268|146:212,1,97.50000371933,2|0,0:0|0:0,0:0:0:0:
165,134,22234,2,0,P|188:149|222:160,1,48.750001859665,2|0,0:0|0:0,0:0:0:0:
254,357,22371,6,0,B|313:348|313:348|319:339|319:339|395:328,1,130.000004959107,8|0,0:0|0:0,0:0:0:0:
500,265,22601,2,0,B|462:230|462:230|412:263,1,97.50000371933,2|0,1:2|0:0,0:0:0:0:
420,118,22830,2,0,L|428:67,1,32.5000012397767,2|0,0:0|0:0,0:0:0:0:
435,60,22922,5,4,1:2:0:0:
435,60,23151,2,0,P|395:89|348:77,1,97.50000371933,2|0,0:0|0:0,0:0:0:0:
251,132,23381,1,2,0:0:0:0:
251,132,23472,6,0,B|190:95|240:85|193:32|149:38|131:77,1,155.999995239258,10|0,1:2|0:0,0:0:0:0:
56,149,23748,2,0,P|128:137|130:52,1,155.999995239258,2|0,1:2|0:0,0:0:0:0:
4,40,24023,5,4,1:2:0:0:
4,40,24252,2,0,L|23:144,1,97.50000371933,2|0,0:0|0:0,0:0:0:0:
125,215,24481,1,0,0:0:0:0:
125,215,24573,6,0,B|113:276|113:276|98:291|98:291|82:362,1,155.999995239258,10|0,1:2|0:0,0:0:0:0:
19,297,24848,2,0,B|52:278|52:278|152:317|152:317|186:307,1,173.333333333333,2|0,1:2|0:0,0:0:0:0:
322,204,25103,6,0,B|273:212|273:212|234:177,1,97.50000371933,12|0,0:0|0:0,0:0:0:0:
366,64,25378,6,0,B|395:100|395:100|386:146,1,84.4999961318971,0|0,1:0|0:0,0:0:0:0:
210,102,25653,6,0,B|230:51|230:51|287:37,1,110.50000210762,12|0,1:2|0:0,0:0:0:0:
416,217,25928,2,0,L|394:326,1,110.50000210762,0|0,1:0|1:0,0:0:0:0:
150,365,26204,5,4,1:2:0:0:
150,365,26341,1,0,1:0:0:0:
87,315,26479,5,0,1:0:0:0:
119,244,26616,1,0,1:0:0:0:
68,190,26754,5,8,1:2:0:0:
147,64,26892,1,8,1:2:0:0:
62,33,27029,5,8,1:2:0:0:
190,155,27167,1,8,1:2:0:0:
297,4,27325,6,0,P|356:11|389:111,1,168.999992263794,4|2,1:2|0:0,0:0:0:0:
391,103,27738,1,0,0:0:0:0:
336,229,27876,2,0,P|320:199|325:153,1,74.7500014257431,10|0,1:2|0:0,0:0:0:0:
469,141,28151,2,0,P|485:171|480:217,1,74.7500014257431,2|0,0:0|0:0,0:0:0:0:
463,312,28426,6,0,B|381:298|424:251|325:242,1,149.500002851486,2|0,1:2|1:0,0:0:0:0:
190,338,28839,1,0,0:0:0:0:
270,361,28977,2,0,P|307:362|332:323,1,74.7500014257431,8|0,1:2|0:0,0:0:0:0:
369,158,29252,2,0,P|351:120|296:102,1,97.50000371933,4|0,0:0|0:0,0:0:0:0:
20,184,29527,6,0,P|43:237|149:258,1,168.999992263794,4|0,1:2|0:0,0:0:0:0:
144,260,29940,1,0,0:0:0:0:
129,105,30078,2,0,P|119:148|102:188,1,74.7500014257431,10|0,1:2|0:0,0:0:0:0:
243,373,30353,2,0,P|252:329|269:289,1,74.7500014257431,2|0,0:2|0:0,0:0:0:0:
261,66,30628,5,0,1:0:0:0:
261,66,30903,1,2,1:2:0:0:
340,108,31041,1,0,0:0:0:0:
262,152,31179,2,0,P|240:121|248:86,1,74.7500014257431,8|0,1:2|0:0,0:0:0:0:
341,197,31454,2,0,L|432:181,1,74.7500014257431,0|0,0:0|1:0,0:0:0:0:
488,361,31729,6,0,P|474:298|407:376,1,224.250004277229,4|0,1:2|0:0,0:0:0:0:
448,287,32280,2,0,P|458:258|463:216,1,65,10|0,1:2|0:0,0:0:0:0:
243,327,32555,2,0,P|278:342|319:344,1,74.7500014257431,2|0,0:0|0:0,0:0:0:0:
314,116,32830,2,0,B|350:180|299:172|353:252,1,126.749994197846,2|0,1:2|0:0,0:0:0:0:
343,236,33105,2,0,P|305:214|259:209,1,84.4999961318971,2|0,1:2|0:0,0:0:0:0:
37,351,33381,2,0,P|97:356|162:262,1,168.999992263794,8|0,1:2|0:0,0:0:0:0:
162,278,33793,1,0,0:0:0:0:
35,187,33931,6,0,P|56:226|67:263,1,74.7500014257431,4|0,1:2|0:0,0:0:0:0:
211,96,34206,2,0,P|168:92|118:71,1,97.50000371933,2|0,0:0|0:0,0:0:0:0:
183,282,34481,2,0,P|207:246|247:217,1,87.7500003347397,10|0,1:2|0:0,0:0:0:0:
25,191,34757,2,0,P|46:230|55:272,1,77.999997619629,2|0,0:0|0:0,0:0:0:0:
217,21,35032,6,0,P|255:31|270:148,1,168.999992263794,4|2,1:2|1:2,0:0:0:0:
274,142,35445,1,0,0:0:0:0:
97,79,35582,2,0,L|190:105,1,84.4999961318971,8|0,1:2|0:0,0:0:0:0:
352,218,35858,1,0,1:0:0:0:
352,218,35995,1,0,1:0:0:0:
489,166,36133,6,0,B|435:183|435:183|424:197|424:197|352:217,1,149.500002851486,4|0,1:2|0:0,0:0:0:0:
445,346,36546,1,0,0:0:0:0:
445,346,36683,2,0,B|477:322|477:322|486:281,1,74.7500014257431,10|0,1:2|0:0,0:0:0:0:
245,218,36959,2,0,B|249:257|249:257|280:286,1,74.7500014257431
411,93,37234,6,0,L|371:246,1,149.500002851486,2|0,1:2|1:0,0:0:0:0:
327,31,37647,1,0,0:0:0:0:
194,154,37784,2,0,P|236:163|272:97,1,112.125002138615,10|0,1:2|0:0,0:0:0:0:
272,94,38059,2,0,P|245:67|195:71,1,74.7500014257431,0|0,1:0|1:0,0:0:0:0:
57,190,38335,6,0,B|146:180|109:247|206:239,1,149.500002851486,4|0,1:2|1:0,0:0:0:0:
191,239,38748,1,0,0:0:0:0:
0,258,38885,2,0,P|18:203|27:105,1,149.500002851486,10|0,1:2|0:0,0:0:0:0:
28,112,39298,1,0,0:0:0:0:
253,191,39436,6,0,P|234:245|232:307,1,112.125002138615,2|0,1:2|0:0,0:0:0:0:
243,320,39711,2,0,P|280:324|307:295,1,74.7500014257431,0|0,1:0|0:0,0:0:0:0:
506,267,39986,2,0,P|428:243|391:167,1,168.999992263794,10|0,1:2|0:0,0:0:0:0:
391,168,40399,1,0,0:0:0:0:
512,103,40537,6,0,P|513:139|495:169,1,65,4|0,1:2|0:0,0:0:0:0:
469,350,40812,6,0,P|438:368|391:358,1,74.7500014257431,2|0,1:2|0:0,0:0:0:0:
267,157,41087,6,0,P|300:182|314:226,1,84.4999961318971,10|0,1:2|0:0,0:0:0:0:
432,289,41362,6,0,P|426:330|394:367,1,84.4999961318971,2|0,1:2|1:0,0:0:0:0:
102,350,41637,6,0,B|141:333|150:279|150:279|174:320|232:322,1,168.999992263794,2|0,1:2|1:0,0:0:0:0:
214,320,42050,1,0,1:0:0:0:
44,263,42188,2,0,B|32:192|32:192|25:183|25:183|12:104,1,151.125001152992,12|0,1:2|0:0,0:0:0:0:
2,101,42463,2,0,B|42:63|42:63|95:79,1,100.750000768662,2|0,1:2|0:0,0:0:0:0:
231,202,42738,6,0,B|185:179|185:179|176:131,1,100.750000768662,12|0,1:2|0:0,0:0:0:0:
217,58,43014,2,0,B|219:93|219:93|188:124,1,71.5000021820069,2|0,1:2|0:0,0:0:0:0:
300,271,43289,6,0,B|303:322|303:322|261:362,1,107.250001022816,12|0,1:2|0:0,0:0:0:0:
175,353,43563,2,0,B|204:333|204:333|251:350,1,77.999997619629,2|0,1:2|0:0,0:0:0:0:
329,176,43839,6,0,B|378:147|378:147|433:166,1,113.750001084805,12|0,1:2|0:0,0:0:0:0:
470,267,44113,2,0,B|428:237|428:237|423:171,1,113.750001084805,2|0,1:2|1:0,0:0:0:0:
495,27,44390,1,8,1:2:0:0:
275,33,44527,5,2,0:0:0:0:
256,108,44665,1,2,1:2:0:0:
237,183,44803,1,2,0:0:0:0:
323,232,44940,6,0,P|336:201|326:162,1,65,6|0,1:2|0:0,0:0:0:0:
174,54,45215,2,0,P|161:85|171:124,1,65,0|0,1:2|0:0,0:0:0:0:
279,294,45491,2,0,L|390:273,1,97.5,8|0,1:2|0:0,0:0:0:0:
390,281,45766,1,0,1:0:0:0:
461,213,45903,1,0,0:0:0:0:
484,359,46041,6,0,P|433:359|399:294,1,126.749994197846,2|2,1:2|0:0,0:0:0:0:
390,281,46316,1,0,1:2:0:0:
479,131,46454,2,0,P|473:177|456:221,1,84.4999961318971,2|8,1:2|1:2,0:0:0:0:
331,69,46729,1,0,0:0:0:0:
259,42,46867,1,2,1:2:0:0:
187,16,47004,1,0,0:0:0:0:
137,124,47142,6,0,B|177:124|177:124|205:94,1,65,2|0,1:2|0:0,0:0:0:0:
62,11,47417,2,0,L|53:89,1,65,0|0,1:0|0:0,0:0:0:0:
10,193,47692,1,8,1:2:0:0:
89,255,47830,2,0,P|76:209|31:191,1,97.5,2|0,0:0|0:0,0:0:0:0:
10,193,48105,1,2,0:0:0:0:
160,128,48243,6,0,B|277:131|221:204|347:197,1,195.00000743866,2|2,1:2|0:0,0:0:0:0:
334,197,48656,1,2,0:0:0:0:
341,28,48793,2,0,P|340:71|312:116,1,81.25,8|0,1:2|0:0,0:0:0:0:
449,264,49069,6,0,P|456:237|471:212,1,52,0|0,1:2|0:0,0:0:0:0:
427,112,49344,1,2,1:2:0:0:
512,354,49527,6,0,P|509:310|468:276,1,95.3333362426759,2|0,0:0|0:0,0:0:0:0:
329,299,49803,1,0,0:0:0:0:
312,369,49894,6,0,B|351:384|379:368|365:353|397:337|432:347,1,117.00000044632,10|0,1:2|0:0,0:0:0:0:
292,374,50170,2,0,B|244:359|240:331|253:329|242:296|206:277,1,130.000004959107,2|0,1:2|0:0,0:0:0:0:
192,277,50445,1,2,1:2:0:0:
305,104,50628,5,2,0:0:0:0:
253,171,50766,2,0,P|218:165|198:109,1,97.50000371933,2|0,0:0|0:0,0:0:0:0:
374,59,50995,1,10,1:2:0:0:
333,182,51133,1,2,0:0:0:0:
237,41,51270,2,0,L|115:18,1,107.25000327301,2|0,1:2|0:0,0:0:0:0:
120,28,51546,1,2,1:2:0:0:
125,182,51728,6,0,P|113:216|109:252,2,71.5000021820069,2|2|0,0:0|0:0|0:0,0:0:0:0:
68,106,52096,1,10,1:2:0:0:
68,106,52234,1,0,0:0:0:0:
199,230,52371,5,2,1:2:0:0:
199,230,52509,1,2,0:0:0:0:
31,300,52647,5,2,1:2:0:0:
93,203,52784,1,0,0:0:0:0:
219,360,52922,2,0,P|181:363|136:380,1,71.5000021820069,2|2,1:2|0:0,0:0:0:0:
283,149,53197,5,8,1:2:0:0:
178,262,53335,1,0,0:0:0:0:
306,245,53472,1,2,1:2:0:0:
186,113,53610,1,2,1:2:0:0:
369,44,53748,6,0,P|405:71|381:165,1,146.250005578995,2|0,1:2|0:0,0:0:0:0:
300,56,54023,2,0,P|324:36|353:35,1,48.750001859665,2|0,1:2|0:0,0:0:0:0:
439,78,54160,1,2,0:0:0:0:
388,264,54298,2,0,L|371:163,1,97.50000371933,8|0,1:2|0:0,0:0:0:0:
188,27,54573,6,0,B|181:104|181:104|172:113|172:113|167:173,1,131.62500050211,2|0,1:2|0:0,0:0:0:0:
167,175,54848,1,0,1:0:0:0:
107,64,54952,6,0,B|176:96|176:96|182:107|182:107|263:145,1,170.625006508827,2|0,0:2|0:0,0:0:0:0:
329,149,55261,2,0,B|330:180|304:198,1,48.750001859665,2|0,1:2|0:0,0:0:0:0:
171,360,55399,6,0,P|158:302|228:253,1,146.250005578995,10|0,1:2|0:0,0:0:0:0:
261,366,55674,2,0,P|212:376|176:349,1,84.4999961318971,0|0,1:2|0:0,0:0:0:0:
81,310,55949,1,2,1:2:0:0:
320,256,56087,5,2,0:0:0:0:
387,321,56225,1,2,1:2:0:0:
413,223,56362,2,0,L|399:300,1,71.5000021820069,2|8,0:0|1:2,0:0:0:0:
303,343,56637,5,2,0:0:0:0:
349,165,56775,1,2,1:2:0:0:
505,248,56913,1,2,0:0:0:0:
426,369,57050,5,0,1:0:0:0:
426,369,57188,1,2,0:0:0:0:
450,161,57324,1,0,1:0:0:0:
450,161,57463,1,2,0:0:0:0:
292,261,57601,1,8,1:2:0:0:
372,277,57738,5,2,0:0:0:0:
265,183,57876,1,2,1:2:0:0:
237,322,58014,1,0,1:0:0:0:
73,305,58151,6,0,P|30:278|30:197,1,126.749994197846,2|0,1:2|0:0,0:0:0:0:
57,126,58426,2,0,L|111:139,1,42.2499980659486,2|0,1:2|0:0,0:0:0:0:
265,183,58564,1,0,1:0:0:0:
108,222,58702,6,0,B|168:209|168:209|203:175|176:124,1,146.250005578995,10|0,1:2|0:0,0:0:0:0:
243,29,58977,2,0,B|183:42|183:42|148:76|175:127,1,146.250005578995,2|0,1:2|0:0,0:0:0:0:
231,253,59252,1,2,1:2:0:0:
408,166,59390,5,2,0:0:0:0:
485,205,59527,1,0,1:0:0:0:
411,251,59665,1,2,0:0:0:0:
327,133,59803,2,0,P|324:86|312:29,1,97.50000371933,8|0,1:2|0:0,0:0:0:0:
264,195,60078,5,2,1:2:0:0:
411,67,60215,1,2,1:2:0:0:
486,292,60353,5,2,1:2:0:0:
486,292,60491,1,0,0:0:0:0:
343,214,60628,1,2,1:2:0:0:
343,214,60766,1,0,0:0:0:0:
238,361,60903,5,8,1:2:0:0:
333,331,61041,1,0,0:0:0:0:
236,351,61179,1,2,1:2:0:0:
178,209,61316,1,0,1:0:0:0:
17,361,61454,6,0,P|64:368|121:297,1,146.250005578995,2|0,1:2|0:0,0:0:0:0:
117,285,61729,1,2,1:2:0:0:
253,92,61867,1,0,1:0:0:0:
452,158,62004,6,0,B|365:80|369:179|262:95,1,195,12|0,1:2|0:0,0:0:0:0:
320,231,62280,2,0,B|296:118|380:171|362:50,1,195,2|0,1:2|0:0,0:0:0:0:
293,29,62555,6,0,B|287:8|277:2|277:2|276:13|271:22,1,52,4|0,1:2|0:0,0:0:0:0:
196,68,62830,2,0,B|180:52|168:52|168:52|173:62|173:72,1,45.4999986114502,2|0,0:0|0:0,0:0:0:0:
39,146,63105,6,0,B|45:125|55:119|55:119|56:130|61:139,1,52,2|0,1:2|0:0,0:0:0:0:
136,185,63381,2,0,B|151:169|165:169|165:169|158:179|158:194,1,58.4999982147217,2|0,0:2|0:0,0:0:0:0:
275,258,63656,6,0,B|259:242|247:242|247:242|255:258|253:277,1,65,2|0,1:2|0:0,0:0:0:0:
147,268,63931,2,0,B|141:289|147:299|147:299|157:284|172:280,1,58.4999982147217,2|0,0:2|0:0,0:0:0:0:
215,373,64206,2,0,B|236:367|239:357|239:357|224:356|215:346,1,52,2|0,1:2|0:0,0:0:0:0:
385,315,64481,6,0,P|352:330|344:357,1,58.4999982147217,2|0,0:2|0:0,0:0:0:0:
475,360,64757,6,0,B|484:334|484:334|481:322|481:322|490:295,1,65,2|0,1:2|0:0,0:0:0:0:
329,249,65032,2,0,B|346:269|346:269|358:273|358:273|385:301,1,77.999997619629,2|0,0:0|0:0,0:0:0:0:
498,178,65307,2,0,B|471:182|471:182|462:191|462:191|426:200,1,71.5000021820069,2|0,1:2|0:0,0:0:0:0:
312,89,65582,2,0,B|338:93|338:93|347:102|347:102|379:110,1,65,2|0,0:0|0:0,0:0:0:0:
482,41,65858,6,0,B|467:43|453:57|453:57|443:39|422:30,1,71.5000021820069,2|0,1:2|0:0,0:0:0:0:
312,89,66133,2,0,B|297:91|281:102|281:102|273:87|252:78,1,65,2|0,0:0|0:0,0:0:0:0:
161,158,66408,2,0,B|176:160|190:174|190:174|200:156|221:147,1,71.5000021820069,2|0,1:2|0:0,0:0:0:0:
331,206,66683,2,0,B|346:208|362:219|362:219|370:204|391:195,1,65,2|2,1:3|1:3,0:0:0:0:
489,348,66959,6,0,B|466:342|466:342|457:334|457:334|444:338|444:338|420:331,1,65,2|0,1:2|0:0,0:0:0:0:
332,364,67234,2,0,B|313:358|313:358|304:350|304:350|291:354|291:354|272:349,1,58.4999982147217,2|0,0:0|0:0,0:0:0:0:
209,281,67509,2,0,B|186:275|186:275|177:267|177:267|164:271|164:271|140:264,1,65,2|0,1:2|0:0,0:0:0:0:
70,344,67784,2,0,B|47:338|47:338|38:330|38:330|25:334|25:334|0:327,1,71.5000021820069,2|0,0:0|0:0,0:0:0:0:
26,129,68059,6,0,B|7:109|17:89|17:89|41:101|38:128,1,84.4999961318971,2|0,1:2|0:0,0:0:0:0:
109,177,68335,2,0,B|135:170|148:189|148:189|125:203|103:187,1,84.4999961318971,2|0,0:0|0:0,0:0:0:0:
24,225,68610,2,0,B|17:250|-6:252|-6:252|-6:225|18:214,1,77.999997619629,2|0,1:2|0:0,0:0:0:0:
110,84,68885,1,2,1:3:0:0:
110,84,69023,1,2,1:3:0:0:
183,122,69160,6,0,P|212:106|211:49,1,90.9999972229005,2|0,1:2|0:0,0:0:0:0:
283,254,69436,2,0,P|283:220|227:191,1,97.50000371933,2|0,0:0|0:0,0:0:0:0:
449,232,69711,2,0,P|420:214|366:246,1,90.9999972229005,2|0,1:2|0:0,0:0:0:0:
504,152,69986,1,2,1:2:0:0:
504,152,70124,1,2,1:3:0:0:
338,39,70261,6,0,P|383:30|409:-6,1,90.9999972229005,2|0,1:2|0:0,0:0:0:0:
285,124,70537,1,2,0:0:0:0:
285,124,70674,1,0,0:0:0:0:
424,234,70812,6,0,P|393:199|349:195,1,90.9999972229005,2|0,1:2|0:0,0:0:0:0:
189,155,71087,2,0,P|149:178|137:218,1,84.4999961318971,2|2,1:3|0:3,0:0:0:0:
256,329,71362,6,0,B|284:305|315:317|315:317|290:284|254:297,1,116.999996429443,2|0,1:2|0:0,0:0:0:0:
108,270,71637,2,0,B|82:248|56:255|56:255|68:236|104:238,1,104,2|0,0:0|0:0,0:0:0:0:
235,162,71913,6,0,B|208:171|200:201|200:201|202:168|185:151,1,104,2|0,1:2|0:0,0:0:0:0:
191,366,72188,2,0,B|172:344|180:314|180:314|165:344|142:350,1,104,2|0,0:0|0:0,0:0:0:0:
391,366,72463,6,0,B|406:355|434:355|434:355|352:336,1,116.999996429443,2|0,1:2|0:0,0:0:0:0:
512,250,72738,2,0,B|494:242|480:218|480:218|505:298,1,116.999996429443,2|0,0:0|0:0,0:0:0:0:
351,203,73014,2,0,B|353:221|339:245|339:245|396:184,1,116.999996429443,2|0,1:2|0:0,0:0:0:0:
418,276,73289,1,2,1:3:0:0:
418,276,73426,1,2,1:3:0:0:
461,101,73564,6,0,B|468:72|468:72|474:66|474:66|466:62|466:62|452:38|452:38|443:31|443:31|452:25|452:25|456:0,1,116.999996429443,2|0,1:2|0:0,0:0:0:0:
260,157,73839,2,0,B|293:149|293:149|301:151|301:151|301:142|301:142|315:118|315:118|316:107|316:107|326:112|326:112|360:100,1,130,2|0,0:0|0:0,0:0:0:0:
116,41,74113,2,0,B|137:61|137:61|139:69|139:69|147:64|147:64|175:64|175:64|185:60|185:60|186:71|186:71|213:86,1,116.999996429443,2|0,1:2|0:0,0:0:0:0:
274,26,74390,1,2,1:3:0:0:
274,26,74527,1,2,1:3:0:0:
169,169,74665,6,0,B|150:191|150:191|88:205|88:205|65:235,1,116.999996429443,2|0,1:2|0:0,0:0:0:0:
15,148,74940,1,2,1:3:0:0:
15,148,75078,1,2,1:3:0:0:
223,324,75215,2,0,B|213:301|213:301|232:240|232:240|223:213,1,116.999996429443,2|0,1:2|0:0,0:0:0:0:
68,297,75491,2,0,B|96:302|96:302|133:344|133:344|163:352,1,104,2|0,1:2|0:0,0:0:0:0:
456,357,75766,6,0,B|453:331|469:317|469:317|462:287|443:279,1,90.9999972229005,2|0,1:2|0:0,0:0:0:0:
492,189,76041,2,0,B|483:166|458:152|458:152|442:168|417:161,1,90.9999972229005,2|2,1:3|1:3,0:0:0:0:
265,265,76316,2,0,B|297:279|325:275|325:275|328:249|357:228,1,104,2|0,1:2|0:0,0:0:0:0:
390,59,76592,1,2,1:3:0:0:
390,59,76729,1,2,1:3:0:0:
202,100,76867,6,0,B|220:117|250:112|250:112|268:128|268:128|299:125|313:140,1,116.999996429443,2|0,1:2|0:0,0:0:0:0:
115,261,77142,2,0,B|120:236|101:213|101:213|106:189|106:189|88:164|94:144,1,116.999996429443,2|0,0:0|0:0,0:0:0:0:
298,256,77417,2,0,B|274:263|263:291|263:291|240:299|240:299|227:327|207:332,1,116.999996429443,2|0,1:2|0:0,0:0:0:0:
48,348,77692,1,2,1:3:0:0:
48,348,77830,1,2,1:3:0:0:
12,188,77968,6,0,B|92:209|37:238|124:262,1,130,2|0,1:2|0:0,0:0:0:0:
205,104,78243,2,0,B|291:89|227:48|342:27,1,155.999995239258,2|2,1:3|1:3,0:0:0:0:
326,295,78518,2,0,B|412:310|348:351|463:372,1,155.999995239258,2|0,1:2|0:0,0:0:0:0:
441,43,78793,6,2,B|416:53|403:84|409:115|427:135|427:135|456:187|380:275|289:193|366:109|421:128|421:128|444:150|479:152|506:136|518:112,1,455.000004339218,6|2,1:2|1:2,0:1:0:0:
258,253,79206,5,0,0:0:0:0:
258,253,79275,2,0,P|318:267|349:333,1,130,2|0,0:0|0:0,0:0:0:0:
238,384,79481,2,0,P|248:351|277:327,1,65,2|0,0:0|0:0,0:0:0:0:
490,283,79619,2,0,P|438:266|395:133,1,195,0|0,1:0|0:0,0:0:0:0:
468,81,79894,6,0,B|481:106|471:124|471:124|468:107|455:93,1,74.7500014257431,2|0,1:2|0:0,0:0:0:0:
311,152,80032,2,0,B|295:175|275:176|275:176|288:165|294:146,1,74.7500014257431,2|0,0:0|0:0,0:0:0:0:
173,38,80170,1,4,1:2:0:0:
173,38,80445,6,0,P|168:80|146:107,1,74.7500014257431,2|0,0:0|0:0,0:0:0:0:
72,78,80582,2,0,P|77:36|99:9,1,74.7500014257431
0,176,80754,2,0,B|52:191|85:157|85:157|89:214|157:238,1,186.875003564358,2|0,0:0|0:0,0:0:0:0:
51,349,80995,2,0,B|12:334|12:334|91:324|91:324|140:333|140:333|201:306,1,224.250004277229,2|0,0:0|0:0,0:0:0:0:
316,255,81270,5,4,1:2:0:0:
316,255,81477,2,0,P|355:259|377:328,1,112.125002138615,2|0,0:0|0:0,0:0:0:0:
354,354,81649,2,0,P|309:350|285:325,1,74.7500014257431
449,228,81821,2,0,B|498:320|428:289|476:393,1,149.500002851486,2|0,0:0|0:0,0:0:0:0:
506,177,82050,2,0,P|461:197|415:153,1,99.6666685676575,2|0,0:0|0:0,0:0:0:0:
485,25,82234,2,0,P|503:59|491:96,1,74.7500014257431,2|0,0:0|0:0,0:0:0:0:
333,24,82371,5,4,1:2:0:0:
333,24,82555,1,2,0:0:0:0:
325,156,82647,2,0,B|350:63|382:126|428:42|397:-11,1,199.333337135315,2|0,0:0|0:0,0:0:0:0:
261,0,82922,2,0,P|263:57|360:98,1,149.500002851486,2|0,0:0|0:0,0:0:0:0:
446,234,83151,2,0,P|487:219|484:120,1,149.500002851486,2|0,0:0|0:0,0:0:0:0:
432,256,83369,2,0,P|399:268|362:255,1,74.7500014257431,2|0,0:0|0:0,0:0:0:0:
192,273,83472,5,4,1:2:0:0:
192,273,83656,1,2,0:0:0:0:
158,337,83748,2,0,P|234:346|179:277,1,199.333337135315,2|0,0:0|0:0,0:0:0:0:
54,148,84023,2,0,B|23:205|82:247|82:247|144:204|114:149,1,224.250004277229,8|0,1:2|0:0,0:0:0:0:
86,72,84298,2,0,B|45:37|21:43|21:43|31:66|114:42,1,149.500002851486,2|0,1:2|0:0,0:0:0:0:
214,162,84504,1,2,0:0:0:0:
214,162,84573,6,0,B|287:180|233:214|331:258|386:218|366:153|315:143,1,224.250004277229,4|0,1:2|0:0,0:0:0:0:
290,41,84848,2,0,P|265:59|269:107,1,74.7500014257431,2|0,0:0|0:0,0:0:0:0:
428,157,84986,1,2,0:0:0:0:
284,369,85124,6,2,B|276:338|299:312|299:312|401:322|401:322|425:300|417:266,1,224.250004277229,10|0,1:2|0:0,0:1:0:0:
199,138,85399,2,0,B|191:170|215:192|215:192|317:182|317:182|340:208|332:239,1,224.250004277229,2|0,1:2|0:0,0:0:0:0:
88,313,85674,6,0,B|55:278|-13:272|-13:272|56:268|100:228,1,224.250004277229,4|0,1:2|0:0,0:0:0:0:
244,292,85949,2,0,B|281:279|281:279|261:156,1,149.500002851486,2|0,0:0|0:0,0:0:0:0:
332,7,86156,1,2,0:0:0:0:
332,7,86225,6,2,B|380:33|380:33|388:33|388:33|381:40|381:40|394:120|394:120|399:128|399:128|390:127|390:127|337:166,1,224.250004277229,10|0,1:2|0:0,0:1:0:0:
180,182,86500,2,0,B|132:156|132:156|124:156|124:156|130:148|130:148|117:68|117:68|113:61|113:61|122:62|122:62|175:23,1,224.250004277229,0|0,1:2|0:0,0:0:0:0:
309,86,86754,6,0,B|257:99|257:99|246:92|246:92|179:112,1,116.999996429443,12|0,1:2|0:0,0:0:0:0:
396,302,87029,2,0,B|410:250|410:250|422:244|422:244|438:176,1,116.999996429443,2|0,0:0|0:0,0:0:0:0:
165,269,87304,2,0,B|202:307|202:307|201:320|201:320|255:371,1,130,12|0,1:2|0:0,0:0:0:0:
298,219,87580,1,0,1:2:0:0:
298,219,87717,1,0,1:2:0:0:
88,143,87855,5,4,1:2:0:0:
43,239,87993,1,0,1:0:0:0:
186,137,88130,5,0,1:0:0:0:
179,309,88268,1,0,1:0:0:0:
268,83,88405,5,8,1:2:0:0:
448,249,88543,1,8,1:2:0:0:
204,220,88681,1,8,1:2:0:0:
419,102,88818,1,8,1:2:0:0:
316,324,88956,5,12,1:2:0:0:
