osu file format v14

[General]
AudioFilename: audio.mp3
AudioLeadIn: 0
PreviewTime: -1
Countdown: 1
SampleSet: None
StackLeniency: 0.7
Mode: 1
LetterboxInBreaks: 0
WidescreenStoryboard: 1

[Editor]
Bookmarks: 31265,72778
DistanceSpacing: 1
BeatDivisor: 4
GridSize: 32
TimelineZoom: 3.311999

[Metadata]
Title:DELICIOUS SONGS COMPILATION
TitleUnicode:DELICIOUS SONGS COMPILATION
Artist:OISHII
ArtistUnicode:OISHII
Creator:Vulkin
Version:1-UP UP MT CAKE
Source:osu!
Tags:おいしい featured artist fa oishiichan creamcore chiptune electronic instrumental food cocoa waterslide honey snowflakes ice cream grows on trees onigiri freeway pizza plaza toast run up mt cake
BeatmapID:2675795
BeatmapSetID:732861

[Difficulty]
HPDrainRate:7.2
CircleSize:7
OverallDifficulty:5
ApproachRate:10
SliderMultiplier:1.4
SliderTickRate:1

[Events]
//Background and Video events
0,0,"BG.png",0,0
//Break Periods
//Storyboard Layer 0 (Background)
//Storyboard Layer 1 (Fail)
//Storyboard Layer 2 (Pass)
//Storyboard Layer 3 (Foreground)
//Storyboard Layer 4 (Overlay)
//Storyboard Sound Samples

[TimingPoints]
130,324.324324324324,4,1,0,50,1,0
130,-125,4,1,0,50,0,0
10163,-12.5,4,1,0,5,0,0
10488,-100,4,1,0,70,0,0
93494,-100,4,1,0,50,0,0
101319,346.820809248555,4,1,0,70,1,0
101665,352.941176470588,4,1,0,70,1,0
102017,368.098159509202,4,1,0,70,1,0
102385,379.746835443038,4,1,0,70,1,0
102574,400,4,1,0,70,1,0
102774,437.956204379562,4,1,0,70,1,0
102992,468.75,4,1,0,70,1,0
103226,545.454545454546,4,1,0,70,1,0
103498,666.666666666667,4,1,0,70,1,0
103664,750,4,1,0,70,1,0
103851,316.205533596838,7,1,0,70,1,0
106064,315.789473684211,4,1,0,70,1,0
232064,337.078651685393,4,1,0,70,1,8
232401,300,4,1,0,70,1,0
347601,285.714285714286,4,1,0,70,1,0
517883,324.324324324324,4,1,0,70,1,0
643720,324.324324324324,4,1,0,70,1,8
644372,300,4,1,0,70,1,0
761972,307.692307692308,4,1,0,70,1,0
791510,307.692307692308,3,1,0,70,1,0
798894,307.692307692308,4,1,0,70,1,0
838278,307.692307692308,3,1,0,70,1,0
845662,307.692307692308,4,1,0,70,1,0

[HitObjects]
256,192,130,5,0,0:0:0:0:
256,192,292,1,0,0:0:0:0:
256,192,373,1,8,0:0:0:0:
256,192,454,1,8,0:0:0:0:
256,192,616,1,0,0:0:0:0:
256,192,778,1,0,0:0:0:0:
256,192,859,1,0,0:0:0:0:
256,192,940,1,8,0:0:0:0:
256,192,1102,1,0,0:0:0:0:
256,192,1184,1,0,0:0:0:0:
256,192,1265,1,0,0:0:0:0:
256,192,1346,1,8,0:0:0:0:
256,192,1427,1,8,0:0:0:0:
256,192,1589,1,8,0:0:0:0:
256,192,1670,1,0,0:0:0:0:
256,192,1751,1,8,0:0:0:0:
256,192,1913,1,8,0:0:0:0:
256,192,2075,1,0,0:0:0:0:
256,192,2238,1,8,0:0:0:0:
256,192,2319,1,0,0:0:0:0:
256,192,2400,1,8,0:0:0:0:
256,192,2562,1,0,0:0:0:0:
256,192,2724,1,0,0:0:0:0:
256,192,2886,1,0,0:0:0:0:
256,192,2967,1,8,0:0:0:0:
256,192,3048,1,8,0:0:0:0:
256,192,3211,1,0,0:0:0:0:
256,192,3373,1,0,0:0:0:0:
256,192,3535,1,0,0:0:0:0:
256,192,3616,1,0,0:0:0:0:
256,192,3697,1,8,0:0:0:0:
256,192,3859,1,0,0:0:0:0:
256,192,4021,1,8,0:0:0:0:
256,192,4184,1,8,0:0:0:0:
256,192,4265,1,8,0:0:0:0:
256,192,4346,1,0,0:0:0:0:
256,192,4508,1,0,0:0:0:0:
256,192,4670,1,8,0:0:0:0:
256,192,4832,1,0,0:0:0:0:
256,192,4994,1,0,0:0:0:0:
256,192,5157,1,8,0:0:0:0:
256,192,5319,1,0,0:0:0:0:
256,192,5481,1,0,0:0:0:0:
256,192,5562,1,8,0:0:0:0:
256,192,5643,1,8,0:0:0:0:
256,192,5805,1,0,0:0:0:0:
256,192,5967,1,0,0:0:0:0:
256,192,6048,1,0,0:0:0:0:
256,192,6129,1,8,0:0:0:0:
256,192,6292,1,0,0:0:0:0:
256,192,6373,1,0,0:0:0:0:
256,192,6454,1,0,0:0:0:0:
256,192,6535,1,8,0:0:0:0:
256,192,6616,1,8,0:0:0:0:
256,192,6778,1,8,0:0:0:0:
256,192,6859,1,0,0:0:0:0:
256,192,6940,1,8,0:0:0:0:
256,192,7102,1,8,0:0:0:0:
256,192,7265,1,0,0:0:0:0:
256,192,7427,1,8,0:0:0:0:
256,192,7508,1,0,0:0:0:0:
256,192,7589,1,8,0:0:0:0:
256,192,7751,1,0,0:0:0:0:
256,192,7913,1,0,0:0:0:0:
256,192,8075,1,8,0:0:0:0:
256,192,8238,1,0,0:0:0:0:
256,192,8400,1,8,0:0:0:0:
256,192,8562,1,0,0:0:0:0:
256,192,8724,1,8,0:0:0:0:
256,192,8886,1,8,0:0:0:0:
256,192,9048,1,0,0:0:0:0:
256,192,9211,1,0,0:0:0:0:
256,192,9271,1,8,0:0:0:0:
256,192,9332,1,0,0:0:0:0:
256,192,9393,1,8,0:0:0:0:
256,192,9454,1,0,0:0:0:0:
256,192,9515,1,8,0:0:0:0:
256,192,9575,1,0,0:0:0:0:
256,192,9636,1,8,0:0:0:0:
256,192,9697,1,0,0:0:0:0:
256,192,9778,1,8,0:0:0:0:
256,192,9859,1,8,0:0:0:0:
256,192,10184,12,0,10346,0:0:0:0:
256,192,10508,5,12,0:0:0:0:
256,192,10670,1,8,0:0:0:0:
256,192,10751,1,0,0:0:0:0:
256,192,10832,1,8,0:0:0:0:
256,192,10994,1,0,0:0:0:0:
256,192,11157,1,0,0:0:0:0:
256,192,11238,1,8,0:0:0:0:
256,192,11319,1,8,0:0:0:0:
256,192,11481,1,0,0:0:0:0:
256,192,11562,1,0,0:0:0:0:
256,192,11643,1,8,0:0:0:0:
256,192,11724,1,0,0:0:0:0:
256,192,11805,1,8,0:0:0:0:
256,192,11967,1,8,0:0:0:0:
256,192,12048,1,8,0:0:0:0:
256,192,12129,1,8,0:0:0:0:
256,192,12292,1,0,0:0:0:0:
256,192,12454,1,0,0:0:0:0:
256,192,12616,1,8,0:0:0:0:
256,192,12697,1,0,0:0:0:0:
256,192,12778,1,8,0:0:0:0:
256,192,12940,1,0,0:0:0:0:
256,192,13102,1,0,0:0:0:0:
256,192,13265,1,0,0:0:0:0:
256,192,13346,1,0,0:0:0:0:
256,192,13427,1,8,0:0:0:0:
256,192,13589,1,0,0:0:0:0:
256,192,13751,1,0,0:0:0:0:
256,192,13913,1,8,0:0:0:0:
256,192,13994,1,0,0:0:0:0:
256,192,14075,1,8,0:0:0:0:
256,192,14238,1,0,0:0:0:0:
256,192,14400,1,0,0:0:0:0:
256,192,14562,1,0,0:0:0:0:
256,192,14643,1,0,0:0:0:0:
256,192,14724,1,8,0:0:0:0:
256,192,14886,1,0,0:0:0:0:
256,192,15048,1,8,0:0:0:0:
256,192,15211,1,0,0:0:0:0:
256,192,15373,1,0,0:0:0:0:
256,192,15454,1,8,0:0:0:0:
256,192,15535,1,8,0:0:0:0:
256,192,15697,1,12,0:0:0:0:
256,192,15859,1,8,0:0:0:0:
256,192,15940,1,0,0:0:0:0:
256,192,16021,1,8,0:0:0:0:
256,192,16184,1,0,0:0:0:0:
256,192,16346,1,0,0:0:0:0:
256,192,16427,1,8,0:0:0:0:
256,192,16508,1,8,0:0:0:0:
256,192,16670,1,0,0:0:0:0:
256,192,16751,1,0,0:0:0:0:
256,192,16832,1,8,0:0:0:0:
256,192,16913,1,0,0:0:0:0:
256,192,16994,1,8,0:0:0:0:
256,192,17157,1,8,0:0:0:0:
256,192,17238,1,8,0:0:0:0:
256,192,17319,1,8,0:0:0:0:
256,192,17481,1,0,0:0:0:0:
256,192,17643,1,0,0:0:0:0:
256,192,17805,1,8,0:0:0:0:
256,192,17886,1,0,0:0:0:0:
256,192,17967,1,8,0:0:0:0:
256,192,18129,1,0,0:0:0:0:
256,192,18292,1,0,0:0:0:0:
256,192,18454,1,8,0:0:0:0:
256,192,18535,1,8,0:0:0:0:
256,192,18616,1,0,0:0:0:0:
256,192,18778,1,8,0:0:0:0:
256,192,18940,1,0,0:0:0:0:
256,192,19102,1,8,0:0:0:0:
256,192,19184,1,0,0:0:0:0:
256,192,19265,1,0,0:0:0:0:
256,192,19427,1,8,0:0:0:0:
256,192,19589,1,0,0:0:0:0:
256,192,19650,1,8,0:0:0:0:
256,192,19711,1,0,0:0:0:0:
256,192,19771,1,8,0:0:0:0:
256,192,19832,1,0,0:0:0:0:
256,192,19893,1,8,0:0:0:0:
256,192,19954,1,0,0:0:0:0:
256,192,20015,1,8,0:0:0:0:
256,192,20075,1,0,0:0:0:0:
256,192,20157,1,8,0:0:0:0:
256,192,20238,1,8,0:0:0:0:
256,192,20400,1,0,0:0:0:0:
256,192,20481,1,0,0:0:0:0:
256,192,20562,1,8,0:0:0:0:
256,192,20643,1,8,0:0:0:0:
256,192,20724,1,8,0:0:0:0:
256,192,20805,1,0,0:0:0:0:
256,192,20886,1,12,0:0:0:0:
256,192,21048,1,8,0:0:0:0:
256,192,21129,1,0,0:0:0:0:
256,192,21211,1,8,0:0:0:0:
256,192,21373,1,0,0:0:0:0:
256,192,21535,1,0,0:0:0:0:
256,192,21616,1,8,0:0:0:0:
256,192,21697,1,8,0:0:0:0:
256,192,21859,1,0,0:0:0:0:
256,192,21940,1,0,0:0:0:0:
256,192,22021,1,8,0:0:0:0:
256,192,22102,1,0,0:0:0:0:
256,192,22184,1,8,0:0:0:0:
256,192,22346,1,8,0:0:0:0:
256,192,22427,1,8,0:0:0:0:
256,192,22508,1,8,0:0:0:0:
256,192,22670,1,0,0:0:0:0:
256,192,22832,1,8,0:0:0:0:
256,192,22913,1,0,0:0:0:0:
256,192,22994,1,8,0:0:0:0:
256,192,23075,1,8,0:0:0:0:
256,192,23157,1,8,0:0:0:0:
256,192,23319,1,8,0:0:0:0:
256,192,23481,1,0,0:0:0:0:
256,192,23562,1,0,0:0:0:0:
256,192,23643,1,8,0:0:0:0:
256,192,23724,1,0,0:0:0:0:
256,192,23805,1,8,0:0:0:0:
256,192,23886,1,8,0:0:0:0:
256,192,23967,1,0,0:0:0:0:
256,192,24048,1,8,0:0:0:0:
256,192,24129,1,0,0:0:0:0:
256,192,24292,1,8,0:0:0:0:
256,192,24373,1,0,0:0:0:0:
256,192,24454,1,8,0:0:0:0:
256,192,24535,1,8,0:0:0:0:
256,192,24616,1,0,0:0:0:0:
256,192,24697,1,8,0:0:0:0:
256,192,24778,1,0,0:0:0:0:
256,192,24940,1,0,0:0:0:0:
256,192,25021,1,0,0:0:0:0:
256,192,25102,1,8,0:0:0:0:
256,192,25265,1,0,0:0:0:0:
256,192,25427,1,8,0:0:0:0:
256,192,25508,1,8,0:0:0:0:
256,192,25589,1,0,0:0:0:0:
256,192,25670,1,8,0:0:0:0:
256,192,25751,1,0,0:0:0:0:
256,192,25832,1,8,0:0:0:0:
256,192,25913,1,8,0:0:0:0:
256,192,26075,1,12,0:0:0:0:
256,192,26238,1,8,0:0:0:0:
256,192,26319,1,0,0:0:0:0:
256,192,26400,1,8,0:0:0:0:
256,192,26562,1,0,0:0:0:0:
256,192,26724,1,0,0:0:0:0:
256,192,26805,1,8,0:0:0:0:
256,192,26886,1,8,0:0:0:0:
256,192,27048,1,0,0:0:0:0:
256,192,27129,1,0,0:0:0:0:
256,192,27211,1,8,0:0:0:0:
256,192,27292,1,0,0:0:0:0:
256,192,27373,1,8,0:0:0:0:
256,192,27535,1,8,0:0:0:0:
256,192,27616,1,8,0:0:0:0:
256,192,27697,1,8,0:0:0:0:
256,192,27859,1,0,0:0:0:0:
256,192,28021,1,8,0:0:0:0:
256,192,28102,1,0,0:0:0:0:
256,192,28184,1,8,0:0:0:0:
256,192,28265,1,8,0:0:0:0:
256,192,28346,1,8,0:0:0:0:
256,192,28427,1,0,0:0:0:0:
256,192,28508,1,8,0:0:0:0:
256,192,28670,1,0,0:0:0:0:
256,192,28832,1,8,0:0:0:0:
256,192,28913,1,8,0:0:0:0:
256,192,28994,1,0,0:0:0:0:
256,192,29157,1,8,0:0:0:0:
256,192,29319,1,0,0:0:0:0:
256,192,29481,1,8,0:0:0:0:
256,192,29562,1,0,0:0:0:0:
256,192,29643,1,0,0:0:0:0:
256,192,29805,1,8,0:0:0:0:
256,192,29967,1,0,0:0:0:0:
256,192,30028,1,8,0:0:0:0:
256,192,30089,1,0,0:0:0:0:
256,192,30150,1,8,0:0:0:0:
256,192,30211,1,0,0:0:0:0:
256,192,30272,1,8,0:0:0:0:
256,192,30333,1,0,0:0:0:0:
256,192,30394,1,8,0:0:0:0:
256,192,30455,1,0,0:0:0:0:
256,192,30535,1,8,0:0:0:0:
256,192,30616,1,8,0:0:0:0:
256,192,30778,1,0,0:0:0:0:
256,192,30859,1,0,0:0:0:0:
256,192,30940,1,8,0:0:0:0:
256,192,31021,1,8,0:0:0:0:
256,192,31102,1,8,0:0:0:0:
256,192,31184,1,8,0:0:0:0:
256,192,31265,1,4,0:0:0:0:
256,192,31427,1,0,0:0:0:0:
256,192,31589,1,8,0:0:0:0:
256,192,31751,1,8,0:0:0:0:
256,192,32075,1,8,0:0:0:0:
256,192,32238,1,0,0:0:0:0:
256,192,32400,1,8,0:0:0:0:
256,192,32562,1,8,0:0:0:0:
256,192,32724,1,0,0:0:0:0:
256,192,32805,1,8,0:0:0:0:
256,192,32886,1,8,0:0:0:0:
256,192,33048,1,0,0:0:0:0:
256,192,33129,1,0,0:0:0:0:
256,192,33211,1,8,0:0:0:0:
256,192,33373,1,0,0:0:0:0:
256,192,33454,1,0,0:0:0:0:
256,192,33535,1,0,0:0:0:0:
256,192,33697,1,8,0:0:0:0:
256,192,33778,1,0,0:0:0:0:
256,192,33859,1,0,0:0:0:0:
256,192,34021,1,0,0:0:0:0:
256,192,34184,1,0,0:0:0:0:
256,192,34346,1,8,0:0:0:0:
256,192,34670,1,8,0:0:0:0:
256,192,34832,1,0,0:0:0:0:
256,192,34994,1,8,0:0:0:0:
256,192,35157,1,0,0:0:0:0:
256,192,35319,1,0,0:0:0:0:
256,192,35400,1,0,0:0:0:0:
256,192,35481,1,8,0:0:0:0:
256,192,35643,1,0,0:0:0:0:
256,192,35805,1,0,0:0:0:0:
256,192,35886,1,0,0:0:0:0:
256,192,35967,1,8,0:0:0:0:
256,192,36048,1,8,0:0:0:0:
256,192,36129,1,0,0:0:0:0:
256,192,36211,1,8,0:0:0:0:
256,192,36292,1,0,0:0:0:0:
256,192,36373,1,0,0:0:0:0:
256,192,36454,1,12,0:0:0:0:
256,192,36616,1,0,0:0:0:0:
256,192,36778,1,8,0:0:0:0:
256,192,36940,1,8,0:0:0:0:
256,192,37265,1,8,0:0:0:0:
256,192,37427,1,0,0:0:0:0:
256,192,37589,1,8,0:0:0:0:
256,192,37751,1,8,0:0:0:0:
256,192,37832,1,8,0:0:0:0:
256,192,37913,1,0,0:0:0:0:
256,192,37994,1,8,0:0:0:0:
256,192,38075,1,0,0:0:0:0:
256,192,38157,1,0,0:0:0:0:
256,192,38238,1,8,0:0:0:0:
256,192,38319,1,8,0:0:0:0:
256,192,38400,1,0,0:0:0:0:
256,192,38481,1,0,0:0:0:0:
256,192,38562,1,8,0:0:0:0:
256,192,38643,1,0,0:0:0:0:
256,192,38724,1,0,0:0:0:0:
256,192,38805,1,0,0:0:0:0:
256,192,38886,1,8,0:0:0:0:
256,192,38967,1,8,0:0:0:0:
256,192,39048,1,0,0:0:0:0:
256,192,39211,1,0,0:0:0:0:
256,192,39373,1,8,0:0:0:0:
256,192,39535,1,0,0:0:0:0:
256,192,39697,1,0,0:0:0:0:
256,192,39859,1,8,0:0:0:0:
256,192,40021,1,8,0:0:0:0:
256,192,40184,1,0,0:0:0:0:
256,192,40346,1,12,0:0:0:0:
256,192,40508,1,0,0:0:0:0:
256,192,40670,1,4,0:0:0:0:
256,192,40832,1,12,0:0:0:0:
256,192,41157,1,8,0:0:0:0:
256,192,41238,1,8,0:0:0:0:
256,192,41319,1,8,0:0:0:0:
256,192,41481,1,8,0:0:0:0:
256,192,41562,1,8,0:0:0:0:
256,192,41643,1,4,0:0:0:0:
256,192,41805,1,8,0:0:0:0:
256,192,41967,1,0,0:0:0:0:
256,192,42129,1,12,0:0:0:0:
256,192,42454,1,8,0:0:0:0:
256,192,42616,1,0,0:0:0:0:
256,192,42778,1,8,0:0:0:0:
256,192,42940,1,12,0:0:0:0:
256,192,43102,1,0,0:0:0:0:
256,192,43184,1,0,0:0:0:0:
256,192,43265,1,8,0:0:0:0:
256,192,43427,1,4,0:0:0:0:
256,192,43589,1,0,0:0:0:0:
256,192,43751,1,8,0:0:0:0:
256,192,43832,1,0,0:0:0:0:
256,192,43913,1,8,0:0:0:0:
256,192,44075,1,0,0:0:0:0:
256,192,44157,1,8,0:0:0:0:
256,192,44238,1,4,0:0:0:0:
256,192,44400,1,0,0:0:0:0:
256,192,44562,1,8,0:0:0:0:
256,192,44724,1,4,0:0:0:0:
256,192,45048,1,0,0:0:0:0:
256,192,45211,1,8,0:0:0:0:
256,192,45373,1,0,0:0:0:0:
256,192,45454,1,0,0:0:0:0:
256,192,45535,1,12,0:0:0:0:
256,192,45697,1,4,0:0:0:0:
256,192,45859,1,4,0:0:0:0:
256,192,46021,1,12,0:0:0:0:
256,192,46184,1,8,0:0:0:0:
256,192,46346,1,0,0:0:0:0:
256,192,46508,1,8,0:0:0:0:
256,192,46548,1,8,0:0:0:0:
256,192,46670,1,0,0:0:0:0:
256,192,46751,1,0,0:0:0:0:
256,192,46832,1,8,0:0:0:0:
256,192,46994,1,0,0:0:0:0:
256,192,47157,1,0,0:0:0:0:
256,192,47319,1,8,0:0:0:0:
256,192,47481,1,0,0:0:0:0:
256,192,47643,1,8,0:0:0:0:
256,192,47805,1,8,0:0:0:0:
256,192,47967,1,0,0:0:0:0:
256,192,48129,1,8,0:0:0:0:
256,192,48238,1,0,0:0:0:0:
256,192,48346,1,0,0:0:0:0:
256,192,48454,1,8,0:0:0:0:
256,192,48562,1,8,0:0:0:0:
256,192,48670,1,0,0:0:0:0:
259,188,48778,1,8,0:0:0:0:
256,192,48886,1,8,0:0:0:0:
256,192,48994,1,0,0:0:0:0:
256,192,49102,1,8,0:0:0:0:
256,192,49211,1,0,0:0:0:0:
259,188,49319,1,0,0:0:0:0:
259,188,49427,1,12,0:0:0:0:
256,192,49589,1,0,0:0:0:0:
256,192,49751,1,8,0:0:0:0:
256,192,49913,1,0,0:0:0:0:
256,192,49994,1,8,0:0:0:0:
256,192,50075,1,0,0:0:0:0:
256,192,50238,1,0,0:0:0:0:
256,192,50400,1,8,0:0:0:0:
256,192,50562,1,0,0:0:0:0:
256,192,50643,1,8,0:0:0:0:
256,192,50724,1,0,0:0:0:0:
256,192,50805,1,0,0:0:0:0:
256,192,50886,1,8,0:0:0:0:
256,192,50967,1,0,0:0:0:0:
256,192,51048,1,8,0:0:0:0:
256,192,51129,1,8,0:0:0:0:
256,192,51211,1,0,0:0:0:0:
256,192,51292,1,8,0:0:0:0:
256,192,51373,1,0,0:0:0:0:
256,192,51535,1,8,0:0:0:0:
256,192,51616,1,0,0:0:0:0:
256,192,51697,1,8,0:0:0:0:
256,192,51778,1,0,0:0:0:0:
256,192,51859,1,8,0:0:0:0:
256,192,51940,1,8,0:0:0:0:
256,192,52021,1,4,0:0:0:0:
256,192,52184,1,8,0:0:0:0:
256,192,52265,1,0,0:0:0:0:
256,192,52346,1,0,0:0:0:0:
256,192,52508,1,8,0:0:0:0:
256,192,52670,1,0,0:0:0:0:
256,192,52751,1,0,0:0:0:0:
256,192,52832,1,8,0:0:0:0:
256,192,52994,1,0,0:0:0:0:
256,192,53075,1,0,0:0:0:0:
256,192,53157,1,8,0:0:0:0:
256,192,53238,1,0,0:0:0:0:
256,192,53319,1,0,0:0:0:0:
256,192,53481,1,8,0:0:0:0:
256,192,53562,1,0,0:0:0:0:
256,192,53643,1,0,0:0:0:0:
256,192,53805,1,8,0:0:0:0:
256,192,53967,1,0,0:0:0:0:
256,192,54129,1,8,0:0:0:0:
256,192,54211,1,8,0:0:0:0:
256,192,54292,1,0,0:0:0:0:
256,192,54454,1,8,0:0:0:0:
256,192,54616,1,0,0:0:0:0:
256,192,54778,1,8,0:0:0:0:
256,192,54859,1,0,0:0:0:0:
256,192,54940,1,0,0:0:0:0:
256,192,55102,1,8,0:0:0:0:
256,192,55265,1,0,0:0:0:0:
256,192,55427,1,8,0:0:0:0:
256,192,55508,1,0,0:0:0:0:
256,192,55589,1,0,0:0:0:0:
256,192,55751,1,8,0:0:0:0:
256,192,55913,1,0,0:0:0:0:
256,192,56075,1,8,0:0:0:0:
256,192,56157,1,0,0:0:0:0:
256,192,56238,1,0,0:0:0:0:
256,192,56400,1,8,0:0:0:0:
256,192,56562,1,0,0:0:0:0:
256,192,56643,1,0,0:0:0:0:
256,192,56724,1,8,0:0:0:0:
256,192,56805,1,0,0:0:0:0:
256,192,56886,1,0,0:0:0:0:
256,192,56967,1,8,0:0:0:0:
256,192,57048,1,8,0:0:0:0:
256,192,57211,1,4,0:0:0:0:
256,192,57373,1,8,0:0:0:0:
256,192,57454,1,0,0:0:0:0:
256,192,57535,1,0,0:0:0:0:
256,192,57697,1,8,0:0:0:0:
256,192,57859,1,0,0:0:0:0:
256,192,57940,1,0,0:0:0:0:
256,192,58021,1,8,0:0:0:0:
256,192,58184,1,0,0:0:0:0:
256,192,58265,1,0,0:0:0:0:
256,192,58346,1,8,0:0:0:0:
256,192,58427,1,0,0:0:0:0:
256,192,58508,1,0,0:0:0:0:
256,192,58670,1,8,0:0:0:0:
256,192,58751,1,0,0:0:0:0:
256,192,58832,1,0,0:0:0:0:
256,192,58994,1,8,0:0:0:0:
256,192,59157,1,0,0:0:0:0:
256,192,59319,1,8,0:0:0:0:
256,192,59400,1,8,0:0:0:0:
256,192,59481,1,0,0:0:0:0:
256,192,59643,1,8,0:0:0:0:
256,192,59805,1,0,0:0:0:0:
256,192,59886,1,0,0:0:0:0:
256,192,59967,1,8,0:0:0:0:
256,192,60129,1,0,0:0:0:0:
256,192,60292,1,8,0:0:0:0:
256,192,60454,1,0,0:0:0:0:
256,192,60535,1,0,0:0:0:0:
256,192,60616,1,8,0:0:0:0:
256,192,60778,1,0,0:0:0:0:
256,192,60940,1,8,0:0:0:0:
256,192,61102,1,0,0:0:0:0:
256,192,61163,1,8,0:0:0:0:
256,192,61224,1,0,0:0:0:0:
256,192,61285,1,8,0:0:0:0:
256,192,61346,1,0,0:0:0:0:
256,192,61407,1,8,0:0:0:0:
256,192,61468,1,0,0:0:0:0:
256,192,61529,1,8,0:0:0:0:
256,192,61590,1,0,0:0:0:0:
256,192,61670,1,8,0:0:0:0:
256,192,61751,1,8,0:0:0:0:
256,192,61913,1,0,0:0:0:0:
256,192,61994,1,0,0:0:0:0:
256,192,62075,1,8,0:0:0:0:
256,192,62157,1,8,0:0:0:0:
256,192,62238,1,8,0:0:0:0:
256,192,62319,1,8,0:0:0:0:
256,192,62400,1,4,0:0:0:0:
256,192,62562,1,8,0:0:0:0:
256,192,62643,1,8,0:0:0:0:
256,192,62724,1,0,0:0:0:0:
256,192,62886,1,8,0:0:0:0:
256,192,63048,1,0,0:0:0:0:
256,192,63129,1,8,0:0:0:0:
256,192,63211,1,8,0:0:0:0:
256,192,63373,1,0,0:0:0:0:
256,192,63454,1,8,0:0:0:0:
256,192,63535,1,8,0:0:0:0:
256,192,63616,1,8,0:0:0:0:
256,192,63697,1,0,0:0:0:0:
256,192,63859,1,8,0:0:0:0:
256,192,63940,1,8,0:0:0:0:
256,192,64021,1,0,0:0:0:0:
256,192,64184,1,8,0:0:0:0:
256,192,64346,1,0,0:0:0:0:
256,192,64508,1,8,0:0:0:0:
256,192,64589,1,0,0:0:0:0:
256,192,64670,1,0,0:0:0:0:
256,192,64832,1,8,0:0:0:0:
256,192,64994,1,0,0:0:0:0:
256,192,65075,1,0,0:0:0:0:
256,192,65157,1,8,0:0:0:0:
256,192,65238,1,8,0:0:0:0:
256,192,65319,1,0,0:0:0:0:
256,192,65400,1,8,0:0:0:0:
256,192,65481,1,8,0:0:0:0:
256,192,65562,1,8,0:0:0:0:
256,192,65643,1,0,0:0:0:0:
256,192,65724,1,0,0:0:0:0:
256,192,65805,1,8,0:0:0:0:
256,192,65886,1,8,0:0:0:0:
256,192,65967,1,0,0:0:0:0:
256,192,66048,1,0,0:0:0:0:
256,192,66129,1,8,0:0:0:0:
256,192,66211,1,0,0:0:0:0:
256,192,66292,1,0,0:0:0:0:
256,192,66454,1,8,0:0:0:0:
256,192,66535,1,8,0:0:0:0:
256,192,66616,1,0,0:0:0:0:
256,192,66778,1,8,0:0:0:0:
256,192,66940,1,0,0:0:0:0:
256,192,67021,1,0,0:0:0:0:
256,192,67102,1,8,0:0:0:0:
256,192,67184,1,8,0:0:0:0:
256,192,67265,1,0,0:0:0:0:
256,192,67346,1,8,0:0:0:0:
256,192,67427,1,8,0:0:0:0:
256,192,67589,1,4,0:0:0:0:
256,192,67751,1,8,0:0:0:0:
256,192,67832,1,8,0:0:0:0:
256,192,67913,1,0,0:0:0:0:
256,192,68075,1,8,0:0:0:0:
256,192,68238,1,0,0:0:0:0:
256,192,68319,1,8,0:0:0:0:
256,192,68400,1,8,0:0:0:0:
256,192,68562,1,0,0:0:0:0:
256,192,68643,1,8,0:0:0:0:
256,192,68724,1,8,0:0:0:0:
256,192,68805,1,8,0:0:0:0:
256,192,68886,1,0,0:0:0:0:
256,192,69048,1,8,0:0:0:0:
256,192,69129,1,8,0:0:0:0:
256,192,69211,1,0,0:0:0:0:
256,192,69373,1,8,0:0:0:0:
256,192,69535,1,0,0:0:0:0:
256,192,69697,1,8,0:0:0:0:
256,192,69778,1,0,0:0:0:0:
256,192,69859,1,0,0:0:0:0:
256,192,70021,1,8,0:0:0:0:
256,192,70184,1,0,0:0:0:0:
256,192,70265,1,8,0:0:0:0:
256,192,70346,1,8,0:0:0:0:
256,192,70508,1,0,0:0:0:0:
256,192,70670,1,8,0:0:0:0:
256,192,70832,1,0,0:0:0:0:
256,192,70913,1,8,0:0:0:0:
256,192,70994,1,8,0:0:0:0:
256,192,71157,1,0,0:0:0:0:
256,192,71319,1,8,0:0:0:0:
256,192,71481,1,0,0:0:0:0:
256,192,71542,1,8,0:0:0:0:
256,192,71602,1,0,0:0:0:0:
256,192,71663,1,8,0:0:0:0:
256,192,71724,1,0,0:0:0:0:
256,192,71785,1,8,0:0:0:0:
256,192,71845,1,0,0:0:0:0:
256,192,71906,1,8,0:0:0:0:
256,192,71967,1,0,0:0:0:0:
256,192,72048,1,8,0:0:0:0:
256,192,72129,1,8,0:0:0:0:
256,192,72292,1,0,0:0:0:0:
256,192,72373,1,0,0:0:0:0:
256,192,72454,1,8,0:0:0:0:
256,192,72535,1,8,0:0:0:0:
256,192,72616,1,8,0:0:0:0:
256,192,72697,1,8,0:0:0:0:
256,192,72778,1,4,0:0:0:0:
256,192,72940,1,0,0:0:0:0:
256,192,73102,1,8,0:0:0:0:
256,192,73264,1,8,0:0:0:0:
256,192,73588,1,8,0:0:0:0:
256,192,73751,1,0,0:0:0:0:
256,192,73913,1,8,0:0:0:0:
256,192,74075,1,8,0:0:0:0:
256,192,74237,1,0,0:0:0:0:
256,192,74318,1,8,0:0:0:0:
256,192,74399,1,8,0:0:0:0:
256,192,74561,1,0,0:0:0:0:
256,192,74642,1,0,0:0:0:0:
256,192,74724,1,8,0:0:0:0:
256,192,74886,1,0,0:0:0:0:
256,192,74967,1,0,0:0:0:0:
256,192,75048,1,0,0:0:0:0:
256,192,75210,1,8,0:0:0:0:
256,192,75291,1,0,0:0:0:0:
256,192,75372,1,0,0:0:0:0:
256,192,75534,1,0,0:0:0:0:
256,192,75697,1,0,0:0:0:0:
256,192,75859,1,8,0:0:0:0:
256,192,76183,1,8,0:0:0:0:
256,192,76345,1,0,0:0:0:0:
256,192,76507,1,8,0:0:0:0:
256,192,76670,1,0,0:0:0:0:
256,192,76832,1,0,0:0:0:0:
256,192,76913,1,0,0:0:0:0:
256,192,76994,1,8,0:0:0:0:
256,192,77156,1,0,0:0:0:0:
256,192,77318,1,0,0:0:0:0:
256,192,77399,1,0,0:0:0:0:
256,192,77480,1,8,0:0:0:0:
256,192,77561,1,8,0:0:0:0:
256,192,77642,1,0,0:0:0:0:
256,192,77724,1,8,0:0:0:0:
256,192,77805,1,0,0:0:0:0:
256,192,77886,1,0,0:0:0:0:
256,192,77967,1,12,0:0:0:0:
256,192,78129,1,0,0:0:0:0:
256,192,78291,1,8,0:0:0:0:
256,192,78453,1,8,0:0:0:0:
256,192,78778,1,8,0:0:0:0:
256,192,78940,1,0,0:0:0:0:
256,192,79102,1,8,0:0:0:0:
256,192,79264,1,8,0:0:0:0:
256,192,79345,1,8,0:0:0:0:
256,192,79426,1,0,0:0:0:0:
256,192,79507,1,8,0:0:0:0:
256,192,79588,1,0,0:0:0:0:
256,192,79670,1,0,0:0:0:0:
256,192,79751,1,8,0:0:0:0:
256,192,79832,1,8,0:0:0:0:
256,192,79913,1,0,0:0:0:0:
256,192,79994,1,0,0:0:0:0:
256,192,80075,1,8,0:0:0:0:
256,192,80156,1,0,0:0:0:0:
256,192,80237,1,0,0:0:0:0:
256,192,80318,1,0,0:0:0:0:
256,192,80399,1,8,0:0:0:0:
256,192,80480,1,8,0:0:0:0:
256,192,80561,1,0,0:0:0:0:
256,192,80724,1,0,0:0:0:0:
256,192,80886,1,8,0:0:0:0:
256,192,81048,1,0,0:0:0:0:
256,192,81210,1,0,0:0:0:0:
256,192,81372,1,8,0:0:0:0:
256,192,81534,1,8,0:0:0:0:
256,192,81697,1,0,0:0:0:0:
256,192,81859,1,12,0:0:0:0:
256,192,82021,1,0,0:0:0:0:
256,192,82183,1,4,0:0:0:0:
256,192,82345,1,12,0:0:0:0:
256,192,82670,1,8,0:0:0:0:
256,192,82751,1,8,0:0:0:0:
256,192,82832,1,8,0:0:0:0:
256,192,82994,1,8,0:0:0:0:
256,192,83075,1,8,0:0:0:0:
256,192,83156,1,4,0:0:0:0:
256,192,83318,1,8,0:0:0:0:
256,192,83480,1,0,0:0:0:0:
256,192,83642,1,12,0:0:0:0:
256,192,83967,1,8,0:0:0:0:
256,192,84129,1,0,0:0:0:0:
256,192,84291,1,8,0:0:0:0:
256,192,84453,1,12,0:0:0:0:
256,192,84615,1,0,0:0:0:0:
256,192,84697,1,0,0:0:0:0:
256,192,84778,1,8,0:0:0:0:
256,192,84940,1,4,0:0:0:0:
256,192,85102,1,0,0:0:0:0:
256,192,85264,1,8,0:0:0:0:
256,192,85345,1,0,0:0:0:0:
256,192,85426,1,8,0:0:0:0:
256,192,85588,1,0,0:0:0:0:
256,192,85670,1,8,0:0:0:0:
256,192,85751,1,4,0:0:0:0:
256,192,85913,1,0,0:0:0:0:
256,192,86075,1,8,0:0:0:0:
256,192,86237,1,4,0:0:0:0:
256,192,86561,1,0,0:0:0:0:
256,192,86724,1,8,0:0:0:0:
256,192,86886,1,0,0:0:0:0:
256,192,86967,1,0,0:0:0:0:
256,192,87048,1,12,0:0:0:0:
256,192,87210,1,4,0:0:0:0:
256,192,87372,1,4,0:0:0:0:
256,192,87534,1,12,0:0:0:0:
256,192,87697,1,8,0:0:0:0:
256,192,87859,1,0,0:0:0:0:
256,192,88021,1,8,0:0:0:0:
256,192,88061,1,8,0:0:0:0:
256,192,88183,1,0,0:0:0:0:
256,192,88264,1,0,0:0:0:0:
256,192,88345,1,8,0:0:0:0:
256,192,88507,1,0,0:0:0:0:
256,192,88670,1,0,0:0:0:0:
256,192,88832,1,8,0:0:0:0:
256,192,88994,1,0,0:0:0:0:
256,192,89156,1,8,0:0:0:0:
256,192,89318,1,8,0:0:0:0:
256,192,89480,1,0,0:0:0:0:
256,192,89642,1,8,0:0:0:0:
256,192,89751,1,0,0:0:0:0:
256,192,89859,1,0,0:0:0:0:
256,192,89967,1,8,0:0:0:0:
256,192,90075,1,8,0:0:0:0:
256,192,90183,1,0,0:0:0:0:
259,188,90291,1,8,0:0:0:0:
256,192,90399,1,8,0:0:0:0:
256,192,90507,1,0,0:0:0:0:
256,192,90615,1,8,0:0:0:0:
256,192,90724,1,0,0:0:0:0:
259,188,90832,1,0,0:0:0:0:
259,188,90940,1,12,0:0:0:0:
256,192,91102,1,0,0:0:0:0:
256,192,91264,1,8,0:0:0:0:
256,192,91426,1,0,0:0:0:0:
256,192,91507,1,8,0:0:0:0:
256,192,91588,1,0,0:0:0:0:
256,192,91751,1,0,0:0:0:0:
256,192,91913,1,8,0:0:0:0:
256,192,92075,1,0,0:0:0:0:
256,192,92156,1,8,0:0:0:0:
256,192,92237,1,0,0:0:0:0:
256,192,92318,1,0,0:0:0:0:
256,192,92399,1,8,0:0:0:0:
256,192,92480,1,0,0:0:0:0:
256,192,92561,1,8,0:0:0:0:
256,192,92642,1,8,0:0:0:0:
256,192,92724,1,0,0:0:0:0:
256,192,92805,1,8,0:0:0:0:
256,192,92886,1,0,0:0:0:0:
256,192,93048,1,8,0:0:0:0:
256,192,93129,1,0,0:0:0:0:
256,192,93210,1,8,0:0:0:0:
256,192,93291,1,0,0:0:0:0:
256,192,93372,1,8,0:0:0:0:
256,192,93453,1,8,0:0:0:0:
256,192,93535,1,0,0:0:0:0:
256,192,93697,1,0,0:0:0:0:
256,192,93778,1,8,0:0:0:0:
256,192,93859,1,8,0:0:0:0:
256,192,94021,1,0,0:0:0:0:
256,192,94183,1,0,0:0:0:0:
256,192,94264,1,0,0:0:0:0:
256,192,94345,1,8,0:0:0:0:
256,192,94507,1,0,0:0:0:0:
256,192,94589,1,0,0:0:0:0:
256,192,94670,1,0,0:0:0:0:
256,192,94751,1,8,0:0:0:0:
256,192,94832,1,8,0:0:0:0:
256,192,94994,1,8,0:0:0:0:
256,192,95075,1,0,0:0:0:0:
256,192,95156,1,8,0:0:0:0:
256,192,95318,1,8,0:0:0:0:
256,192,95480,1,0,0:0:0:0:
256,192,95643,1,8,0:0:0:0:
256,192,95724,1,0,0:0:0:0:
256,192,95805,1,8,0:0:0:0:
256,192,95967,1,0,0:0:0:0:
256,192,96129,1,0,0:0:0:0:
256,192,96291,1,0,0:0:0:0:
256,192,96372,1,8,0:0:0:0:
256,192,96453,1,8,0:0:0:0:
256,192,96616,1,0,0:0:0:0:
256,192,96778,1,0,0:0:0:0:
256,192,96940,1,0,0:0:0:0:
256,192,97021,1,0,0:0:0:0:
256,192,97102,1,8,0:0:0:0:
256,192,97264,1,0,0:0:0:0:
256,192,97426,1,8,0:0:0:0:
256,192,97589,1,8,0:0:0:0:
256,192,97670,1,8,0:0:0:0:
256,192,97751,1,0,0:0:0:0:
256,192,97913,1,0,0:0:0:0:
256,192,98075,1,8,0:0:0:0:
256,192,98237,1,0,0:0:0:0:
256,192,98399,1,0,0:0:0:0:
256,192,98562,1,8,0:0:0:0:
256,192,98724,1,0,0:0:0:0:
256,192,98886,1,0,0:0:0:0:
256,192,98967,1,8,0:0:0:0:
256,192,99048,1,8,0:0:0:0:
256,192,99210,1,0,0:0:0:0:
256,192,99372,1,0,0:0:0:0:
256,192,99453,1,0,0:0:0:0:
256,192,99534,1,8,0:0:0:0:
256,192,99697,1,0,0:0:0:0:
256,192,99778,1,0,0:0:0:0:
256,192,99859,1,0,0:0:0:0:
256,192,99940,1,8,0:0:0:0:
256,192,100021,1,8,0:0:0:0:
256,192,100183,1,8,0:0:0:0:
256,192,100264,1,0,0:0:0:0:
256,192,100345,1,8,0:0:0:0:
256,192,100507,1,8,0:0:0:0:
256,192,100670,1,0,0:0:0:0:
256,192,100832,1,8,0:0:0:0:
256,192,100913,1,0,0:0:0:0:
256,192,100994,1,8,0:0:0:0:
256,192,101156,1,0,0:0:0:0:
256,192,101319,1,0,0:0:0:0:
256,192,101492,1,8,0:0:0:0:
256,192,101665,1,0,0:0:0:0:
256,192,101841,1,8,0:0:0:0:
256,192,102017,1,0,0:0:0:0:
256,192,102201,1,8,0:0:0:0:
256,192,102385,1,8,0:0:0:0:
256,192,102574,1,0,0:0:0:0:
256,192,102774,1,0,0:0:0:0:
256,192,102856,1,8,0:0:0:0:
256,192,102938,1,0,0:0:0:0:
256,192,103021,1,8,0:0:0:0:
256,192,103109,1,0,0:0:0:0:
256,192,103197,1,8,0:0:0:0:
256,192,103294,1,0,0:0:0:0:
256,192,103396,1,8,0:0:0:0:
256,192,103498,1,0,0:0:0:0:
256,192,103664,1,8,0:0:0:0:
256,192,103851,1,8,0:0:0:0:
