osu file format v14

[General]
AudioFilename: audio.mp3
AudioLeadIn: 0
PreviewTime: 10460
Countdown: 0
SampleSet: Normal
StackLeniency: 0
Mode: 1
LetterboxInBreaks: 0
WidescreenStoryboard: 1

[Editor]
DistanceSpacing: 1
BeatDivisor: 3
GridSize: 32
TimelineZoom: 3

[Metadata]
Title:UP UP MT. CAKE
TitleUnicode:UP UP MT. CAKE
Artist:OISHII
ArtistUnicode:OISHII
Creator:Fallmorph
Version:Oni
Source:osu!
Tags:nsm beatmapping contest badger featured artist chiptune creamcore electronic happy kirby nes adventure hype nintendo videogame
BeatmapID:0
BeatmapSetID:-1

[Difficulty]
HPDrainRate:5.5
CircleSize:0
OverallDifficulty:5.3
ApproachRate:0
SliderMultiplier:1.4
SliderTickRate:1

[Events]
//Background and Video events
0,0,"bg.jpg",0,0
//Break Periods
//Storyboard Layer 0 (Background)
//Storyboard Layer 1 (Fail)
//Storyboard Layer 2 (Pass)
//Storyboard Layer 3 (Foreground)
//Storyboard Sound Samples

[TimingPoints]
82,324.319065096242,4,1,0,75,1,0
82,-108.695652173913,4,1,0,75,0,0
10460,-100,4,1,0,90,0,1
31216,-100,4,1,0,80,0,0
41594,-100,4,1,0,90,0,0
51973,-100,4,1,0,80,0,0
54689,-97.0873786407767,4,1,0,80,0,0
54770,-100,4,1,0,80,0,0
55013,-97.0873786407767,4,1,0,80,0,0
55094,-100,4,1,0,80,0,0
55337,-97.0873786407767,4,1,0,80,0,0
55418,-100,4,1,0,80,0,0
55662,-97.0873786407767,4,1,0,80,0,0
55743,-100,4,1,0,80,0,0
59878,-97.0873786407767,4,1,0,80,0,0
59959,-100,4,1,0,80,0,0
60202,-97.0873786407767,4,1,0,80,0,0
60283,-100,4,1,0,80,0,0
60526,-97.0873786407767,4,1,0,80,0,0
60607,-100,4,1,0,80,0,0
60851,-97.0873786407767,4,1,0,80,0,0
60932,-100,4,1,0,80,0,0
65067,-97.0873786407767,4,1,0,80,0,0
65148,-100,4,1,0,80,0,0
65391,-97.0873786407767,4,1,0,80,0,0
65472,-100,4,1,0,80,0,0
65716,-97.0873786407767,4,1,0,80,0,0
65797,-100,4,1,0,80,0,0
66040,-97.0873786407767,4,1,0,80,0,0
66121,-100,4,1,0,80,0,0
70256,-97.0873786407767,4,1,0,80,0,0
70337,-100,4,1,0,80,0,0
70580,-97.0873786407767,4,1,0,80,0,0
70661,-100,4,1,0,80,0,0
70905,-97.0873786407767,4,1,0,80,0,0
70986,-100,4,1,0,80,0,0
71229,-97.0873786407767,4,1,0,80,0,0
71310,-100,4,1,0,80,0,0
83107,-100,4,1,0,90,0,0
93404,-100,4,1,0,75,0,0
93648,-102.040816326531,4,1,0,75,0,0
93891,-103.092783505155,4,1,0,75,0,0
94053,-104.166666666667,4,1,0,75,0,0
94175,-104.712041884817,4,1,0,75,0,0
94256,-105.263157894737,4,1,0,75,0,0
94377,-106.382978723404,4,1,0,75,0,0
94539,-107.52688172043,4,1,0,75,0,0
94661,-108.108108108108,4,1,0,75,0,0
94742,-108.695652173913,4,1,0,75,0,0
101269,352.941176470588,4,1,0,75,1,0
101269,-99.8808714970309,4,1,0,75,0,0
101445,-98.8068836314715,4,1,0,75,0,0
101621,-97.7557465715622,4,1,0,75,0,0
101798,-96.7267387129142,4,1,0,75,0,0
101974,363.636363636364,4,1,0,75,1,8
101974,-92.9038988556942,4,1,0,75,0,8
102155,-91.9461267025427,4,1,0,75,0,8
102337,377.358490566038,4,1,0,75,1,8
102337,-87.6985227045959,4,1,0,75,0,8
102525,400,4,1,0,75,1,8
102525,-81.8987538121822,4,1,0,75,0,8
102725,431.654676258993,4,1,0,75,1,0
102725,-75.133916747296,4,1,0,75,0,0
102940,468.75,4,1,0,75,1,8
102940,-70.6000685923791,4,1,0,75,0,8
103174,545.454545454546,4,1,0,75,1,8
103174,-61.9359325704628,4,1,0,75,0,8
103446,705.882352941176,4,1,0,75,1,8
103446,-48.8778732857811,4,1,0,75,0,8
103798,750,4,1,0,75,1,0
103798,-47.0027630574263,4,1,0,75,0,0
103985,-47.0027630574263,4,1,0,25,0,0

[HitObjects]
256,192,82,5,8,0:0:0:0:
256,192,406,1,8,0:0:0:0:
256,192,568,1,8,0:0:0:0:
256,192,730,1,0,0:0:0:0:
256,192,811,1,0,0:0:0:0:
256,192,893,1,8,0:0:0:0:
256,192,1055,1,0,0:0:0:0:
256,192,1217,1,0,0:0:0:0:
256,192,1379,1,8,0:0:0:0:
256,192,1703,1,8,0:0:0:0:
256,192,1865,1,8,0:0:0:0:
256,192,2028,1,0,0:0:0:0:
256,192,2190,1,8,0:0:0:0:
256,192,2271,1,8,0:0:0:0:
256,192,2352,1,8,0:0:0:0:
256,192,2514,1,8,0:0:0:0:
256,192,2676,1,0,0:0:0:0:
256,192,3001,1,8,0:0:0:0:
256,192,3163,1,8,0:0:0:0:
256,192,3325,1,0,0:0:0:0:
256,192,3487,1,0,0:0:0:0:
256,192,3649,1,8,0:0:0:0:
256,192,3811,1,8,0:0:0:0:
256,192,3974,1,0,0:0:0:0:
256,192,4298,1,8,0:0:0:0:
256,192,4460,1,0,0:0:0:0:
256,192,4622,1,8,0:0:0:0:
256,192,4784,1,0,0:0:0:0:
256,192,4946,1,0,0:0:0:0:
256,192,5028,1,0,0:0:0:0:
256,192,5109,1,0,0:0:0:0:
256,192,5271,1,8,0:0:0:0:
256,192,5595,1,8,0:0:0:0:
256,192,5757,1,8,0:0:0:0:
256,192,5919,1,0,0:0:0:0:
256,192,6000,1,0,0:0:0:0:
256,192,6082,1,8,0:0:0:0:
256,192,6244,1,8,0:0:0:0:
256,192,6406,1,0,0:0:0:0:
256,192,6568,1,8,0:0:0:0:
256,192,6892,1,8,0:0:0:0:
256,192,7055,1,0,0:0:0:0:
256,192,7217,1,0,0:0:0:0:
256,192,7379,1,8,0:0:0:0:
256,192,7460,1,8,0:0:0:0:
256,192,7541,1,8,0:0:0:0:
256,192,7703,1,8,0:0:0:0:
256,192,7865,1,0,0:0:0:0:
256,192,8028,1,8,0:0:0:0:
256,192,8190,1,0,0:0:0:0:
256,192,8352,1,8,0:0:0:0:
256,192,8514,1,0,0:0:0:0:
256,192,8676,1,8,0:0:0:0:
256,192,8838,1,8,0:0:0:0:
256,192,9000,1,0,0:0:0:0:
256,192,9162,5,8,0:0:0:0:
256,192,9244,1,0,0:0:0:0:
256,192,9325,1,8,0:0:0:0:
256,192,9406,1,0,0:0:0:0:
256,192,9487,1,8,0:0:0:0:
256,192,9649,1,0,0:0:0:0:
256,192,9730,1,0,0:0:0:0:
256,192,9811,1,8,0:0:0:0:
256,192,10135,1,0,0:0:0:0:
256,192,10460,5,12,0:0:0:0:
256,192,10784,1,8,0:0:0:0:
256,192,10946,1,8,0:0:0:0:
256,192,11108,1,0,0:0:0:0:
256,192,11189,1,0,0:0:0:0:
256,192,11271,1,8,0:0:0:0:
256,192,11433,1,0,0:0:0:0:
256,192,11595,1,8,0:0:0:0:
256,192,11676,1,8,0:0:0:0:
256,192,11757,1,0,0:0:0:0:
256,192,11919,1,8,0:0:0:0:
256,192,12000,1,8,0:0:0:0:
256,192,12081,1,8,0:0:0:0:
256,192,12243,1,8,0:0:0:0:
256,192,12406,1,0,0:0:0:0:
256,192,12568,1,8,0:0:0:0:
256,192,12649,1,0,0:0:0:0:
256,192,12730,1,8,0:0:0:0:
256,192,12892,1,8,0:0:0:0:
256,192,13054,1,0,0:0:0:0:
256,192,13379,1,8,0:0:0:0:
256,192,13541,1,8,0:0:0:0:
256,192,13703,1,0,0:0:0:0:
256,192,13865,1,0,0:0:0:0:
256,192,14027,1,8,0:0:0:0:
256,192,14189,1,8,0:0:0:0:
256,192,14352,1,0,0:0:0:0:
256,192,14514,1,8,0:0:0:0:
256,192,14595,1,0,0:0:0:0:
256,192,14676,1,8,0:0:0:0:
256,192,14838,1,0,0:0:0:0:
256,192,15000,1,8,0:0:0:0:
256,192,15162,1,0,0:0:0:0:
256,192,15243,1,0,0:0:0:0:
256,192,15324,1,8,0:0:0:0:
256,192,15406,1,0,0:0:0:0:
256,192,15487,1,8,0:0:0:0:
256,192,15649,5,12,0:0:0:0:
256,192,15973,1,8,0:0:0:0:
256,192,16135,1,0,0:0:0:0:
256,192,16297,1,8,0:0:0:0:
256,192,16379,1,0,0:0:0:0:
256,192,16460,1,8,0:0:0:0:
256,192,16622,1,0,0:0:0:0:
256,192,16784,1,8,0:0:0:0:
256,192,16865,1,8,0:0:0:0:
256,192,16946,1,0,0:0:0:0:
256,192,17108,1,8,0:0:0:0:
256,192,17189,1,0,0:0:0:0:
256,192,17270,1,8,0:0:0:0:
256,192,17433,1,8,0:0:0:0:
256,192,17595,1,0,0:0:0:0:
256,192,17757,1,8,0:0:0:0:
256,192,17838,1,8,0:0:0:0:
256,192,17919,1,8,0:0:0:0:
256,192,18081,1,8,0:0:0:0:
256,192,18243,1,0,0:0:0:0:
256,192,18406,1,8,0:0:0:0:
256,192,18568,1,0,0:0:0:0:
256,192,18730,1,8,0:0:0:0:
256,192,18892,1,0,0:0:0:0:
256,192,19054,1,8,0:0:0:0:
256,192,19216,1,8,0:0:0:0:
256,192,19378,1,0,0:0:0:0:
256,192,19541,1,8,0:0:0:0:
256,192,19622,1,0,0:0:0:0:
256,192,19703,1,8,0:0:0:0:
256,192,19784,1,0,0:0:0:0:
256,192,19865,1,8,0:0:0:0:
256,192,20027,1,0,0:0:0:0:
256,192,20108,1,0,0:0:0:0:
256,192,20189,1,8,0:0:0:0:
256,192,20351,1,0,0:0:0:0:
256,192,20513,1,8,0:0:0:0:
256,192,20595,1,8,0:0:0:0:
256,192,20676,1,8,0:0:0:0:
256,192,20838,5,12,0:0:0:0:
256,192,21162,1,8,0:0:0:0:
256,192,21324,1,8,0:0:0:0:
256,192,21486,1,0,0:0:0:0:
256,192,21568,1,0,0:0:0:0:
256,192,21649,1,8,0:0:0:0:
256,192,21811,1,0,0:0:0:0:
256,192,21973,1,8,0:0:0:0:
256,192,22054,1,8,0:0:0:0:
256,192,22135,1,0,0:0:0:0:
256,192,22297,1,8,0:0:0:0:
256,192,22378,1,0,0:0:0:0:
256,192,22459,1,8,0:0:0:0:
256,192,22621,1,8,0:0:0:0:
256,192,22784,1,0,0:0:0:0:
256,192,22946,1,8,0:0:0:0:
256,192,23027,1,8,0:0:0:0:
256,192,23108,1,8,0:0:0:0:
256,192,23270,1,8,0:0:0:0:
256,192,23432,1,0,0:0:0:0:
256,192,23757,1,8,0:0:0:0:
256,192,23919,1,8,0:0:0:0:
256,192,24081,1,0,0:0:0:0:
256,192,24243,1,8,0:0:0:0:
256,192,24405,1,8,0:0:0:0:
256,192,24567,1,8,0:0:0:0:
256,192,24730,1,0,0:0:0:0:
256,192,24892,1,8,0:0:0:0:
256,192,24973,1,0,0:0:0:0:
256,192,25054,1,8,0:0:0:0:
256,192,25216,1,0,0:0:0:0:
256,192,25378,1,8,0:0:0:0:
256,192,25540,1,8,0:0:0:0:
256,192,25622,1,8,0:0:0:0:
256,192,25703,1,0,0:0:0:0:
256,192,25784,1,0,0:0:0:0:
256,192,25865,1,8,0:0:0:0:
256,192,26027,5,12,0:0:0:0:
256,192,26351,1,8,0:0:0:0:
256,192,26514,1,0,0:0:0:0:
256,192,26676,1,0,0:0:0:0:
256,192,26757,1,0,0:0:0:0:
256,192,26838,1,8,0:0:0:0:
256,192,27000,1,0,0:0:0:0:
256,192,27162,1,8,0:0:0:0:
256,192,27243,1,0,0:0:0:0:
256,192,27324,1,8,0:0:0:0:
256,192,27486,1,8,0:0:0:0:
256,192,27568,1,8,0:0:0:0:
256,192,27648,1,8,0:0:0:0:
256,192,27811,1,8,0:0:0:0:
256,192,27973,1,0,0:0:0:0:
256,192,28134,1,8,0:0:0:0:
256,192,28216,1,0,0:0:0:0:
256,192,28297,1,8,0:0:0:0:
256,192,28459,1,8,0:0:0:0:
256,192,28621,1,0,0:0:0:0:
256,192,28784,1,8,0:0:0:0:
256,192,28946,1,0,0:0:0:0:
256,192,29108,1,8,0:0:0:0:
256,192,29270,1,0,0:0:0:0:
256,192,29432,1,8,0:0:0:0:
256,192,29594,1,8,0:0:0:0:
256,192,29756,1,0,0:0:0:0:
256,192,29919,1,8,0:0:0:0:
256,192,30000,1,0,0:0:0:0:
256,192,30081,1,8,0:0:0:0:
256,192,30162,1,0,0:0:0:0:
256,192,30243,1,8,0:0:0:0:
256,192,30405,1,0,0:0:0:0:
256,192,30486,1,0,0:0:0:0:
256,192,30567,1,8,0:0:0:0:
256,192,30730,1,0,0:0:0:0:
256,192,30891,1,8,0:0:0:0:
256,192,30973,1,8,0:0:0:0:
256,192,31054,1,8,0:0:0:0:
256,192,31216,5,4,0:0:0:0:
256,192,31378,1,0,0:0:0:0:
256,192,31540,1,8,0:0:0:0:
256,192,31703,1,8,0:0:0:0:
256,192,32027,1,8,0:0:0:0:
256,192,32189,1,0,0:0:0:0:
256,192,32351,1,0,0:0:0:0:
256,192,32513,1,8,0:0:0:0:
256,192,32676,1,8,0:0:0:0:
256,192,32757,1,8,0:0:0:0:
256,192,32838,1,8,0:0:0:0:
256,192,33000,1,0,0:0:0:0:
256,192,33081,1,0,0:0:0:0:
256,192,33162,1,0,0:0:0:0:
256,192,33324,1,8,0:0:0:0:
256,192,33405,1,8,0:0:0:0:
256,192,33486,1,8,0:0:0:0:
256,192,33649,1,8,0:0:0:0:
256,192,33730,1,8,0:0:0:0:
256,192,33811,1,0,0:0:0:0:
256,192,33973,1,0,0:0:0:0:
256,192,34135,1,8,0:0:0:0:
256,192,34297,1,0,0:0:0:0:
256,192,34621,1,0,0:0:0:0:
256,192,34784,1,8,0:0:0:0:
256,192,34946,1,8,0:0:0:0:
256,192,35108,1,0,0:0:0:0:
256,192,35270,1,8,0:0:0:0:
256,192,35432,1,8,0:0:0:0:
256,192,35594,1,0,0:0:0:0:
256,192,35757,1,0,0:0:0:0:
256,192,35838,1,0,0:0:0:0:
256,192,35919,1,8,0:0:0:0:
256,192,36081,1,8,0:0:0:0:
256,192,36162,1,8,0:0:0:0:
256,192,36243,1,0,0:0:0:0:
256,192,36405,5,4,0:0:0:0:
256,192,36567,1,8,0:0:0:0:
256,192,36730,1,0,0:0:0:0:
256,192,36892,1,8,0:0:0:0:
256,192,37216,1,8,0:0:0:0:
256,192,37378,1,8,0:0:0:0:
256,192,37540,1,0,0:0:0:0:
256,192,37703,1,8,0:0:0:0:
256,192,37865,1,8,0:0:0:0:
256,192,37946,1,8,0:0:0:0:
256,192,38027,1,8,0:0:0:0:
256,192,38189,1,0,0:0:0:0:
256,192,38270,1,0,0:0:0:0:
256,192,38351,1,0,0:0:0:0:
256,192,38513,1,8,0:0:0:0:
256,192,38594,1,8,0:0:0:0:
256,192,38675,1,8,0:0:0:0:
256,192,38838,1,0,0:0:0:0:
256,192,38919,1,0,0:0:0:0:
256,192,39000,1,8,0:0:0:0:
256,192,39162,1,0,0:0:0:0:
256,192,39324,1,8,0:0:0:0:
256,192,39486,1,8,0:0:0:0:
256,192,39648,1,0,0:0:0:0:
256,192,39811,1,0,0:0:0:0:
256,192,39973,1,8,0:0:0:0:
256,192,40135,1,0,0:0:0:0:
256,192,40297,5,4,0:0:0:0:
256,192,40459,5,12,0:0:0:0:
256,192,40621,5,4,0:0:0:0:
256,192,40784,5,12,0:0:0:0:
256,192,41108,1,8,0:0:0:0:
256,192,41189,1,8,0:0:0:0:
256,192,41270,1,8,0:0:0:0:
256,192,41432,1,8,0:0:0:0:
256,192,41594,5,4,0:0:0:0:
256,192,41756,1,0,0:0:0:0:
256,192,41919,1,0,0:0:0:0:
256,192,42081,5,12,0:0:0:0:
256,192,42405,1,0,0:0:0:0:
256,192,42567,1,8,0:0:0:0:
256,192,42729,1,0,0:0:0:0:
256,192,42892,5,12,0:0:0:0:
256,192,43054,1,8,0:0:0:0:
256,192,43216,1,8,0:0:0:0:
256,192,43378,5,4,0:0:0:0:
256,192,43702,1,8,0:0:0:0:
256,192,43865,1,0,0:0:0:0:
256,192,44027,1,0,0:0:0:0:
256,192,44189,5,12,0:0:0:0:
256,192,44351,1,8,0:0:0:0:
256,192,44513,1,8,0:0:0:0:
256,192,44675,5,4,0:0:0:0:
256,192,45000,1,0,0:0:0:0:
256,192,45162,1,8,0:0:0:0:
256,192,45324,1,8,0:0:0:0:
256,192,45486,5,4,0:0:0:0:
256,192,45648,1,0,0:0:0:0:
256,192,45810,1,0,0:0:0:0:
256,192,45973,5,12,0:0:0:0:
256,192,46297,1,0,0:0:0:0:
256,192,46459,1,8,0:0:0:0:
256,192,46621,1,0,0:0:0:0:
256,192,46783,5,12,0:0:0:0:
256,192,46946,1,0,0:0:0:0:
256,192,47108,1,0,0:0:0:0:
256,192,47270,5,12,0:0:0:0:
256,192,47432,1,0,0:0:0:0:
256,192,47594,1,0,0:0:0:0:
256,192,47756,5,12,0:0:0:0:
256,192,47919,1,0,0:0:0:0:
256,192,48081,1,8,0:0:0:0:
256,192,48297,1,0,0:0:0:0:
256,192,48405,1,8,0:0:0:0:
256,192,48621,1,0,0:0:0:0:
256,192,48729,1,8,0:0:0:0:
256,192,48946,1,0,0:0:0:0:
256,192,49054,1,8,0:0:0:0:
256,192,49270,1,0,0:0:0:0:
256,192,49378,1,8,0:0:0:0:
256,192,49540,1,0,0:0:0:0:
256,192,49702,1,8,0:0:0:0:
256,192,49864,1,8,0:0:0:0:
256,192,50189,1,0,0:0:0:0:
256,192,50351,1,8,0:0:0:0:
256,192,50513,1,0,0:0:0:0:
256,192,50675,1,8,0:0:0:0:
256,192,50756,1,8,0:0:0:0:
256,192,50837,1,0,0:0:0:0:
256,192,51000,1,8,0:0:0:0:
256,192,51081,1,8,0:0:0:0:
256,192,51162,1,0,0:0:0:0:
256,192,51243,1,0,0:0:0:0:
256,192,51324,1,8,0:0:0:0:
256,192,51486,1,0,0:0:0:0:
256,192,51567,1,0,0:0:0:0:
256,192,51648,1,8,0:0:0:0:
256,192,51729,1,0,0:0:0:0:
256,192,51810,1,8,0:0:0:0:
256,192,51973,1,0,0:0:0:0:
256,192,52297,1,0,0:0:0:0:
256,192,52459,1,8,0:0:0:0:
256,192,52621,1,0,0:0:0:0:
256,192,52702,1,0,0:0:0:0:
256,192,52783,1,8,0:0:0:0:
256,192,52946,1,0,0:0:0:0:
256,192,53027,1,0,0:0:0:0:
256,192,53108,1,8,0:0:0:0:
256,192,53270,1,0,0:0:0:0:
256,192,53432,1,8,0:0:0:0:
256,192,53513,1,0,0:0:0:0:
256,192,53594,1,0,0:0:0:0:
256,192,53756,1,8,0:0:0:0:
256,192,53918,1,0,0:0:0:0:
256,192,54081,1,8,0:0:0:0:
256,192,54162,1,0,0:0:0:0:
256,192,54243,1,0,0:0:0:0:
256,192,54405,1,8,0:0:0:0:
256,192,54567,1,0,0:0:0:0:
256,192,54729,1,8,0:0:0:0:
256,192,54891,1,0,0:0:0:0:
256,192,55054,1,8,0:0:0:0:
256,192,55216,1,0,0:0:0:0:
256,192,55378,1,8,0:0:0:0:
256,192,55540,1,0,0:0:0:0:
256,192,55702,1,8,0:0:0:0:
256,192,55864,1,0,0:0:0:0:
256,192,56027,1,8,0:0:0:0:
256,192,56108,1,0,0:0:0:0:
256,192,56189,1,0,0:0:0:0:
256,192,56351,1,8,0:0:0:0:
256,192,56513,1,0,0:0:0:0:
256,192,56675,1,0,0:0:0:0:
256,192,56756,1,0,0:0:0:0:
256,192,56837,1,8,0:0:0:0:
256,192,56918,1,0,0:0:0:0:
256,192,56999,1,8,0:0:0:0:
256,192,57162,5,12,0:0:0:0:
256,192,57486,1,0,0:0:0:0:
256,192,57648,1,8,0:0:0:0:
256,192,57810,1,0,0:0:0:0:
256,192,57891,1,0,0:0:0:0:
256,192,57972,1,8,0:0:0:0:
256,192,58135,1,0,0:0:0:0:
256,192,58297,1,8,0:0:0:0:
256,192,58378,1,0,0:0:0:0:
256,192,58459,1,0,0:0:0:0:
256,192,58621,1,8,0:0:0:0:
256,192,58702,1,0,0:0:0:0:
256,192,58783,1,0,0:0:0:0:
256,192,58945,1,8,0:0:0:0:
256,192,59108,1,0,0:0:0:0:
256,192,59270,1,8,0:0:0:0:
256,192,59351,1,0,0:0:0:0:
256,192,59432,1,0,0:0:0:0:
256,192,59594,1,8,0:0:0:0:
256,192,59756,1,0,0:0:0:0:
256,192,59918,1,8,0:0:0:0:
256,192,60081,1,0,0:0:0:0:
256,192,60243,1,8,0:0:0:0:
256,192,60405,1,0,0:0:0:0:
256,192,60567,1,8,0:0:0:0:
256,192,60729,1,0,0:0:0:0:
256,192,60891,1,8,0:0:0:0:
256,192,61053,1,0,0:0:0:0:
256,192,61135,1,0,0:0:0:0:
256,192,61216,1,8,0:0:0:0:
256,192,61297,1,8,0:0:0:0:
256,192,61378,1,0,0:0:0:0:
256,192,61540,1,0,0:0:0:0:
256,192,61621,1,0,0:0:0:0:
256,192,61702,1,8,0:0:0:0:
256,192,61864,1,0,0:0:0:0:
256,192,62026,1,8,0:0:0:0:
256,192,62108,1,8,0:0:0:0:
256,192,62189,1,8,0:0:0:0:
256,192,62351,5,12,0:0:0:0:
256,192,62675,1,8,0:0:0:0:
256,192,62837,1,0,0:0:0:0:
256,192,62999,1,8,0:0:0:0:
256,192,63080,1,8,0:0:0:0:
256,192,63162,1,0,0:0:0:0:
256,192,63324,1,8,0:0:0:0:
256,192,63405,1,8,0:0:0:0:
256,192,63486,1,0,0:0:0:0:
256,192,63648,1,8,0:0:0:0:
256,192,63810,1,0,0:0:0:0:
256,192,63891,1,8,0:0:0:0:
256,192,63972,1,8,0:0:0:0:
256,192,64135,1,0,0:0:0:0:
256,192,64297,1,8,0:0:0:0:
256,192,64459,1,0,0:0:0:0:
256,192,64540,1,8,0:0:0:0:
256,192,64621,1,8,0:0:0:0:
256,192,64783,1,0,0:0:0:0:
256,192,64945,1,8,0:0:0:0:
256,192,65107,1,0,0:0:0:0:
256,192,65270,1,8,0:0:0:0:
256,192,65432,1,0,0:0:0:0:
256,192,65594,1,8,0:0:0:0:
256,192,65756,1,0,0:0:0:0:
256,192,65918,1,8,0:0:0:0:
256,192,66080,1,0,0:0:0:0:
256,192,66243,1,8,0:0:0:0:
256,192,66405,1,0,0:0:0:0:
256,192,66486,1,8,0:0:0:0:
256,192,66567,1,8,0:0:0:0:
256,192,66729,1,0,0:0:0:0:
256,192,66891,1,8,0:0:0:0:
256,192,67053,1,8,0:0:0:0:
256,192,67134,1,8,0:0:0:0:
256,192,67216,1,0,0:0:0:0:
256,192,67297,1,0,0:0:0:0:
256,192,67378,1,8,0:0:0:0:
256,192,67540,5,12,0:0:0:0:
256,192,67864,1,8,0:0:0:0:
256,192,68026,1,0,0:0:0:0:
256,192,68189,1,8,0:0:0:0:
256,192,68270,1,8,0:0:0:0:
256,192,68351,1,0,0:0:0:0:
256,192,68513,1,8,0:0:0:0:
256,192,68675,1,0,0:0:0:0:
256,192,68756,1,8,0:0:0:0:
256,192,68837,1,8,0:0:0:0:
256,192,68999,1,0,0:0:0:0:
256,192,69080,1,8,0:0:0:0:
256,192,69161,1,8,0:0:0:0:
256,192,69324,1,0,0:0:0:0:
256,192,69486,1,8,0:0:0:0:
256,192,69648,1,0,0:0:0:0:
256,192,69729,1,8,0:0:0:0:
256,192,69810,1,8,0:0:0:0:
256,192,69972,1,0,0:0:0:0:
256,192,70134,1,8,0:0:0:0:
256,192,70297,1,0,0:0:0:0:
256,192,70459,1,8,0:0:0:0:
256,192,70621,1,0,0:0:0:0:
256,192,70783,1,8,0:0:0:0:
256,192,70945,1,0,0:0:0:0:
256,192,71107,1,8,0:0:0:0:
256,192,71270,1,0,0:0:0:0:
256,192,71432,1,8,0:0:0:0:
256,192,71513,1,8,0:0:0:0:
256,192,71594,1,0,0:0:0:0:
256,192,71675,1,0,0:0:0:0:
256,192,71756,1,8,0:0:0:0:
256,192,71918,1,8,0:0:0:0:
256,192,71999,1,0,0:0:0:0:
256,192,72080,1,8,0:0:0:0:
256,192,72242,1,0,0:0:0:0:
256,192,72405,1,8,0:0:0:0:
256,192,72486,1,8,0:0:0:0:
256,192,72567,1,8,0:0:0:0:
256,192,72729,5,12,0:0:0:0:
256,192,72891,1,0,0:0:0:0:
256,192,73053,1,0,0:0:0:0:
256,192,73216,1,8,0:0:0:0:
256,192,73540,1,8,0:0:0:0:
256,192,73702,1,0,0:0:0:0:
256,192,73864,1,0,0:0:0:0:
256,192,74026,1,8,0:0:0:0:
256,192,74189,1,8,0:0:0:0:
256,192,74270,1,8,0:0:0:0:
256,192,74351,1,8,0:0:0:0:
256,192,74513,1,0,0:0:0:0:
256,192,74594,1,0,0:0:0:0:
256,192,74675,1,0,0:0:0:0:
256,192,74837,1,8,0:0:0:0:
256,192,74918,1,8,0:0:0:0:
256,192,74999,1,8,0:0:0:0:
256,192,75162,1,0,0:0:0:0:
256,192,75242,1,0,0:0:0:0:
256,192,75324,1,8,0:0:0:0:
256,192,75486,1,0,0:0:0:0:
256,192,75648,1,8,0:0:0:0:
256,192,75810,1,0,0:0:0:0:
256,192,76134,1,0,0:0:0:0:
256,192,76297,1,8,0:0:0:0:
256,192,76459,1,0,0:0:0:0:
256,192,76621,1,0,0:0:0:0:
256,192,76783,1,8,0:0:0:0:
256,192,76945,1,8,0:0:0:0:
256,192,77107,1,0,0:0:0:0:
256,192,77269,1,0,0:0:0:0:
256,192,77351,1,0,0:0:0:0:
256,192,77432,1,8,0:0:0:0:
256,192,77594,1,8,0:0:0:0:
256,192,77675,1,8,0:0:0:0:
256,192,77756,1,0,0:0:0:0:
256,192,77918,5,4,0:0:0:0:
256,192,78080,1,8,0:0:0:0:
256,192,78243,1,0,0:0:0:0:
256,192,78405,1,8,0:0:0:0:
256,192,78729,1,8,0:0:0:0:
256,192,78891,1,8,0:0:0:0:
256,192,79053,1,0,0:0:0:0:
256,192,79216,1,8,0:0:0:0:
256,192,79378,1,8,0:0:0:0:
256,192,79459,1,8,0:0:0:0:
256,192,79540,1,8,0:0:0:0:
256,192,79702,1,0,0:0:0:0:
256,192,79783,1,0,0:0:0:0:
256,192,79864,1,0,0:0:0:0:
256,192,80026,1,8,0:0:0:0:
256,192,80107,1,8,0:0:0:0:
256,192,80188,1,8,0:0:0:0:
256,192,80350,1,8,0:0:0:0:
256,192,80432,1,0,0:0:0:0:
256,192,80513,1,8,0:0:0:0:
256,192,80675,1,0,0:0:0:0:
256,192,80837,1,8,0:0:0:0:
256,192,80999,1,8,0:0:0:0:
256,192,81161,1,0,0:0:0:0:
256,192,81324,1,0,0:0:0:0:
256,192,81486,1,8,0:0:0:0:
256,192,81648,1,0,0:0:0:0:
256,192,81810,5,4,0:0:0:0:
256,192,81972,5,12,0:0:0:0:
256,192,82134,5,4,0:0:0:0:
256,192,82297,5,12,0:0:0:0:
256,192,82621,1,8,0:0:0:0:
256,192,82702,1,8,0:0:0:0:
256,192,82783,1,8,0:0:0:0:
256,192,82945,1,8,0:0:0:0:
256,192,83107,5,4,0:0:0:0:
256,192,83269,1,0,0:0:0:0:
256,192,83432,1,0,0:0:0:0:
256,192,83594,5,12,0:0:0:0:
256,192,83918,1,8,0:0:0:0:
256,192,84080,1,0,0:0:0:0:
256,192,84242,1,0,0:0:0:0:
256,192,84405,5,12,0:0:0:0:
256,192,84567,1,8,0:0:0:0:
256,192,84729,1,8,0:0:0:0:
256,192,84891,5,4,0:0:0:0:
256,192,85215,1,0,0:0:0:0:
256,192,85378,1,8,0:0:0:0:
256,192,85540,1,0,0:0:0:0:
256,192,85702,5,12,0:0:0:0:
256,192,85864,1,8,0:0:0:0:
256,192,86026,1,8,0:0:0:0:
256,192,86188,5,4,0:0:0:0:
256,192,86513,1,0,0:0:0:0:
256,192,86675,1,8,0:0:0:0:
256,192,86837,1,8,0:0:0:0:
256,192,86999,5,4,0:0:0:0:
256,192,87161,1,0,0:0:0:0:
256,192,87323,1,0,0:0:0:0:
256,192,87486,5,12,0:0:0:0:
256,192,87810,1,0,0:0:0:0:
256,192,87972,1,8,0:0:0:0:
256,192,88134,1,0,0:0:0:0:
256,192,88296,5,12,0:0:0:0:
256,192,88458,1,0,0:0:0:0:
256,192,88621,1,0,0:0:0:0:
256,192,88783,5,12,0:0:0:0:
256,192,88945,1,0,0:0:0:0:
256,192,89107,1,0,0:0:0:0:
256,192,89269,5,12,0:0:0:0:
256,192,89431,1,0,0:0:0:0:
256,192,89594,1,8,0:0:0:0:
256,192,89810,1,0,0:0:0:0:
256,192,89918,1,8,0:0:0:0:
256,192,90134,1,0,0:0:0:0:
256,192,90242,1,8,0:0:0:0:
256,192,90459,1,0,0:0:0:0:
256,192,90567,1,8,0:0:0:0:
256,192,90783,1,0,0:0:0:0:
256,192,90891,1,8,0:0:0:0:
256,192,91053,1,0,0:0:0:0:
256,192,91215,1,8,0:0:0:0:
256,192,91377,1,8,0:0:0:0:
256,192,91702,1,0,0:0:0:0:
256,192,91864,1,8,0:0:0:0:
256,192,92026,1,0,0:0:0:0:
256,192,92188,1,8,0:0:0:0:
256,192,92269,1,0,0:0:0:0:
256,192,92350,1,8,0:0:0:0:
256,192,92513,1,8,0:0:0:0:
256,192,92594,1,8,0:0:0:0:
256,192,92675,1,0,0:0:0:0:
256,192,92756,1,0,0:0:0:0:
256,192,92837,1,8,0:0:0:0:
256,192,92999,1,0,0:0:0:0:
256,192,93080,1,0,0:0:0:0:
256,192,93161,1,8,0:0:0:0:
256,192,93242,1,0,0:0:0:0:
256,192,93323,1,8,0:0:0:0:
256,192,93485,5,12,0:0:0:0:
256,192,93809,1,8,0:0:0:0:
256,192,93971,1,0,0:0:0:0:
256,192,94133,1,0,0:0:0:0:
256,192,94215,1,0,0:0:0:0:
256,192,94296,1,8,0:0:0:0:
256,192,94458,1,0,0:0:0:0:
256,192,94620,1,0,0:0:0:0:
256,192,94782,1,8,0:0:0:0:
256,192,95106,1,8,0:0:0:0:
256,192,95268,1,8,0:0:0:0:
256,192,95431,1,0,0:0:0:0:
256,192,95593,1,8,0:0:0:0:
256,192,95674,1,8,0:0:0:0:
256,192,95755,1,8,0:0:0:0:
256,192,95917,1,8,0:0:0:0:
256,192,96079,1,0,0:0:0:0:
256,192,96404,1,8,0:0:0:0:
256,192,96566,1,8,0:0:0:0:
256,192,96728,1,0,0:0:0:0:
256,192,96890,1,8,0:0:0:0:
256,192,97052,1,8,0:0:0:0:
256,192,97214,1,8,0:0:0:0:
256,192,97377,1,0,0:0:0:0:
256,192,97701,1,8,0:0:0:0:
256,192,97863,1,0,0:0:0:0:
256,192,98025,1,8,0:0:0:0:
256,192,98187,1,0,0:0:0:0:
256,192,98349,1,0,0:0:0:0:
256,192,98431,1,0,0:0:0:0:
256,192,98512,1,0,0:0:0:0:
256,192,98674,1,8,0:0:0:0:
256,192,98998,1,8,0:0:0:0:
256,192,99161,1,8,0:0:0:0:
256,192,99322,1,0,0:0:0:0:
256,192,99404,1,0,0:0:0:0:
256,192,99485,1,8,0:0:0:0:
256,192,99647,1,0,0:0:0:0:
256,192,99809,1,8,0:0:0:0:
256,192,99971,1,8,0:0:0:0:
256,192,100295,1,8,0:0:0:0:
256,192,100458,1,0,0:0:0:0:
256,192,100620,1,0,0:0:0:0:
256,192,100783,1,8,0:0:0:0:
256,192,100864,1,8,0:0:0:0:
256,192,100945,1,8,0:0:0:0:
256,192,101106,1,8,0:0:0:0:
256,192,101268,5,0,0:0:0:0:
256,192,101445,1,8,0:0:0:0:
256,192,101621,1,0,0:0:0:0:
256,192,101798,1,8,0:0:0:0:
256,192,101974,1,0,0:0:0:0:
256,192,102155,1,8,0:0:0:0:
256,192,102337,1,8,0:0:0:0:
256,192,102525,1,0,0:0:0:0:
256,192,102725,1,0,0:0:0:0:
256,192,102940,1,8,0:0:0:0:
256,192,103174,1,0,0:0:0:0:
256,192,103446,1,8,0:0:0:0:
256,192,103798,1,0,0:0:0:0:
256,192,103985,12,0,104548,0:0:0:0:
