osu file format v14

[General]
AudioFilename: audio.mp3
AudioLeadIn: 0
PreviewTime: 31212
Countdown: 0
SampleSet: Normal
StackLeniency: 0.7
Mode: 1
LetterboxInBreaks: 0
WidescreenStoryboard: 1

[Editor]
Bookmarks: 10460,31216,51973,72729,93485
DistanceSpacing: 0.9
BeatDivisor: 4
GridSize: 32
TimelineZoom: 2.180001

[Metadata]
Title:UP UP MT. CAKE
TitleUnicode:UP UP MT. CAKE
Artist:OISHII
ArtistUnicode:OISHII
Creator:hikikochan
Version:Muzukashii
Source:osu!
Tags:creamcore chiptune electronic featured artist nsm beatmapping contest
BeatmapID:1443524
BeatmapSetID:682598

[Difficulty]
HPDrainRate:5
CircleSize:2
OverallDifficulty:5
ApproachRate:5
SliderMultiplier:1.4
SliderTickRate:1

[Events]
//Background and Video events
0,0,"bg.png",0,0
//Break Periods
//Storyboard Layer 0 (Background)
//Storyboard Layer 1 (Fail)
//Storyboard Layer 2 (Pass)
//Storyboard Layer 3 (Foreground)
//Storyboard Sound Samples

[TimingPoints]
82,324.319065096242,4,1,0,80,1,0
41594,-100,4,1,0,100,0,1
51973,-100,4,1,0,90,0,0
83107,-100,4,1,0,100,0,1
93485,-100,4,1,0,80,0,0
101269,352.941176470588,4,1,0,80,1,0
101269,-91.743119266055,4,1,0,80,0,0
101974,363.636363636364,4,1,0,80,1,8
101974,-89.2857142857143,4,1,0,80,0,0
102337,377.358490566038,4,1,0,80,1,8
102337,-86.2068965517241,4,1,0,80,0,0
102525,400,4,1,0,80,1,8
102525,-81.3008130081301,4,1,0,80,0,0
102725,431.654676258993,4,1,0,80,1,0
102725,-75.187969924812,4,1,0,80,0,0
102940,468.75,4,1,0,80,1,8
102940,-69.4444444444444,4,1,0,80,0,0
103174,545.454545454546,4,1,0,80,1,8
103174,-59.5238095238095,4,1,0,80,0,0
103446,705.882352941176,4,1,0,80,1,8
103446,-45.8715596330275,4,1,0,80,0,0
103798,750,4,1,0,80,1,8
103798,-43.2900432900433,4,1,0,80,0,0

[HitObjects]
256,192,82,5,0,0:0:0:0:
256,192,406,1,8,0:0:0:0:
256,192,730,1,0,0:0:0:0:
256,192,892,1,0,0:0:0:0:
256,192,1054,1,0,0:0:0:0:
256,192,1379,1,8,0:0:0:0:
256,192,1703,1,8,0:0:0:0:
256,192,2027,1,0,0:0:0:0:
256,192,2190,1,0,0:0:0:0:
256,192,2352,1,8,0:0:0:0:
256,192,2676,1,8,0:0:0:0:
256,192,3000,1,8,0:0:0:0:
256,192,3325,1,0,0:0:0:0:
256,192,3649,1,8,0:0:0:0:
256,192,3973,1,0,0:0:0:0:
256,192,4298,1,0,0:0:0:0:
256,192,4622,1,8,0:0:0:0:
256,192,4784,1,8,0:0:0:0:
256,192,4946,1,0,0:0:0:0:
256,192,5271,1,8,0:0:0:0:
256,192,5595,1,8,0:0:0:0:
256,192,5919,1,0,0:0:0:0:
256,192,6081,1,0,0:0:0:0:
256,192,6244,1,8,0:0:0:0:
256,192,6568,1,0,0:0:0:0:
256,192,6892,1,8,0:0:0:0:
256,192,7217,1,0,0:0:0:0:
256,192,7541,1,0,0:0:0:0:
256,192,7865,1,8,0:0:0:0:
256,192,8027,1,0,0:0:0:0:
256,192,8189,1,8,0:0:0:0:
256,192,8514,1,0,0:0:0:0:
256,192,8676,1,8,0:0:0:0:
256,192,8838,1,0,0:0:0:0:
256,192,9162,1,8,0:0:0:0:
256,192,9325,1,0,0:0:0:0:
256,192,9487,1,8,0:0:0:0:
256,192,9649,1,8,0:0:0:0:
256,192,9811,1,0,0:0:0:0:
256,192,10460,1,4,0:0:0:0:
256,192,10784,1,8,0:0:0:0:
256,192,10946,1,0,0:0:0:0:
256,192,11108,1,8,0:0:0:0:
256,192,11433,1,0,0:0:0:0:
256,192,11595,1,0,0:0:0:0:
256,192,11757,1,8,0:0:0:0:
256,192,11919,1,8,0:0:0:0:
256,192,12000,1,8,0:0:0:0:
256,192,12081,1,8,0:0:0:0:
256,192,12406,1,0,0:0:0:0:
256,192,12568,1,8,0:0:0:0:
256,192,12649,1,8,0:0:0:0:
256,192,12730,1,8,0:0:0:0:
256,192,13054,1,0,0:0:0:0:
256,192,13379,1,8,0:0:0:0:
256,192,13541,1,8,0:0:0:0:
256,192,13703,1,0,0:0:0:0:
256,192,13865,1,0,0:0:0:0:
256,192,14027,1,8,0:0:0:0:
256,192,14352,1,0,0:0:0:0:
256,192,14433,1,0,0:0:0:0:
256,192,14514,1,0,0:0:0:0:
256,192,14676,1,8,0:0:0:0:
256,192,14838,1,0,0:0:0:0:
256,192,15000,1,8,0:0:0:0:
256,192,15162,1,8,0:0:0:0:
256,192,15324,1,8,0:0:0:0:
256,192,15649,1,0,0:0:0:0:
256,192,15973,1,8,0:0:0:0:
256,192,16135,1,8,0:0:0:0:
256,192,16297,1,0,0:0:0:0:
256,192,16622,1,8,0:0:0:0:
256,192,16784,1,0,0:0:0:0:
256,192,16946,1,8,0:0:0:0:
256,192,17108,1,8,0:0:0:0:
256,192,17189,1,8,0:0:0:0:
256,192,17270,1,8,0:0:0:0:
256,192,17595,1,0,0:0:0:0:
256,192,17757,1,8,0:0:0:0:
256,192,17838,1,8,0:0:0:0:
256,192,17919,1,8,0:0:0:0:
256,192,18243,1,0,0:0:0:0:
256,192,18568,1,0,0:0:0:0:
256,192,18892,1,8,0:0:0:0:
256,192,19216,1,8,0:0:0:0:
256,192,19541,1,0,0:0:0:0:
256,192,19703,1,8,0:0:0:0:
256,192,19865,1,0,0:0:0:0:
256,192,20027,1,0,0:0:0:0:
256,192,20189,1,8,0:0:0:0:
256,192,20351,1,8,0:0:0:0:
256,192,20433,1,8,0:0:0:0:
256,192,20514,1,8,0:0:0:0:
256,192,20838,1,4,0:0:0:0:
256,192,21162,1,8,0:0:0:0:
256,192,21324,1,0,0:0:0:0:
256,192,21487,1,8,0:0:0:0:
256,192,21649,1,8,0:0:0:0:
256,192,21811,1,0,0:0:0:0:
256,192,21973,1,0,0:0:0:0:
256,192,22135,1,8,0:0:0:0:
256,192,22297,1,8,0:0:0:0:
256,192,22378,1,8,0:0:0:0:
256,192,22460,1,8,0:0:0:0:
256,192,22784,1,0,0:0:0:0:
256,192,22946,1,8,0:0:0:0:
256,192,23027,1,8,0:0:0:0:
256,192,23108,1,8,0:0:0:0:
256,192,23432,1,0,0:0:0:0:
256,192,23595,1,0,0:0:0:0:
256,192,23757,1,8,0:0:0:0:
256,192,23919,1,0,0:0:0:0:
256,192,24081,1,8,0:0:0:0:
256,192,24243,1,8,0:0:0:0:
256,192,24405,1,0,0:0:0:0:
256,192,24730,1,0,0:0:0:0:
256,192,24811,1,0,0:0:0:0:
256,192,24892,1,0,0:0:0:0:
256,192,25054,1,8,0:0:0:0:
256,192,25216,1,0,0:0:0:0:
256,192,25378,1,8,0:0:0:0:
256,192,25541,1,0,0:0:0:0:
256,192,25703,1,8,0:0:0:0:
256,192,26027,1,0,0:0:0:0:
256,192,26351,1,8,0:0:0:0:
256,192,26514,1,8,0:0:0:0:
256,192,26676,1,0,0:0:0:0:
256,192,26838,1,0,0:0:0:0:
256,192,27000,1,8,0:0:0:0:
256,192,27162,1,0,0:0:0:0:
256,192,27324,1,8,0:0:0:0:
256,192,27486,1,8,0:0:0:0:
256,192,27568,1,8,0:0:0:0:
256,192,27649,1,8,0:0:0:0:
256,192,27973,1,0,0:0:0:0:
256,192,28135,1,8,0:0:0:0:
256,192,28216,1,8,0:0:0:0:
256,192,28297,1,8,0:0:0:0:
256,192,28622,1,0,0:0:0:0:
256,192,28784,1,0,0:0:0:0:
256,192,28946,1,8,0:0:0:0:
256,192,29270,1,0,0:0:0:0:
256,192,29432,1,8,0:0:0:0:
256,192,29595,1,0,0:0:0:0:
256,192,29919,1,8,0:0:0:0:
256,192,30000,1,8,0:0:0:0:
256,192,30081,1,8,0:0:0:0:
256,192,30243,1,0,0:0:0:0:
256,192,30405,1,0,0:0:0:0:
256,192,30567,1,8,0:0:0:0:
256,192,31216,1,4,0:0:0:0:
256,192,31540,1,8,0:0:0:0:
256,192,31703,1,0,0:0:0:0:
256,192,32027,1,0,0:0:0:0:
256,192,32189,1,8,0:0:0:0:
256,192,32351,1,8,0:0:0:0:
256,192,32513,1,0,0:0:0:0:
256,192,32676,1,8,0:0:0:0:
256,192,32757,1,8,0:0:0:0:
256,192,32838,1,8,0:0:0:0:
256,192,33000,1,8,0:0:0:0:
256,192,33324,1,0,0:0:0:0:
256,192,33486,1,8,0:0:0:0:
256,192,33811,1,0,0:0:0:0:
256,192,34135,1,8,0:0:0:0:
256,192,34297,1,10,0:0:0:0:
256,192,34621,1,0,0:0:0:0:
256,192,34784,1,8,0:0:0:0:
256,192,35108,1,0,0:0:0:0:
256,192,35270,1,0,0:0:0:0:
256,192,35432,1,8,0:0:0:0:
256,192,35594,1,8,0:0:0:0:
256,192,35757,1,0,0:0:0:0:
256,192,35838,1,0,0:0:0:0:
256,192,35919,1,0,0:0:0:0:
256,192,36081,1,8,0:0:0:0:
256,192,36405,1,0,0:0:0:0:
256,192,36730,1,8,0:0:0:0:
256,192,36892,1,0,0:0:0:0:
256,192,37216,1,8,0:0:0:0:
256,192,37378,1,8,0:0:0:0:
256,192,37540,1,0,0:0:0:0:
256,192,37703,1,8,0:0:0:0:
256,192,37865,1,8,0:0:0:0:
256,192,37946,1,8,0:0:0:0:
256,192,38027,1,8,0:0:0:0:
256,192,38189,1,0,0:0:0:0:
256,192,38270,1,0,0:0:0:0:
256,192,38351,1,0,0:0:0:0:
256,192,38513,1,0,0:0:0:0:
256,192,38675,1,8,0:0:0:0:
256,192,39000,1,0,0:0:0:0:
256,192,39324,1,8,0:0:0:0:
256,192,39486,1,0,0:0:0:0:
256,192,39648,1,0,0:0:0:0:
256,192,39973,1,8,0:0:0:0:
256,192,40135,1,0,0:0:0:0:
256,192,40297,1,12,0:0:0:0:
256,192,40459,1,0,0:0:0:0:
256,192,40621,1,0,0:0:0:0:
256,192,40784,1,12,0:0:0:0:
256,192,41108,1,8,0:0:0:0:
256,192,41189,1,8,0:0:0:0:
256,192,41270,1,8,0:0:0:0:
256,192,41432,1,8,0:0:0:0:
256,192,41594,1,4,0:0:0:0:
256,192,41919,1,8,0:0:0:0:
256,192,42081,1,8,0:0:0:0:
256,192,42405,1,0,0:0:0:0:
256,192,42567,1,8,0:0:0:0:
256,192,42729,1,0,0:0:0:0:
256,192,42892,1,8,0:0:0:0:
256,192,43054,1,0,0:0:0:0:
256,192,43135,1,0,0:0:0:0:
256,192,43216,1,0,0:0:0:0:
256,192,43378,1,8,0:0:0:0:
256,192,43702,1,0,0:0:0:0:
256,192,43865,1,8,0:0:0:0:
256,192,44189,1,0,0:0:0:0:
256,192,44513,1,8,0:0:0:0:
256,192,44675,1,0,0:0:0:0:
256,192,45000,1,0,0:0:0:0:
256,192,45162,1,8,0:0:0:0:
256,192,45324,1,0,0:0:0:0:
256,192,45486,1,8,0:0:0:0:
256,192,45648,1,0,0:0:0:0:
256,192,45810,1,0,0:0:0:0:
256,192,45973,1,8,0:0:0:0:
256,192,46297,1,0,0:0:0:0:
256,192,46459,1,8,0:0:0:0:
256,192,46621,1,0,0:0:0:0:
256,192,46783,1,4,0:0:0:0:
256,192,47108,1,0,0:0:0:0:
256,192,47270,1,12,0:0:0:0:
256,192,47594,1,8,0:0:0:0:
256,192,47756,1,4,0:0:0:0:
256,192,48081,1,0,0:0:0:0:
256,192,48243,1,12,0:0:0:0:
256,192,48567,1,8,0:0:0:0:
256,192,48729,1,4,0:0:0:0:
256,192,49054,1,4,0:0:0:0:
256,192,49378,1,12,0:0:0:0:
256,192,49702,1,8,0:0:0:0:
256,192,49864,1,8,0:0:0:0:
256,192,50027,1,8,0:0:0:0:
256,192,50351,1,8,0:0:0:0:
256,192,50513,1,8,0:0:0:0:
256,192,50675,1,8,0:0:0:0:
256,192,50756,1,8,0:0:0:0:
256,192,50837,1,8,0:0:0:0:
256,192,51000,1,8,0:0:0:0:
256,192,51162,1,8,0:0:0:0:
256,192,51324,1,0,0:0:0:0:
256,192,51486,1,0,0:0:0:0:
256,192,51648,1,8,0:0:0:0:
256,192,51973,1,4,0:0:0:0:
256,192,52297,1,8,0:0:0:0:
256,192,52459,1,0,0:0:0:0:
256,192,52621,1,8,0:0:0:0:
256,192,52783,1,8,0:0:0:0:
256,192,52946,1,0,0:0:0:0:
256,192,53108,1,8,0:0:0:0:
256,192,53270,1,0,0:0:0:0:
256,192,53432,1,8,0:0:0:0:
256,192,53513,1,8,0:0:0:0:
256,192,53594,1,8,0:0:0:0:
256,192,53918,1,8,0:0:0:0:
256,192,54081,1,0,0:0:0:0:
256,192,54243,1,8,0:0:0:0:
256,192,54567,1,0,0:0:0:0:
256,192,54891,1,8,0:0:0:0:
256,192,55054,1,8,0:0:0:0:
256,192,55216,1,0,0:0:0:0:
256,192,55378,1,0,0:0:0:0:
256,192,55540,1,8,0:0:0:0:
256,192,55864,1,0,0:0:0:0:
256,192,55945,1,0,0:0:0:0:
256,192,56027,1,0,0:0:0:0:
256,192,56189,1,8,0:0:0:0:
256,192,56351,1,0,0:0:0:0:
256,192,56513,1,8,0:0:0:0:
256,192,56675,1,8,0:0:0:0:
256,192,56837,1,8,0:0:0:0:
256,192,57162,1,0,0:0:0:0:
256,192,57486,1,8,0:0:0:0:
256,192,57648,1,8,0:0:0:0:
256,192,57810,1,0,0:0:0:0:
256,192,57972,1,0,0:0:0:0:
256,192,58135,1,8,0:0:0:0:
256,192,58297,1,0,0:0:0:0:
256,192,58459,1,8,0:0:0:0:
256,192,58621,1,8,0:0:0:0:
256,192,58702,1,8,0:0:0:0:
256,192,58783,1,8,0:0:0:0:
256,192,59108,1,0,0:0:0:0:
256,192,59270,1,0,0:0:0:0:
256,192,59432,1,8,0:0:0:0:
256,192,59756,1,0,0:0:0:0:
256,192,59918,1,8,0:0:0:0:
256,192,60081,1,0,0:0:0:0:
256,192,60405,1,8,0:0:0:0:
256,192,60567,1,0,0:0:0:0:
256,192,60729,1,8,0:0:0:0:
256,192,61053,1,8,0:0:0:0:
256,192,61135,1,8,0:0:0:0:
256,192,61216,1,8,0:0:0:0:
256,192,61378,1,0,0:0:0:0:
256,192,61540,1,0,0:0:0:0:
256,192,61702,1,8,0:0:0:0:
256,192,61864,1,0,0:0:0:0:
256,192,62026,1,8,0:0:0:0:
256,192,62351,1,4,0:0:0:0:
256,192,62675,1,8,0:0:0:0:
256,192,62837,1,8,0:0:0:0:
256,192,62999,1,0,0:0:0:0:
256,192,63080,1,0,0:0:0:0:
256,192,63162,1,0,0:0:0:0:
256,192,63324,1,8,0:0:0:0:
256,192,63486,1,8,0:0:0:0:
256,192,63648,1,0,0:0:0:0:
256,192,63810,1,8,0:0:0:0:
256,192,63891,1,8,0:0:0:0:
256,192,63972,1,8,0:0:0:0:
256,192,64297,1,0,0:0:0:0:
256,192,64459,1,0,0:0:0:0:
256,192,64621,1,8,0:0:0:0:
256,192,64945,1,0,0:0:0:0:
256,192,65270,1,8,0:0:0:0:
256,192,65432,1,0,0:0:0:0:
256,192,65594,1,8,0:0:0:0:
256,192,65756,1,8,0:0:0:0:
256,192,65918,1,0,0:0:0:0:
256,192,66080,1,8,0:0:0:0:
256,192,66243,1,0,0:0:0:0:
256,192,66324,1,0,0:0:0:0:
256,192,66405,1,0,0:0:0:0:
256,192,66567,1,8,0:0:0:0:
256,192,66891,1,8,0:0:0:0:
256,192,67053,1,8,0:0:0:0:
256,192,67216,1,8,0:0:0:0:
256,192,67540,1,0,0:0:0:0:
256,192,67864,1,8,0:0:0:0:
256,192,68026,1,0,0:0:0:0:
256,192,68189,1,8,0:0:0:0:
256,192,68270,1,8,0:0:0:0:
256,192,68351,1,8,0:0:0:0:
256,192,68513,1,0,0:0:0:0:
256,192,68675,1,8,0:0:0:0:
256,192,68837,1,0,0:0:0:0:
256,192,68999,1,8,0:0:0:0:
256,192,69080,1,8,0:0:0:0:
256,192,69161,1,8,0:0:0:0:
256,192,69486,1,0,0:0:0:0:
256,192,69648,1,8,0:0:0:0:
256,192,69810,1,0,0:0:0:0:
256,192,70134,1,8,0:0:0:0:
256,192,70297,1,8,0:0:0:0:
256,192,70459,1,0,0:0:0:0:
256,192,70621,1,8,0:0:0:0:
256,192,70783,1,0,0:0:0:0:
256,192,70945,1,0,0:0:0:0:
256,192,71107,1,8,0:0:0:0:
256,192,71270,1,0,0:0:0:0:
256,192,71432,1,8,0:0:0:0:
256,192,71513,1,8,0:0:0:0:
256,192,71594,1,8,0:0:0:0:
256,192,71756,1,0,0:0:0:0:
256,192,71918,1,0,0:0:0:0:
256,192,72080,1,8,0:0:0:0:
256,192,72729,1,4,0:0:0:0:
256,192,73053,1,8,0:0:0:0:
256,192,73215,1,0,0:0:0:0:
256,192,73540,1,0,0:0:0:0:
256,192,73702,1,8,0:0:0:0:
256,192,73864,1,8,0:0:0:0:
256,192,74026,1,0,0:0:0:0:
256,192,74188,1,8,0:0:0:0:
256,192,74269,1,8,0:0:0:0:
256,192,74351,1,8,0:0:0:0:
256,192,74513,1,8,0:0:0:0:
256,192,74837,1,0,0:0:0:0:
256,192,74999,1,8,0:0:0:0:
256,192,75324,1,0,0:0:0:0:
256,192,75648,1,8,0:0:0:0:
256,192,75810,1,8,0:0:0:0:
256,192,76134,1,0,0:0:0:0:
256,192,76296,1,8,0:0:0:0:
256,192,76621,1,0,0:0:0:0:
256,192,76783,1,0,0:0:0:0:
256,192,76945,1,8,0:0:0:0:
256,192,77107,1,8,0:0:0:0:
256,192,77269,1,0,0:0:0:0:
256,192,77351,1,0,0:0:0:0:
256,192,77432,1,0,0:0:0:0:
256,192,77594,1,8,0:0:0:0:
256,192,77918,1,0,0:0:0:0:
256,192,78242,1,8,0:0:0:0:
256,192,78405,1,8,0:0:0:0:
256,192,78729,1,8,0:0:0:0:
256,192,78891,1,8,0:0:0:0:
256,192,79053,1,0,0:0:0:0:
256,192,79215,1,8,0:0:0:0:
256,192,79378,1,0,0:0:0:0:
256,192,79459,1,0,0:0:0:0:
256,192,79540,1,0,0:0:0:0:
256,192,79702,1,8,0:0:0:0:
256,192,79783,1,8,0:0:0:0:
256,192,79864,1,8,0:0:0:0:
256,192,80026,1,0,0:0:0:0:
256,192,80188,1,8,0:0:0:0:
256,192,80513,1,0,0:0:0:0:
256,192,80837,1,8,0:0:0:0:
256,192,80999,1,0,0:0:0:0:
256,192,81161,1,0,0:0:0:0:
256,192,81486,1,8,0:0:0:0:
256,192,81648,1,0,0:0:0:0:
256,192,81810,1,12,0:0:0:0:
256,192,81972,1,0,0:0:0:0:
256,192,82134,1,0,0:0:0:0:
256,192,82296,1,12,0:0:0:0:
256,192,82621,1,8,0:0:0:0:
256,192,82702,1,8,0:0:0:0:
256,192,82783,1,8,0:0:0:0:
256,192,82945,1,8,0:0:0:0:
256,192,83107,1,4,0:0:0:0:
256,192,83431,1,8,0:0:0:0:
256,192,83594,1,8,0:0:0:0:
256,192,83918,1,0,0:0:0:0:
256,192,84080,1,8,0:0:0:0:
256,192,84242,1,8,0:0:0:0:
256,192,84404,1,0,0:0:0:0:
256,192,84567,1,8,0:0:0:0:
256,192,84648,1,8,0:0:0:0:
256,192,84729,1,8,0:0:0:0:
256,192,84891,1,0,0:0:0:0:
256,192,85215,1,8,0:0:0:0:
256,192,85296,1,8,0:0:0:0:
256,192,85377,1,8,0:0:0:0:
256,192,85702,1,0,0:0:0:0:
256,192,86026,1,8,0:0:0:0:
256,192,86188,1,0,0:0:0:0:
256,192,86513,1,0,0:0:0:0:
256,192,86675,1,8,0:0:0:0:
256,192,86999,1,8,0:0:0:0:
256,192,87161,1,0,0:0:0:0:
256,192,87323,1,0,0:0:0:0:
256,192,87485,1,8,0:0:0:0:
256,192,87810,1,0,0:0:0:0:
256,192,87972,1,8,0:0:0:0:
256,192,88134,1,0,0:0:0:0:
256,192,88296,1,4,0:0:0:0:
256,192,88621,1,0,0:0:0:0:
256,192,88783,1,12,0:0:0:0:
256,192,89107,1,8,0:0:0:0:
256,192,89269,1,4,0:0:0:0:
256,192,89594,1,0,0:0:0:0:
256,192,89756,1,12,0:0:0:0:
256,192,90080,1,8,0:0:0:0:
256,192,90242,1,4,0:0:0:0:
256,192,90567,1,4,0:0:0:0:
256,192,90891,1,12,0:0:0:0:
256,192,91215,1,8,0:0:0:0:
256,192,91377,1,8,0:0:0:0:
256,192,91539,1,8,0:0:0:0:
256,192,91864,1,8,0:0:0:0:
256,192,92026,1,8,0:0:0:0:
256,192,92188,1,8,0:0:0:0:
256,192,92269,1,8,0:0:0:0:
256,192,92350,1,8,0:0:0:0:
256,192,92512,1,8,0:0:0:0:
256,192,92675,1,8,0:0:0:0:
256,192,92837,1,0,0:0:0:0:
256,192,92999,1,8,0:0:0:0:
256,192,93080,1,8,0:0:0:0:
256,192,93161,1,8,0:0:0:0:
256,192,93485,1,0,0:0:0:0:
256,192,93810,1,8,0:0:0:0:
256,192,94134,1,0,0:0:0:0:
256,192,94296,1,0,0:0:0:0:
256,192,94458,1,0,0:0:0:0:
256,192,94783,1,8,0:0:0:0:
256,192,95107,1,8,0:0:0:0:
256,192,95431,1,0,0:0:0:0:
256,192,95593,1,8,0:0:0:0:
256,192,95756,1,0,0:0:0:0:
256,192,96080,1,8,0:0:0:0:
256,192,96404,1,8,0:0:0:0:
256,192,96729,1,0,0:0:0:0:
256,192,97053,1,8,0:0:0:0:
256,192,97377,1,0,0:0:0:0:
256,192,97702,1,0,0:0:0:0:
256,192,98026,1,8,0:0:0:0:
256,192,98188,1,8,0:0:0:0:
256,192,98350,1,0,0:0:0:0:
256,192,98674,1,8,0:0:0:0:
256,192,98999,1,8,0:0:0:0:
256,192,99323,1,0,0:0:0:0:
256,192,99485,1,0,0:0:0:0:
256,192,99647,1,8,0:0:0:0:
256,192,99972,1,0,0:0:0:0:
256,192,100296,1,8,0:0:0:0:
256,192,100620,1,0,0:0:0:0:
256,192,100945,1,0,0:0:0:0:
256,192,101269,1,8,0:0:0:0:
256,192,101621,1,8,0:0:0:0:
256,192,101798,1,8,0:0:0:0:
256,192,101974,1,0,0:0:0:0:
256,192,102337,1,0,0:0:0:0:
256,192,102525,1,0,0:0:0:0:
256,192,102725,1,8,0:0:0:0:
256,192,102940,1,0,0:0:0:0:
256,192,103174,1,8,0:0:0:0:
256,192,103446,1,8,0:0:0:0:
256,192,103798,1,0,0:0:0:0:
