osu file format v14

[General]
AudioFilename: audio.mp3
AudioLeadIn: 0
PreviewTime: 31212
Countdown: 0
SampleSet: Normal
StackLeniency: 0.7
Mode: 1
LetterboxInBreaks: 0
WidescreenStoryboard: 1

[Editor]
Bookmarks: 10460,31216,51973,72729,93485
DistanceSpacing: 0.9
BeatDivisor: 4
GridSize: 32
TimelineZoom: 1.480001

[Metadata]
Title:UP UP MT. CAKE
TitleUnicode:UP UP MT. CAKE
Artist:OISHII
ArtistUnicode:OISHII
Creator:hikikochan
Version:Kantan
Source:osu!
Tags:creamcore chiptune electronic featured artist nsm beatmapping contest
BeatmapID:1443523
BeatmapSetID:682598

[Difficulty]
HPDrainRate:7
CircleSize:2
OverallDifficulty:4
ApproachRate:5
SliderMultiplier:1.4
SliderTickRate:1

[Events]
//Background and Video events
0,0,"bg.png",0,0
//Break Periods
//Storyboard Layer 0 (Background)
//Storyboard Layer 1 (Fail)
//Storyboard Layer 2 (Pass)
//Storyboard Layer 3 (Foreground)
//Storyboard Sound Samples

[TimingPoints]
82,324.319065096242,4,1,0,80,1,0
41594,-100,4,1,0,100,0,1
51973,-100,4,1,0,90,0,0
83107,-100,4,1,0,100,0,1
93485,-100,4,1,0,80,0,0
101269,352.941176470588,4,1,0,80,1,0
101269,-91.743119266055,4,1,0,80,0,0
101974,363.636363636364,4,1,0,80,1,8
101974,-89.2857142857143,4,1,0,80,0,0
102337,377.358490566038,4,1,0,80,1,8
102337,-86.2068965517241,4,1,0,80,0,0
102525,400,4,1,0,80,1,8
102525,-81.3008130081301,4,1,0,80,0,0
102725,431.654676258993,4,1,0,80,1,0
102725,-75.187969924812,4,1,0,80,0,0
102940,468.75,4,1,0,80,1,8
102940,-69.4444444444444,4,1,0,80,0,0
103174,545.454545454546,4,1,0,80,1,8
103174,-59.5238095238095,4,1,0,80,0,0
103446,705.882352941176,4,1,0,80,1,8
103446,-45.8715596330275,4,1,0,80,0,0
103798,750,4,1,0,80,1,8
103798,-43.2900432900433,4,1,0,80,0,0

[HitObjects]
256,192,82,5,0,0:0:0:0:
256,192,1379,1,8,0:0:0:0:
256,192,2027,1,8,0:0:0:0:
256,192,2676,1,0,0:0:0:0:
256,192,3325,1,8,0:0:0:0:
256,192,3973,1,0,0:0:0:0:
256,192,5271,1,8,0:0:0:0:
256,192,6568,1,0,0:0:0:0:
256,192,7217,1,8,0:0:0:0:
256,192,7865,1,0,0:0:0:0:
256,192,8514,1,0,0:0:0:0:
256,192,9162,1,8,0:0:0:0:
256,192,9487,1,8,0:0:0:0:
256,192,9811,1,8,0:0:0:0:
256,192,10460,1,4,0:0:0:0:
256,192,11108,1,0,0:0:0:0:
256,192,11757,1,8,0:0:0:0:
256,192,12406,1,8,0:0:0:0:
256,192,13054,1,0,0:0:0:0:
256,192,13379,1,8,0:0:0:0:
256,192,13703,1,0,0:0:0:0:
256,192,14352,1,8,0:0:0:0:
256,192,15649,1,0,0:0:0:0:
256,192,16297,1,0,0:0:0:0:
256,192,16946,1,8,0:0:0:0:
256,192,17595,1,0,0:0:0:0:
256,192,18243,1,8,0:0:0:0:
256,192,18568,1,0,0:0:0:0:
256,192,18892,1,8,0:0:0:0:
256,192,19541,1,8,0:0:0:0:
256,192,20838,1,4,0:0:0:0:
256,192,21487,1,8,0:0:0:0:
256,192,22135,1,0,0:0:0:0:
256,192,22460,1,0,0:0:0:0:
256,192,22784,1,0,0:0:0:0:
256,192,23432,1,8,0:0:0:0:
256,192,24081,1,0,0:0:0:0:
256,192,24730,1,8,0:0:0:0:
256,192,26027,1,0,0:0:0:0:
256,192,26676,1,0,0:0:0:0:
256,192,27324,1,8,0:0:0:0:
256,192,27649,1,8,0:0:0:0:
256,192,27973,1,0,0:0:0:0:
256,192,28622,1,8,0:0:0:0:
256,192,29270,1,0,0:0:0:0:
256,192,29919,1,8,0:0:0:0:
256,192,30243,1,8,0:0:0:0:
256,192,30567,1,8,0:0:0:0:
256,192,31216,1,4,0:0:0:0:
256,192,32513,1,8,0:0:0:0:
256,192,33162,1,8,0:0:0:0:
256,192,33811,1,0,0:0:0:0:
256,192,35108,1,8,0:0:0:0:
256,192,35432,1,8,0:0:0:0:
256,192,35757,1,0,0:0:0:0:
256,192,36405,1,8,0:0:0:0:
256,192,37703,1,0,0:0:0:0:
256,192,38351,1,0,0:0:0:0:
256,192,39000,1,8,0:0:0:0:
256,192,40297,1,12,0:0:0:0:
256,192,40784,1,12,0:0:0:0:
256,192,41594,1,4,0:0:0:0:
256,192,42892,1,0,0:0:0:0:
256,192,43540,1,8,0:0:0:0:
256,192,44189,1,0,0:0:0:0:
256,192,45486,1,8,0:0:0:0:
256,192,45973,1,8,0:0:0:0:
256,192,46783,1,4,0:0:0:0:
256,192,47756,1,12,0:0:0:0:
256,192,48729,1,4,0:0:0:0:
256,192,49378,1,12,0:0:0:0:
256,192,50675,1,12,0:0:0:0:
256,192,51000,1,12,0:0:0:0:
256,192,51324,1,12,0:0:0:0:
256,192,51973,1,4,0:0:0:0:
256,192,52621,1,0,0:0:0:0:
256,192,53270,1,8,0:0:0:0:
256,192,53918,1,8,0:0:0:0:
256,192,54567,1,0,0:0:0:0:
256,192,54891,1,8,0:0:0:0:
256,192,55216,1,0,0:0:0:0:
256,192,55864,1,8,0:0:0:0:
256,192,57162,1,0,0:0:0:0:
256,192,57810,1,8,0:0:0:0:
256,192,58459,1,0,0:0:0:0:
256,192,59108,1,0,0:0:0:0:
256,192,59756,1,8,0:0:0:0:
256,192,60081,1,8,0:0:0:0:
256,192,60405,1,0,0:0:0:0:
256,192,60729,1,0,0:0:0:0:
256,192,61053,1,8,0:0:0:0:
256,192,62351,1,4,0:0:0:0:
256,192,62999,1,0,0:0:0:0:
256,192,63648,1,8,0:0:0:0:
256,192,64297,1,0,0:0:0:0:
256,192,64945,1,8,0:0:0:0:
256,192,65270,1,8,0:0:0:0:
256,192,65594,1,0,0:0:0:0:
256,192,66243,1,8,0:0:0:0:
256,192,67540,1,0,0:0:0:0:
256,192,68189,1,8,0:0:0:0:
256,192,68837,1,0,0:0:0:0:
256,192,69486,1,0,0:0:0:0:
256,192,70134,1,8,0:0:0:0:
256,192,70459,1,8,0:0:0:0:
256,192,70783,1,0,0:0:0:0:
256,192,71107,1,0,0:0:0:0:
256,192,71432,1,8,0:0:0:0:
256,192,72080,1,8,0:0:0:0:
256,192,72729,1,4,0:0:0:0:
256,192,74026,1,8,0:0:0:0:
256,192,74675,1,0,0:0:0:0:
256,192,75324,1,8,0:0:0:0:
256,192,76621,1,8,0:0:0:0:
256,192,76945,1,8,0:0:0:0:
256,192,77269,1,8,0:0:0:0:
256,192,77918,1,0,0:0:0:0:
256,192,79215,1,8,0:0:0:0:
256,192,79864,1,0,0:0:0:0:
256,192,80513,1,8,0:0:0:0:
256,192,81810,1,12,0:0:0:0:
256,192,82296,1,12,0:0:0:0:
256,192,83107,1,4,0:0:0:0:
256,192,84404,1,8,0:0:0:0:
256,192,85053,1,8,0:0:0:0:
256,192,85702,1,0,0:0:0:0:
256,192,86999,1,0,0:0:0:0:
256,192,87485,1,8,0:0:0:0:
256,192,88296,1,4,0:0:0:0:
256,192,89269,1,12,0:0:0:0:
256,192,90242,1,4,0:0:0:0:
256,192,90891,1,12,0:0:0:0:
256,192,92188,1,12,0:0:0:0:
256,192,92512,1,12,0:0:0:0:
256,192,92837,1,12,0:0:0:0:
256,192,93485,1,0,0:0:0:0:
256,192,94783,1,8,0:0:0:0:
256,192,95431,1,8,0:0:0:0:
256,192,96080,1,0,0:0:0:0:
256,192,96729,1,0,0:0:0:0:
256,192,97377,1,8,0:0:0:0:
256,192,98674,1,0,0:0:0:0:
256,192,99972,1,8,0:0:0:0:
256,192,100620,1,8,0:0:0:0:
256,192,101269,1,0,0:0:0:0:
256,192,101974,1,8,0:0:0:0:
256,192,102725,1,0,0:0:0:0:
256,192,103798,1,8,0:0:0:0:
