osu file format v14

[General]
AudioFilename: audio.mp3
AudioLeadIn: 0
PreviewTime: 10135
Countdown: 0
SampleSet: Normal
StackLeniency: 0.7
Mode: 1
LetterboxInBreaks: 0
WidescreenStoryboard: 0

[Editor]
Bookmarks: 31216,51973,72729,93485
DistanceSpacing: 0.8
BeatDivisor: 4
GridSize: 8
TimelineZoom: 1.4

[Metadata]
Title:UP UP MT. CAKE
TitleUnicode:UP UP MT. CAKE
Artist:OISHII
ArtistUnicode:OISHII
Creator:Nifty
Version:Oni
Source:
Tags:chiptune creamcore electronic happy kirby nes adventure hype nintendo videogame featured artist
BeatmapID:1458822
BeatmapSetID:664795

[Difficulty]
HPDrainRate:6
CircleSize:2
OverallDifficulty:5
ApproachRate:10
SliderMultiplier:1.4
SliderTickRate:1

[Events]
//Background and Video events
0,0,"mt cake.jpg",0,40
//Break Periods
//Storyboard Layer 0 (Background)
//Storyboard Layer 1 (Fail)
//Storyboard Layer 2 (Pass)
//Storyboard Layer 3 (Foreground)
//Storyboard Sound Samples

[TimingPoints]
82,324.319065096242,4,1,0,50,1,0
82,-125,4,1,0,50,0,0
10460,-100,4,1,0,70,0,0
51973,-100,4,1,0,70,0,1
72729,-100,4,1,0,70,0,0
93485,-100,4,1,0,50,0,0
93648,-102.040816326531,4,1,0,50,0,0
93810,-104.166666666667,4,1,0,50,0,0
93972,-106.382978723404,4,1,0,50,0,0
94134,-108.695652173913,4,1,0,50,0,0
94296,-111.111111111111,4,1,0,50,0,0
94458,-113.636363636364,4,1,0,50,0,0
94621,-116.279069767442,4,1,0,50,0,0
94783,-119.047619047619,4,1,0,50,0,0
95107,-121.951219512195,4,1,0,50,0,0
95269,-125,4,1,0,50,0,0
101269,352.941176470588,4,1,0,50,1,0
101269,-117.647058823529,4,1,0,50,0,0
101621,-126.582278481013,4,1,0,50,0,0
101974,363.636363636364,4,1,0,50,1,8
101974,-128.205128205128,4,1,0,50,0,8
102155,-131.578947368421,4,1,0,50,0,8
102337,377.358490566038,4,1,0,50,1,8
102337,-128.205128205128,4,1,0,50,0,8
102525,400,4,1,0,50,1,8
102525,-126.582278481013,4,1,0,50,0,8
102725,431.654676258993,4,1,0,50,1,0
102725,-121.951219512195,4,1,0,50,0,8
102940,468.75,4,1,0,50,1,8
102940,-119.047619047619,4,1,0,50,0,8
103174,545.454545454546,4,1,0,50,1,8
103174,-111.111111111111,4,1,0,50,0,8
103446,705.882352941176,4,1,0,50,1,8
103446,-90.9090909090909,4,1,0,50,0,8
103798,750,4,1,0,50,1,0
103798,-90.9090909090909,4,1,0,50,0,8

[HitObjects]
264,96,82,5,0,0:0:0:0:
264,104,244,1,8,0:0:0:0:
264,104,406,1,8,0:0:0:0:
264,104,568,1,0,0:0:0:0:
264,104,730,1,0,0:0:0:0:
272,104,892,1,8,0:0:0:0:
272,104,1054,1,8,0:0:0:0:
272,104,1217,1,0,0:0:0:0:
272,104,1379,1,0,0:0:0:0:
272,96,1703,1,8,0:0:0:0:
264,96,1865,1,8,0:0:0:0:
272,96,2027,1,0,0:0:0:0:
272,96,2352,1,8,0:0:0:0:
272,96,2514,1,0,0:0:0:0:
272,96,2676,1,0,0:0:0:0:
264,96,3000,1,8,0:0:0:0:
264,96,3325,1,0,0:0:0:0:
272,88,3649,1,8,0:0:0:0:
272,88,3973,1,0,0:0:0:0:
256,88,4298,1,8,0:0:0:0:
272,88,4622,1,8,0:0:0:0:
272,88,4784,1,0,0:0:0:0:
264,80,4946,1,8,0:0:0:0:
264,80,5108,1,8,0:0:0:0:
264,80,5271,1,0,0:0:0:0:
264,80,5433,1,8,0:0:0:0:
264,80,5595,1,8,0:0:0:0:
264,80,5757,1,0,0:0:0:0:
264,80,5919,1,0,0:0:0:0:
264,80,6081,1,8,0:0:0:0:
264,80,6244,1,8,0:0:0:0:
264,80,6406,1,0,0:0:0:0:
264,80,6568,1,0,0:0:0:0:
264,80,6892,1,8,0:0:0:0:
264,80,7054,1,8,0:0:0:0:
264,80,7217,1,0,0:0:0:0:
264,80,7541,1,8,0:0:0:0:
264,80,7703,1,0,0:0:0:0:
264,80,7865,1,0,0:0:0:0:
264,64,8027,1,8,0:0:0:0:
264,64,8189,1,0,0:0:0:0:
264,64,8352,1,8,0:0:0:0:
256,64,8514,1,0,0:0:0:0:
256,64,8676,1,8,0:0:0:0:
256,64,8838,1,8,0:0:0:0:
256,64,9000,1,0,0:0:0:0:
256,64,9162,1,8,0:0:0:0:
256,64,9487,1,0,0:0:0:0:
248,72,9811,1,0,0:0:0:0:
256,64,10460,1,4,0:0:0:0:
256,72,10622,1,8,0:0:0:0:
264,64,10703,1,8,0:0:0:0:
256,72,10784,1,0,0:0:0:0:
264,64,10946,1,8,0:0:0:0:
264,64,11108,1,0,0:0:0:0:
264,64,11189,1,0,0:0:0:0:
264,64,11271,1,8,0:0:0:0:
256,64,11433,1,0,0:0:0:0:
256,64,11595,1,8,0:0:0:0:
264,64,11757,1,0,0:0:0:0:
264,64,11919,1,8,0:0:0:0:
264,64,12000,1,0,0:0:0:0:
264,64,12081,1,8,0:0:0:0:
264,64,12243,1,0,0:0:0:0:
272,72,12406,1,0,0:0:0:0:
264,72,12568,1,8,0:0:0:0:
264,72,12649,1,0,0:0:0:0:
264,72,12730,1,8,0:0:0:0:
264,72,12892,1,8,0:0:0:0:
264,72,13054,1,0,0:0:0:0:
264,72,13379,1,8,0:0:0:0:
264,72,13703,1,0,0:0:0:0:
264,72,14027,1,8,0:0:0:0:
264,72,14352,1,0,0:0:0:0:
264,72,14676,1,8,0:0:0:0:
264,72,15000,1,8,0:0:0:0:
264,72,15162,1,0,0:0:0:0:
264,80,15324,1,0,0:0:0:0:
264,72,15406,1,8,0:0:0:0:
264,72,15487,1,8,0:0:0:0:
264,80,15649,1,8,0:0:0:0:
264,80,15811,1,0,0:0:0:0:
264,80,15892,1,0,0:0:0:0:
264,80,15973,1,8,0:0:0:0:
264,80,16135,1,0,0:0:0:0:
264,80,16297,1,8,0:0:0:0:
264,80,16379,1,0,0:0:0:0:
264,80,16460,1,8,0:0:0:0:
256,88,16622,1,0,0:0:0:0:
256,80,16784,1,8,0:0:0:0:
256,80,16946,1,0,0:0:0:0:
256,80,17108,1,8,0:0:0:0:
256,80,17189,1,0,0:0:0:0:
256,80,17270,1,8,0:0:0:0:
256,80,17433,1,0,0:0:0:0:
256,88,17595,1,0,0:0:0:0:
256,80,17757,1,8,0:0:0:0:
256,80,17838,1,0,0:0:0:0:
256,80,17919,1,8,0:0:0:0:
256,80,18081,1,8,0:0:0:0:
256,80,18243,1,0,0:0:0:0:
256,72,18568,1,8,0:0:0:0:
256,80,18892,1,0,0:0:0:0:
256,80,19054,1,8,0:0:0:0:
256,80,19216,1,8,0:0:0:0:
256,72,19378,1,0,0:0:0:0:
104,200,19541,2,0,L|384:128,1,280
248,72,20351,1,0,0:0:0:0:
248,72,20514,1,8,0:0:0:0:
248,72,20595,1,8,0:0:0:0:
248,72,20676,1,8,0:0:0:0:
248,72,20757,1,8,0:0:0:0:
248,72,20838,1,0,0:0:0:0:
256,80,21000,1,8,0:0:0:0:
256,80,21081,1,8,0:0:0:0:
256,80,21162,1,0,0:0:0:0:
256,80,21324,1,8,0:0:0:0:
256,80,21487,1,0,0:0:0:0:
256,80,21568,1,0,0:0:0:0:
256,80,21649,1,8,0:0:0:0:
256,72,21811,1,0,0:0:0:0:
256,72,21973,1,8,0:0:0:0:
256,72,22135,1,0,0:0:0:0:
256,72,22297,1,8,0:0:0:0:
256,72,22378,1,0,0:0:0:0:
256,72,22460,1,8,0:0:0:0:
256,72,22622,1,0,0:0:0:0:
256,72,22784,1,0,0:0:0:0:
256,72,22946,1,8,0:0:0:0:
256,72,23027,1,0,0:0:0:0:
256,72,23108,1,8,0:0:0:0:
256,72,23270,1,8,0:0:0:0:
256,72,23432,1,0,0:0:0:0:
256,72,23757,1,8,0:0:0:0:
264,80,23838,1,8,0:0:0:0:
264,80,23919,1,0,0:0:0:0:
264,80,24081,1,8,0:0:0:0:
256,72,24243,1,0,0:0:0:0:
264,72,24324,1,0,0:0:0:0:
256,72,24405,1,8,0:0:0:0:
264,72,24568,1,0,0:0:0:0:
256,72,24730,1,0,0:0:0:0:
264,72,24892,1,8,0:0:0:0:
264,72,24973,1,0,0:0:0:0:
240,72,25054,1,8,0:0:0:0:
256,64,25216,1,0,0:0:0:0:
256,72,25378,1,8,0:0:0:0:
248,80,25541,1,0,0:0:0:0:
264,80,25703,1,0,0:0:0:0:
264,80,25784,1,8,0:0:0:0:
256,80,25865,1,8,0:0:0:0:
248,80,26027,1,0,0:0:0:0:
256,72,26189,1,8,0:0:0:0:
256,80,26270,1,8,0:0:0:0:
248,80,26351,1,0,0:0:0:0:
248,80,26514,1,8,0:0:0:0:
256,80,26676,1,0,0:0:0:0:
256,80,26757,1,0,0:0:0:0:
256,80,26838,1,8,0:0:0:0:
248,80,27000,1,0,0:0:0:0:
256,80,27162,1,8,0:0:0:0:
256,80,27324,1,0,0:0:0:0:
248,80,27486,1,8,0:0:0:0:
256,80,27568,1,0,0:0:0:0:
256,80,27649,1,8,0:0:0:0:
256,80,27811,1,0,0:0:0:0:
248,80,27973,1,0,0:0:0:0:
256,80,28135,1,8,0:0:0:0:
256,80,28216,1,0,0:0:0:0:
256,80,28297,1,8,0:0:0:0:
248,80,28459,1,8,0:0:0:0:
256,80,28622,1,0,0:0:0:0:
240,72,28946,1,8,0:0:0:0:
240,72,29270,1,0,0:0:0:0:
248,72,29432,1,8,0:0:0:0:
240,72,29595,1,8,0:0:0:0:
240,72,29757,1,0,0:0:0:0:
144,184,29919,2,0,L|416:120,1,280
256,72,30892,1,8,0:0:0:0:
256,72,30973,1,8,0:0:0:0:
256,72,31054,1,8,0:0:0:0:
256,72,31135,1,8,0:0:0:0:
256,72,31216,1,0,0:0:0:0:
256,64,31540,1,8,0:0:0:0:
256,64,31703,1,0,0:0:0:0:
256,64,32189,1,8,0:0:0:0:
264,56,32513,1,0,0:0:0:0:
264,56,32676,1,0,0:0:0:0:
264,56,32757,1,0,0:0:0:0:
264,56,32838,1,8,0:0:0:0:
264,56,33000,1,0,0:0:0:0:
264,56,33486,1,8,0:0:0:0:
264,56,33649,1,0,0:0:0:0:
264,56,33811,1,0,0:0:0:0:
264,56,34135,1,8,0:0:0:0:
264,56,34297,1,0,0:0:0:0:
264,56,34784,1,8,0:0:0:0:
264,56,35108,1,0,0:0:0:0:
256,48,35270,1,8,0:0:0:0:
256,48,35432,1,8,0:0:0:0:
248,48,35594,1,0,0:0:0:0:
256,48,35919,1,8,0:0:0:0:
256,56,36081,1,8,0:0:0:0:
256,48,36162,1,0,0:0:0:0:
256,48,36243,1,8,0:0:0:0:
256,48,36324,1,8,0:0:0:0:
256,48,36405,1,0,0:0:0:0:
240,56,36730,1,8,0:0:0:0:
248,56,36892,1,0,0:0:0:0:
256,48,37378,1,8,0:0:0:0:
248,40,37703,1,0,0:0:0:0:
248,56,37784,1,0,0:0:0:0:
248,40,37865,1,8,0:0:0:0:
248,40,37946,1,0,0:0:0:0:
248,40,38027,1,8,0:0:0:0:
248,40,38189,1,0,0:0:0:0:
248,48,38351,1,8,0:0:0:0:
248,48,38432,1,8,0:0:0:0:
248,48,38513,1,0,0:0:0:0:
248,48,38594,1,0,0:0:0:0:
248,40,38675,1,8,0:0:0:0:
248,40,38838,1,0,0:0:0:0:
248,40,39000,1,0,0:0:0:0:
248,40,39324,1,8,0:0:0:0:
248,40,39486,1,0,0:0:0:0:
248,40,39973,1,8,0:0:0:0:
248,40,40297,1,8,0:0:0:0:
248,40,40459,1,8,0:0:0:0:
248,40,40621,1,0,0:0:0:0:
248,40,40784,1,8,0:0:0:0:
248,40,41108,1,8,0:0:0:0:
248,40,41189,1,8,0:0:0:0:
248,40,41270,1,8,0:0:0:0:
248,40,41432,1,8,0:0:0:0:
248,40,41594,1,0,0:0:0:0:
248,40,41756,1,0,0:0:0:0:
248,40,41919,1,8,0:0:0:0:
248,40,42081,1,8,0:0:0:0:
248,40,42405,1,8,0:0:0:0:
248,40,42567,1,0,0:0:0:0:
248,40,42729,1,0,0:0:0:0:
256,32,42892,1,8,0:0:0:0:
256,32,43054,1,0,0:0:0:0:
256,32,43135,1,0,0:0:0:0:
256,32,43216,1,8,0:0:0:0:
248,32,43378,1,0,0:0:0:0:
248,32,43459,1,8,0:0:0:0:
248,32,43540,1,0,0:0:0:0:
240,32,43702,1,0,0:0:0:0:
240,32,43783,1,0,0:0:0:0:
240,32,43865,1,8,0:0:0:0:
240,32,44027,1,0,0:0:0:0:
240,32,44108,1,8,0:0:0:0:
240,32,44189,1,0,0:0:0:0:
240,24,44351,1,0,0:0:0:0:
240,24,44513,1,8,0:0:0:0:
240,32,44675,1,0,0:0:0:0:
240,32,45000,1,0,0:0:0:0:
232,32,45162,1,8,0:0:0:0:
232,32,45324,1,8,0:0:0:0:
232,32,45486,1,0,0:0:0:0:
232,24,45648,1,8,0:0:0:0:
232,16,45810,1,8,0:0:0:0:
232,16,45973,1,0,0:0:0:0:
232,32,46135,1,8,0:0:0:0:
232,32,46297,1,0,0:0:0:0:
232,32,46459,1,8,0:0:0:0:
232,24,46621,1,0,0:0:0:0:
232,32,46702,1,0,0:0:0:0:
232,32,46783,1,8,0:0:0:0:
224,32,46946,1,0,0:0:0:0:
224,40,47108,1,8,0:0:0:0:
224,32,47270,1,8,0:0:0:0:
224,32,47432,1,0,0:0:0:0:
224,40,47594,1,8,0:0:0:0:
232,40,47756,1,8,0:0:0:0:
232,40,47919,1,0,0:0:0:0:
240,40,48081,1,8,0:0:0:0:
224,32,48297,1,0,0:0:0:0:
224,32,48405,1,8,0:0:0:0:
224,40,48621,1,0,0:0:0:0:
224,40,48729,1,8,0:0:0:0:
224,40,48946,1,0,0:0:0:0:
224,40,49054,1,8,0:0:0:0:
224,48,49162,1,0,0:0:0:0:
224,48,49270,1,8,0:0:0:0:
216,48,49378,1,8,0:0:0:0:
216,40,49540,1,0,0:0:0:0:
216,40,49702,1,8,0:0:0:0:
216,40,49864,1,8,0:0:0:0:
216,40,50189,1,0,0:0:0:0:
216,40,50351,1,8,0:0:0:0:
216,40,50513,1,8,0:0:0:0:
216,40,50675,1,0,0:0:0:0:
216,40,50756,1,0,0:0:0:0:
216,40,50837,1,0,0:0:0:0:
216,40,50919,1,0,0:0:0:0:
216,40,51000,1,8,0:0:0:0:
216,40,51162,1,0,0:0:0:0:
216,40,51243,1,0,0:0:0:0:
216,40,51324,1,8,0:0:0:0:
216,40,51486,1,0,0:0:0:0:
216,40,51567,1,0,0:0:0:0:
216,40,51648,1,8,0:0:0:0:
208,40,51729,1,8,0:0:0:0:
208,40,51810,1,8,0:0:0:0:
208,40,51891,1,8,0:0:0:0:
256,64,51973,1,0,0:0:0:0:
256,72,52135,1,8,0:0:0:0:
248,64,52216,1,0,0:0:0:0:
256,72,52297,1,8,0:0:0:0:
264,64,52459,1,8,0:0:0:0:
264,64,52621,1,0,0:0:0:0:
248,56,52702,1,8,0:0:0:0:
256,64,52783,1,0,0:0:0:0:
256,64,52946,1,0,0:0:0:0:
256,64,53108,1,8,0:0:0:0:
264,64,53270,1,0,0:0:0:0:
264,64,53432,1,8,0:0:0:0:
264,64,53513,1,0,0:0:0:0:
264,64,53594,1,8,0:0:0:0:
264,64,53756,1,0,0:0:0:0:
272,72,53919,1,0,0:0:0:0:
264,72,54081,1,8,0:0:0:0:
264,72,54162,1,0,0:0:0:0:
264,72,54243,1,8,0:0:0:0:
264,72,54405,1,8,0:0:0:0:
264,72,54567,1,0,0:0:0:0:
264,72,54892,1,8,0:0:0:0:
264,72,55216,1,0,0:0:0:0:
264,72,55540,1,8,0:0:0:0:
264,72,55865,1,0,0:0:0:0:
264,72,56189,1,8,0:0:0:0:
264,72,56513,1,8,0:0:0:0:
264,72,56675,1,0,0:0:0:0:
264,72,56837,1,0,0:0:0:0:
264,80,56919,1,8,0:0:0:0:
264,72,57000,1,8,0:0:0:0:
264,80,57162,1,8,0:0:0:0:
264,80,57324,1,0,0:0:0:0:
264,80,57405,1,0,0:0:0:0:
264,80,57486,1,8,0:0:0:0:
264,80,57648,1,0,0:0:0:0:
264,80,57810,1,8,0:0:0:0:
264,80,57892,1,0,0:0:0:0:
264,80,57973,1,8,0:0:0:0:
256,88,58135,1,0,0:0:0:0:
256,80,58297,1,8,0:0:0:0:
256,80,58459,1,0,0:0:0:0:
256,80,58621,1,8,0:0:0:0:
256,80,58702,1,0,0:0:0:0:
256,80,58783,1,8,0:0:0:0:
256,80,58946,1,0,0:0:0:0:
256,88,59108,1,0,0:0:0:0:
256,80,59270,1,8,0:0:0:0:
256,80,59351,1,0,0:0:0:0:
256,80,59432,1,8,0:0:0:0:
256,80,59594,1,8,0:0:0:0:
256,80,59756,1,0,0:0:0:0:
256,72,60081,1,8,0:0:0:0:
256,80,60405,1,0,0:0:0:0:
256,80,60567,1,8,0:0:0:0:
256,80,60729,1,8,0:0:0:0:
256,72,60891,1,0,0:0:0:0:
136,200,61053,2,0,L|424:120,1,280
248,72,61864,1,0,0:0:0:0:
248,72,62027,1,8,0:0:0:0:
248,72,62108,1,8,0:0:0:0:
248,72,62189,1,8,0:0:0:0:
248,72,62270,1,8,0:0:0:0:
248,72,62351,1,0,0:0:0:0:
256,80,62513,1,8,0:0:0:0:
256,80,62594,1,8,0:0:0:0:
256,80,62675,1,0,0:0:0:0:
256,80,62837,1,8,0:0:0:0:
256,80,63000,1,0,0:0:0:0:
256,80,63081,1,0,0:0:0:0:
256,80,63162,1,8,0:0:0:0:
256,72,63324,1,0,0:0:0:0:
256,72,63486,1,8,0:0:0:0:
256,72,63648,1,0,0:0:0:0:
256,72,63810,1,8,0:0:0:0:
256,72,63891,1,0,0:0:0:0:
256,72,63973,1,8,0:0:0:0:
256,72,64135,1,0,0:0:0:0:
256,72,64297,1,0,0:0:0:0:
256,72,64459,1,8,0:0:0:0:
256,72,64540,1,0,0:0:0:0:
256,72,64621,1,8,0:0:0:0:
256,72,64783,1,8,0:0:0:0:
256,72,64945,1,0,0:0:0:0:
256,64,65107,1,0,0:0:0:0:
256,64,65189,1,8,0:0:0:0:
256,72,65270,1,8,0:0:0:0:
256,64,65351,1,0,0:0:0:0:
256,64,65432,1,8,0:0:0:0:
256,72,65594,1,0,0:0:0:0:
256,64,65756,1,0,0:0:0:0:
256,64,65837,1,0,0:0:0:0:
256,72,65918,1,8,0:0:0:0:
256,64,66080,1,0,0:0:0:0:
256,72,66243,1,0,0:0:0:0:
256,64,66405,1,8,0:0:0:0:
256,64,66486,1,0,0:0:0:0:
240,72,66567,1,8,0:0:0:0:
256,64,66729,1,0,0:0:0:0:
256,72,66891,1,8,0:0:0:0:
248,80,67054,1,0,0:0:0:0:
264,80,67216,1,0,0:0:0:0:
264,80,67297,1,8,0:0:0:0:
256,80,67378,1,8,0:0:0:0:
248,80,67540,1,0,0:0:0:0:
256,72,67702,1,8,0:0:0:0:
256,72,67783,1,8,0:0:0:0:
248,80,67864,1,0,0:0:0:0:
248,80,68027,1,8,0:0:0:0:
256,80,68189,1,0,0:0:0:0:
256,80,68270,1,0,0:0:0:0:
256,80,68351,1,8,0:0:0:0:
248,80,68513,1,0,0:0:0:0:
256,80,68675,1,8,0:0:0:0:
256,80,68837,1,0,0:0:0:0:
248,80,68999,1,8,0:0:0:0:
256,80,69081,1,0,0:0:0:0:
256,80,69162,1,8,0:0:0:0:
256,80,69324,1,0,0:0:0:0:
248,80,69486,1,0,0:0:0:0:
256,80,69648,1,8,0:0:0:0:
256,80,69729,1,0,0:0:0:0:
256,80,69810,1,8,0:0:0:0:
248,80,69972,1,8,0:0:0:0:
256,80,70135,1,0,0:0:0:0:
240,72,70459,1,8,0:0:0:0:
240,72,70783,1,0,0:0:0:0:
248,72,70945,1,8,0:0:0:0:
240,72,71108,1,8,0:0:0:0:
240,72,71270,1,0,0:0:0:0:
136,224,71432,2,0,L|408:144,1,280
256,72,72405,1,8,0:0:0:0:
256,72,72486,1,8,0:0:0:0:
256,72,72567,1,8,0:0:0:0:
256,72,72648,1,8,0:0:0:0:
256,72,72729,1,0,0:0:0:0:
256,64,73053,1,8,0:0:0:0:
256,64,73216,1,0,0:0:0:0:
256,64,73702,1,8,0:0:0:0:
264,56,74026,1,0,0:0:0:0:
264,56,74189,1,0,0:0:0:0:
264,56,74270,1,0,0:0:0:0:
264,56,74351,1,8,0:0:0:0:
264,56,74513,1,0,0:0:0:0:
264,56,74999,1,8,0:0:0:0:
264,56,75162,1,0,0:0:0:0:
264,56,75324,1,0,0:0:0:0:
264,56,75648,1,8,0:0:0:0:
264,56,75810,1,0,0:0:0:0:
264,56,76297,1,8,0:0:0:0:
264,56,76621,1,0,0:0:0:0:
256,48,76783,1,8,0:0:0:0:
256,48,76945,1,8,0:0:0:0:
248,48,77107,1,0,0:0:0:0:
256,48,77432,1,8,0:0:0:0:
256,48,77594,1,8,0:0:0:0:
248,48,77675,1,0,0:0:0:0:
248,48,77756,1,8,0:0:0:0:
256,48,77837,1,8,0:0:0:0:
256,48,77918,1,0,0:0:0:0:
240,56,78243,1,8,0:0:0:0:
248,56,78405,1,0,0:0:0:0:
256,48,78891,1,8,0:0:0:0:
248,40,79216,1,0,0:0:0:0:
248,56,79296,1,0,0:0:0:0:
248,40,79378,1,8,0:0:0:0:
248,40,79459,1,0,0:0:0:0:
248,40,79540,1,8,0:0:0:0:
248,40,79702,1,0,0:0:0:0:
240,48,79864,1,8,0:0:0:0:
240,48,79945,1,8,0:0:0:0:
240,48,80026,1,0,0:0:0:0:
240,48,80107,1,0,0:0:0:0:
248,40,80188,1,8,0:0:0:0:
248,40,80351,1,0,0:0:0:0:
248,40,80513,1,0,0:0:0:0:
248,40,80837,1,8,0:0:0:0:
248,40,80999,1,0,0:0:0:0:
248,40,81486,1,8,0:0:0:0:
248,40,81810,1,8,0:0:0:0:
248,40,81972,1,8,0:0:0:0:
248,40,82134,1,0,0:0:0:0:
248,40,82297,1,8,0:0:0:0:
248,40,82621,1,8,0:0:0:0:
248,40,82702,1,8,0:0:0:0:
248,40,82783,1,8,0:0:0:0:
248,40,82945,1,8,0:0:0:0:
248,40,83107,1,0,0:0:0:0:
248,40,83269,1,0,0:0:0:0:
248,40,83432,1,8,0:0:0:0:
248,40,83594,1,8,0:0:0:0:
248,40,83918,1,8,0:0:0:0:
248,40,84080,1,0,0:0:0:0:
248,40,84242,1,0,0:0:0:0:
256,32,84405,1,8,0:0:0:0:
248,64,84567,1,8,0:0:0:0:
248,64,84648,1,0,0:0:0:0:
256,32,84729,1,8,0:0:0:0:
248,32,84891,1,0,0:0:0:0:
248,64,84972,1,0,0:0:0:0:
248,64,85053,1,8,0:0:0:0:
248,64,85215,1,8,0:0:0:0:
240,32,85296,1,0,0:0:0:0:
240,32,85378,1,8,0:0:0:0:
240,32,85540,1,0,0:0:0:0:
240,32,85621,1,8,0:0:0:0:
240,32,85702,1,0,0:0:0:0:
240,24,85864,1,0,0:0:0:0:
240,24,86026,1,8,0:0:0:0:
240,32,86188,1,0,0:0:0:0:
240,32,86513,1,0,0:0:0:0:
232,32,86675,1,8,0:0:0:0:
232,32,86837,1,8,0:0:0:0:
232,32,86999,1,0,0:0:0:0:
232,24,87161,1,8,0:0:0:0:
232,16,87323,1,8,0:0:0:0:
232,16,87486,1,0,0:0:0:0:
232,32,87648,1,8,0:0:0:0:
232,32,87810,1,0,0:0:0:0:
232,32,87972,1,8,0:0:0:0:
232,24,88134,1,0,0:0:0:0:
232,32,88215,1,0,0:0:0:0:
232,32,88296,1,8,0:0:0:0:
224,32,88459,1,0,0:0:0:0:
248,64,88621,1,8,0:0:0:0:
224,32,88783,1,8,0:0:0:0:
224,32,88945,1,0,0:0:0:0:
248,64,89107,1,8,0:0:0:0:
232,40,89269,1,8,0:0:0:0:
232,40,89432,1,0,0:0:0:0:
240,40,89594,1,8,0:0:0:0:
224,32,89810,1,0,0:0:0:0:
224,32,89918,1,8,0:0:0:0:
224,40,90134,1,0,0:0:0:0:
224,40,90242,1,8,0:0:0:0:
224,40,90459,1,0,0:0:0:0:
224,40,90567,1,8,0:0:0:0:
224,48,90675,1,0,0:0:0:0:
224,48,90783,1,8,0:0:0:0:
216,48,90891,1,8,0:0:0:0:
216,40,91053,1,0,0:0:0:0:
216,40,91215,1,8,0:0:0:0:
216,40,91377,1,8,0:0:0:0:
216,40,91702,1,0,0:0:0:0:
216,40,91864,1,8,0:0:0:0:
216,40,92026,1,8,0:0:0:0:
216,40,92188,1,0,0:0:0:0:
216,40,92269,1,0,0:0:0:0:
216,40,92350,1,0,0:0:0:0:
216,40,92432,1,0,0:0:0:0:
216,40,92513,1,8,0:0:0:0:
216,40,92675,1,0,0:0:0:0:
216,40,92756,1,0,0:0:0:0:
216,40,92837,1,8,0:0:0:0:
216,40,92999,1,0,0:0:0:0:
216,40,93080,1,0,0:0:0:0:
216,40,93161,1,8,0:0:0:0:
208,40,93242,1,8,0:0:0:0:
208,40,93323,1,8,0:0:0:0:
208,40,93404,1,8,0:0:0:0:
264,96,93485,5,0,0:0:0:0:
264,104,93647,1,8,0:0:0:0:
264,104,93809,1,8,0:0:0:0:
264,104,93971,1,0,0:0:0:0:
264,104,94133,1,0,0:0:0:0:
272,104,94295,1,8,0:0:0:0:
272,104,94457,1,8,0:0:0:0:
272,104,94620,1,0,0:0:0:0:
272,104,94782,1,0,0:0:0:0:
272,96,95106,1,8,0:0:0:0:
264,96,95268,1,8,0:0:0:0:
272,96,95430,1,0,0:0:0:0:
272,96,95755,1,8,0:0:0:0:
272,96,95917,1,0,0:0:0:0:
272,96,96079,1,0,0:0:0:0:
264,96,96403,1,8,0:0:0:0:
264,96,96728,1,0,0:0:0:0:
272,88,97052,1,8,0:0:0:0:
272,88,97376,1,0,0:0:0:0:
256,88,97701,1,8,0:0:0:0:
272,88,98025,1,8,0:0:0:0:
272,88,98187,1,0,0:0:0:0:
264,80,98349,1,8,0:0:0:0:
264,80,98511,1,8,0:0:0:0:
264,80,98674,1,0,0:0:0:0:
264,80,98836,1,8,0:0:0:0:
264,80,98998,1,8,0:0:0:0:
264,80,99160,1,0,0:0:0:0:
264,80,99322,1,0,0:0:0:0:
264,80,99484,1,8,0:0:0:0:
264,80,99647,1,8,0:0:0:0:
264,80,99809,1,0,0:0:0:0:
264,80,99971,1,0,0:0:0:0:
264,80,100295,1,8,0:0:0:0:
264,80,100457,1,8,0:0:0:0:
264,80,100620,1,0,0:0:0:0:
264,80,100944,1,8,0:0:0:0:
264,80,101106,1,0,0:0:0:0:
264,80,101269,1,0,0:0:0:0:
264,64,101621,1,0,0:0:0:0:
256,64,101974,1,0,0:0:0:0:
256,64,102155,1,8,0:0:0:0:
256,64,102337,1,8,0:0:0:0:
256,64,102525,1,0,0:0:0:0:
248,64,102725,1,0,0:0:0:0:
248,64,102940,1,8,0:0:0:0:
248,72,103174,1,0,0:0:0:0:
256,64,103446,1,8,0:0:0:0:
248,72,103798,1,0,0:0:0:0:
