osu file format v14

[General]
AudioFilename: audio.mp3
AudioLeadIn: 0
PreviewTime: 10135
Countdown: 0
SampleSet: Normal
StackLeniency: 0.7
Mode: 1
LetterboxInBreaks: 0
WidescreenStoryboard: 0

[Editor]
Bookmarks: 31216,51973,72729,93485
DistanceSpacing: 0.8
BeatDivisor: 4
GridSize: 8
TimelineZoom: 1.4

[Metadata]
Title:UP UP MT. CAKE
TitleUnicode:UP UP MT. CAKE
Artist:OISHII
ArtistUnicode:OISHII
Creator:Nifty
Version:Inner Oni
Source:
Tags:chiptune creamcore electronic happy kirby nes adventure hype nintendo videogame featured artist
BeatmapID:1406933
BeatmapSetID:664795

[Difficulty]
HPDrainRate:6
CircleSize:2
OverallDifficulty:6
ApproachRate:10
SliderMultiplier:1.4
SliderTickRate:1

[Events]
//Background and Video events
0,0,"mt cake.jpg",0,40
//Break Periods
//Storyboard Layer 0 (Background)
//Storyboard Layer 1 (Fail)
//Storyboard Layer 2 (Pass)
//Storyboard Layer 3 (Foreground)
//Storyboard Sound Samples

[TimingPoints]
82,324.319065096242,4,1,0,50,1,0
82,-125,4,1,0,50,0,0
10460,-100,4,1,0,70,0,0
51973,-100,4,1,0,70,0,1
72729,-100,4,1,0,70,0,0
93485,-100,4,1,0,50,0,0
93648,-102.040816326531,4,1,0,50,0,0
93810,-104.166666666667,4,1,0,50,0,0
93972,-106.382978723404,4,1,0,50,0,0
94134,-108.695652173913,4,1,0,50,0,0
94296,-111.111111111111,4,1,0,50,0,0
94458,-113.636363636364,4,1,0,50,0,0
94539,-114.942528735632,4,1,0,50,0,0
94621,-116.279069767442,4,1,0,50,0,0
94702,-117.647058823529,4,1,0,50,0,0
94783,-119.047619047619,4,1,0,50,0,0
94945,-121.951219512195,4,1,0,50,0,0
95107,-123.456790123457,4,1,0,50,0,0
95269,-125,4,1,0,50,0,0
101269,352.941176470588,4,1,0,50,1,0
101269,-117.647058823529,4,1,0,50,0,0
101445,-121.951219512195,4,1,0,50,0,0
101621,-126.582278481013,4,1,0,50,0,0
101798,-131.578947368421,4,1,0,50,0,0
101974,363.636363636364,4,1,0,50,1,8
101974,-128.205128205129,4,1,0,50,0,8
102155,-131.578947368421,4,1,0,50,0,8
102337,377.358490566038,4,1,0,50,1,8
102337,-128.205128205129,4,1,0,50,0,8
102525,400,4,1,0,50,1,8
102525,-126.582278481013,4,1,0,50,0,8
102725,431.654676258993,4,1,0,50,1,0
102725,-121.951219512195,4,1,0,50,0,0
102940,468.75,4,1,0,50,1,8
102940,-119.047619047619,4,1,0,50,0,8
103174,545.454545454546,4,1,0,50,1,8
103174,-111.111111111111,4,1,0,50,0,8
103446,705.882352941176,4,1,0,50,1,8
103446,-90.9090909090909,4,1,0,50,0,8
103798,750,4,1,0,50,1,0
103798,-90.9090909090909,4,1,0,50,0,0

[HitObjects]
256,104,82,5,0,0:0:0:0:
256,104,244,1,8,0:0:0:0:
256,104,406,1,8,0:0:0:0:
256,104,568,1,0,0:0:0:0:
256,96,730,1,0,0:0:0:0:
256,104,892,1,8,0:0:0:0:
248,88,1054,1,0,0:0:0:0:
248,96,1135,1,0,0:0:0:0:
248,88,1216,1,8,0:0:0:0:
256,104,1298,1,8,0:0:0:0:
248,112,1379,1,0,0:0:0:0:
240,80,1541,1,8,0:0:0:0:
240,80,1703,1,8,0:0:0:0:
232,64,1865,1,0,0:0:0:0:
240,80,2027,1,0,0:0:0:0:
240,80,2190,1,8,0:0:0:0:
248,88,2271,1,0,0:0:0:0:
240,80,2352,1,8,0:0:0:0:
240,80,2514,1,8,0:0:0:0:
240,80,2676,1,0,0:0:0:0:
240,72,3000,1,8,0:0:0:0:
232,72,3325,1,0,0:0:0:0:
232,72,3649,1,8,0:0:0:0:
232,72,3973,1,0,0:0:0:0:
232,72,4298,1,8,0:0:0:0:
232,72,4622,1,8,0:0:0:0:
232,72,4784,1,0,0:0:0:0:
232,72,4946,1,8,0:0:0:0:
224,64,5108,1,8,0:0:0:0:
224,64,5271,1,0,0:0:0:0:
224,64,5433,1,8,0:0:0:0:
224,64,5595,1,8,0:0:0:0:
224,64,5757,1,0,0:0:0:0:
224,64,5919,1,0,0:0:0:0:
224,64,6081,1,8,0:0:0:0:
232,64,6244,1,0,0:0:0:0:
224,48,6325,1,0,0:0:0:0:
224,64,6406,1,8,0:0:0:0:
224,64,6487,1,8,0:0:0:0:
224,64,6568,1,0,0:0:0:0:
224,56,6730,1,8,0:0:0:0:
224,56,6892,1,8,0:0:0:0:
224,64,7054,1,0,0:0:0:0:
224,56,7217,1,0,0:0:0:0:
224,56,7379,1,8,0:0:0:0:
224,56,7460,1,0,0:0:0:0:
224,56,7541,1,8,0:0:0:0:
224,56,7703,1,8,0:0:0:0:
224,56,7865,1,0,0:0:0:0:
224,56,8027,1,8,0:0:0:0:
224,56,8189,1,0,0:0:0:0:
224,56,8352,1,8,0:0:0:0:
224,56,8514,1,0,0:0:0:0:
232,64,8676,1,8,0:0:0:0:
232,64,8838,1,8,0:0:0:0:
232,64,9000,1,0,0:0:0:0:
208,136,9162,2,0,L|264:136,4,56
224,64,10460,1,4,0:0:0:0:
224,64,10622,1,8,0:0:0:0:
224,56,10703,1,8,0:0:0:0:
224,56,10784,1,0,0:0:0:0:
224,64,10946,1,8,0:0:0:0:
216,48,11108,1,0,0:0:0:0:
224,64,11189,1,0,0:0:0:0:
224,64,11271,1,8,0:0:0:0:
224,64,11433,1,0,0:0:0:0:
224,48,11514,1,0,0:0:0:0:
224,48,11595,1,8,0:0:0:0:
240,56,11676,1,8,0:0:0:0:
224,56,11757,1,0,0:0:0:0:
224,48,11919,1,8,0:0:0:0:
224,48,12000,1,0,0:0:0:0:
224,48,12081,1,8,0:0:0:0:
232,56,12243,1,0,0:0:0:0:
232,56,12406,1,0,0:0:0:0:
232,56,12568,1,8,0:0:0:0:
232,56,12649,1,0,0:0:0:0:
232,56,12730,1,8,0:0:0:0:
232,56,12892,1,8,0:0:0:0:
232,56,13054,1,0,0:0:0:0:
224,48,13216,1,0,0:0:0:0:
216,48,13379,1,8,0:0:0:0:
216,48,13541,1,8,0:0:0:0:
224,48,13703,1,0,0:0:0:0:
224,48,13865,1,0,0:0:0:0:
224,48,14027,1,8,0:0:0:0:
224,48,14189,1,8,0:0:0:0:
224,48,14352,1,0,0:0:0:0:
216,48,14514,1,8,0:0:0:0:
224,48,14595,1,0,0:0:0:0:
224,48,14676,1,8,0:0:0:0:
224,48,14838,1,0,0:0:0:0:
224,48,15000,1,8,0:0:0:0:
224,56,15162,1,0,0:0:0:0:
224,56,15324,1,0,0:0:0:0:
224,56,15406,1,8,0:0:0:0:
224,56,15487,1,8,0:0:0:0:
224,56,15649,1,12,0:0:0:0:
216,48,15811,1,0,0:0:0:0:
216,56,15892,1,8,0:0:0:0:
216,56,15973,1,0,0:0:0:0:
216,56,16135,1,8,0:0:0:0:
216,48,16297,1,0,0:0:0:0:
216,48,16379,1,0,0:0:0:0:
216,48,16460,1,8,0:0:0:0:
216,48,16622,1,0,0:0:0:0:
216,56,16703,1,0,0:0:0:0:
216,48,16784,1,8,0:0:0:0:
216,48,16865,1,0,0:0:0:0:
216,48,16946,1,8,0:0:0:0:
216,56,17108,1,8,0:0:0:0:
216,48,17189,1,0,0:0:0:0:
216,48,17270,1,8,0:0:0:0:
216,56,17433,1,0,0:0:0:0:
216,48,17595,1,8,0:0:0:0:
216,56,17757,1,8,0:0:0:0:
216,56,17838,1,0,0:0:0:0:
216,56,17919,1,8,0:0:0:0:
216,56,18081,1,8,0:0:0:0:
216,48,18243,1,0,0:0:0:0:
216,56,18406,1,8,0:0:0:0:
216,48,18568,1,0,0:0:0:0:
216,56,18730,1,8,0:0:0:0:
216,56,18892,1,0,0:0:0:0:
216,56,19054,1,8,0:0:0:0:
208,48,19216,1,8,0:0:0:0:
208,48,19378,1,0,0:0:0:0:
184,176,19541,2,0,L|264:176,4,70
192,40,20351,1,0,0:0:0:0:
200,48,20433,1,0,0:0:0:0:
200,48,20514,1,8,0:0:0:0:
200,48,20595,1,8,0:0:0:0:
200,48,20676,1,8,0:0:0:0:
200,48,20757,1,8,0:0:0:0:
200,48,20838,1,0,0:0:0:0:
192,48,21000,1,8,0:0:0:0:
192,48,21081,1,8,0:0:0:0:
192,48,21162,1,0,0:0:0:0:
192,40,21324,1,8,0:0:0:0:
200,48,21487,1,0,0:0:0:0:
200,48,21568,1,0,0:0:0:0:
200,48,21649,1,8,0:0:0:0:
192,40,21811,1,0,0:0:0:0:
200,48,21892,1,0,0:0:0:0:
200,48,21973,1,8,0:0:0:0:
216,48,22054,1,8,0:0:0:0:
216,48,22135,1,0,0:0:0:0:
200,48,22297,1,8,0:0:0:0:
200,48,22378,1,0,0:0:0:0:
200,48,22460,1,8,0:0:0:0:
200,48,22622,1,0,0:0:0:0:
200,48,22784,1,0,0:0:0:0:
200,48,22946,1,8,0:0:0:0:
200,48,23027,1,0,0:0:0:0:
200,48,23108,1,8,0:0:0:0:
200,48,23270,1,8,0:0:0:0:
200,40,23432,1,8,0:0:0:0:
200,48,23514,1,0,0:0:0:0:
200,48,23595,1,8,0:0:0:0:
200,48,23676,1,8,0:0:0:0:
200,40,23757,1,0,0:0:0:0:
200,48,23919,1,8,0:0:0:0:
200,40,24081,1,0,0:0:0:0:
200,40,24162,1,8,0:0:0:0:
200,32,24243,1,8,0:0:0:0:
192,48,24324,1,0,0:0:0:0:
200,48,24405,1,8,0:0:0:0:
200,40,24568,1,8,0:0:0:0:
200,48,24649,1,8,0:0:0:0:
200,48,24730,1,0,0:0:0:0:
200,40,24892,1,8,0:0:0:0:
200,40,24973,1,0,0:0:0:0:
200,40,25054,1,8,0:0:0:0:
88,136,25216,1,0,0:0:0:0:
200,32,25378,1,8,0:0:0:0:
208,32,25541,1,0,0:0:0:0:
184,48,25703,1,0,0:0:0:0:
208,32,25784,1,8,0:0:0:0:
208,32,25865,1,8,0:0:0:0:
200,32,26027,1,8,0:0:0:0:
200,32,26189,1,0,0:0:0:0:
216,40,26270,1,8,0:0:0:0:
200,32,26351,1,0,0:0:0:0:
200,24,26514,1,8,0:0:0:0:
192,32,26676,1,0,0:0:0:0:
200,32,26757,1,0,0:0:0:0:
200,32,26838,1,8,0:0:0:0:
200,32,27000,1,0,0:0:0:0:
200,32,27081,1,0,0:0:0:0:
200,32,27162,1,8,0:0:0:0:
200,32,27243,1,0,0:0:0:0:
200,32,27324,1,8,0:0:0:0:
200,32,27486,1,8,0:0:0:0:
200,32,27568,1,0,0:0:0:0:
200,32,27649,1,8,0:0:0:0:
200,32,27811,1,0,0:0:0:0:
200,32,27973,1,0,0:0:0:0:
200,32,28135,1,8,0:0:0:0:
200,32,28216,1,0,0:0:0:0:
200,32,28297,1,8,0:0:0:0:
200,32,28459,1,8,0:0:0:0:
200,32,28622,1,0,0:0:0:0:
192,24,28784,1,8,0:0:0:0:
192,24,28946,1,0,0:0:0:0:
192,24,29108,1,8,0:0:0:0:
192,24,29270,1,0,0:0:0:0:
192,24,29432,1,8,0:0:0:0:
192,24,29595,1,8,0:0:0:0:
192,24,29757,1,0,0:0:0:0:
248,144,29919,2,0,L|320:144,4,70
200,32,30730,1,0,0:0:0:0:
200,32,30811,1,0,0:0:0:0:
200,32,30892,1,8,0:0:0:0:
200,32,30973,1,8,0:0:0:0:
200,32,31054,1,8,0:0:0:0:
200,32,31135,1,8,0:0:0:0:
200,32,31216,1,0,0:0:0:0:
200,24,31378,1,0,0:0:0:0:
192,48,31540,1,8,0:0:0:0:
200,48,31703,1,0,0:0:0:0:
208,40,32027,1,0,0:0:0:0:
208,48,32189,1,8,0:0:0:0:
208,32,32351,1,8,0:0:0:0:
208,48,32513,1,0,0:0:0:0:
208,48,32676,1,8,0:0:0:0:
208,48,32757,1,0,0:0:0:0:
208,48,32838,1,8,0:0:0:0:
208,48,33000,1,0,0:0:0:0:
216,48,33081,1,8,0:0:0:0:
216,48,33162,1,0,0:0:0:0:
208,32,33324,1,0,0:0:0:0:
224,48,33405,1,0,0:0:0:0:
208,48,33486,1,8,0:0:0:0:
208,48,33649,1,0,0:0:0:0:
224,48,33730,1,8,0:0:0:0:
216,48,33811,1,8,0:0:0:0:
216,40,33973,1,0,0:0:0:0:
224,48,34135,1,8,0:0:0:0:
216,40,34297,1,8,0:0:0:0:
216,32,34621,1,0,0:0:0:0:
224,48,34784,1,8,0:0:0:0:
224,40,34946,1,0,0:0:0:0:
232,40,35108,1,0,0:0:0:0:
232,40,35270,1,8,0:0:0:0:
224,40,35432,1,8,0:0:0:0:
224,40,35594,1,0,0:0:0:0:
216,32,35757,1,0,0:0:0:0:
216,32,35838,1,0,0:0:0:0:
216,32,35919,1,8,0:0:0:0:
216,32,36000,1,0,0:0:0:0:
216,32,36081,1,8,0:0:0:0:
216,32,36162,1,8,0:0:0:0:
216,32,36243,1,8,0:0:0:0:
216,32,36324,1,8,0:0:0:0:
216,32,36405,1,0,0:0:0:0:
216,40,36567,1,0,0:0:0:0:
216,32,36730,1,8,0:0:0:0:
216,32,36892,1,0,0:0:0:0:
216,32,37216,1,0,0:0:0:0:
216,32,37378,1,8,0:0:0:0:
216,32,37540,1,8,0:0:0:0:
208,40,37703,1,0,0:0:0:0:
224,48,37784,1,0,0:0:0:0:
216,40,37865,1,8,0:0:0:0:
216,40,37946,1,0,0:0:0:0:
216,40,38027,1,8,0:0:0:0:
216,48,38108,1,8,0:0:0:0:
216,40,38189,1,0,0:0:0:0:
224,56,38270,1,0,0:0:0:0:
224,40,38351,1,8,0:0:0:0:
224,56,38432,1,0,0:0:0:0:
224,56,38513,1,8,0:0:0:0:
216,40,38594,1,0,0:0:0:0:
224,32,38675,1,8,0:0:0:0:
216,40,38757,1,0,0:0:0:0:
224,32,38838,1,0,0:0:0:0:
216,40,38919,1,8,0:0:0:0:
216,40,39000,1,0,0:0:0:0:
216,40,39162,1,0,0:0:0:0:
232,32,39324,1,8,0:0:0:0:
224,32,39486,1,0,0:0:0:0:
216,32,39648,1,0,0:0:0:0:
224,32,39811,1,8,0:0:0:0:
224,32,39973,1,8,0:0:0:0:
224,32,40135,1,0,0:0:0:0:
224,32,40297,1,12,0:0:0:0:
224,32,40459,1,0,0:0:0:0:
224,32,40621,1,0,0:0:0:0:
224,32,40784,1,12,0:0:0:0:
224,32,41108,1,8,0:0:0:0:
224,32,41189,1,0,0:0:0:0:
224,32,41270,1,8,0:0:0:0:
224,32,41351,1,0,0:0:0:0:
224,32,41432,1,8,0:0:0:0:
224,32,41513,1,0,0:0:0:0:
224,32,41594,1,0,0:0:0:0:
224,32,41756,1,0,0:0:0:0:
224,32,41919,1,8,0:0:0:0:
224,32,42081,1,8,0:0:0:0:
216,32,42405,1,0,0:0:0:0:
224,32,42567,1,8,0:0:0:0:
232,40,42729,1,8,0:0:0:0:
208,40,42892,1,0,0:0:0:0:
208,40,43054,1,8,0:0:0:0:
208,40,43135,1,0,0:0:0:0:
208,40,43216,1,8,0:0:0:0:
216,32,43378,1,0,0:0:0:0:
216,32,43459,1,0,0:0:0:0:
216,32,43540,1,8,0:0:0:0:
216,32,43702,1,0,0:0:0:0:
216,32,43783,1,8,0:0:0:0:
216,32,43865,1,0,0:0:0:0:
208,32,44027,1,0,0:0:0:0:
208,32,44108,1,8,0:0:0:0:
208,32,44189,1,8,0:0:0:0:
216,32,44351,1,0,0:0:0:0:
216,32,44513,1,8,0:0:0:0:
200,32,44675,1,0,0:0:0:0:
208,32,45000,1,0,0:0:0:0:
208,32,45162,1,8,0:0:0:0:
200,40,45324,1,0,0:0:0:0:
200,40,45486,1,8,0:0:0:0:
200,32,45648,1,8,0:0:0:0:
200,40,45810,1,0,0:0:0:0:
200,40,45973,1,8,0:0:0:0:
216,40,46135,1,8,0:0:0:0:
200,40,46297,1,0,0:0:0:0:
216,40,46459,1,8,0:0:0:0:
208,32,46621,1,0,0:0:0:0:
208,32,46702,1,0,0:0:0:0:
208,32,46783,1,8,0:0:0:0:
208,32,46946,1,0,0:0:0:0:
208,40,47108,1,8,0:0:0:0:
216,56,47270,1,8,0:0:0:0:
208,40,47432,1,0,0:0:0:0:
208,40,47594,1,8,0:0:0:0:
208,64,47756,1,8,0:0:0:0:
208,64,47919,1,0,0:0:0:0:
208,40,48081,1,8,0:0:0:0:
208,56,48189,1,0,0:0:0:0:
208,56,48297,1,8,0:0:0:0:
208,56,48405,1,8,0:0:0:0:
208,56,48513,1,0,0:0:0:0:
208,56,48621,1,8,0:0:0:0:
192,56,48729,1,8,0:0:0:0:
192,56,48837,1,0,0:0:0:0:
192,56,48946,1,8,0:0:0:0:
192,56,49054,1,8,0:0:0:0:
208,56,49162,1,0,0:0:0:0:
208,56,49270,1,0,0:0:0:0:
208,56,49378,1,8,0:0:0:0:
208,56,49540,1,0,0:0:0:0:
200,56,49702,1,8,0:0:0:0:
200,56,49864,1,8,0:0:0:0:
200,56,50189,1,0,0:0:0:0:
200,56,50351,1,8,0:0:0:0:
200,56,50513,1,0,0:0:0:0:
200,56,50675,1,8,0:0:0:0:
200,56,50756,1,0,0:0:0:0:
200,56,50837,1,0,0:0:0:0:
200,56,50919,1,0,0:0:0:0:
200,56,51000,1,8,0:0:0:0:
192,64,51081,1,8,0:0:0:0:
192,64,51162,1,0,0:0:0:0:
192,64,51243,1,0,0:0:0:0:
192,64,51324,1,8,0:0:0:0:
192,64,51486,1,0,0:0:0:0:
192,64,51567,1,0,0:0:0:0:
192,64,51648,1,8,0:0:0:0:
192,64,51729,1,8,0:0:0:0:
192,64,51810,1,8,0:0:0:0:
192,64,51891,1,8,0:0:0:0:
192,64,51973,1,0,0:0:0:0:
200,80,52135,1,8,0:0:0:0:
200,80,52216,1,8,0:0:0:0:
192,80,52297,1,0,0:0:0:0:
208,80,52459,1,8,0:0:0:0:
208,80,52621,1,0,0:0:0:0:
200,64,52702,1,8,0:0:0:0:
200,64,52783,1,0,0:0:0:0:
208,64,52946,1,0,0:0:0:0:
208,64,53027,1,0,0:0:0:0:
208,64,53108,1,8,0:0:0:0:
192,56,53189,1,8,0:0:0:0:
208,64,53270,1,0,0:0:0:0:
216,64,53432,1,8,0:0:0:0:
200,64,53513,1,0,0:0:0:0:
200,64,53594,1,8,0:0:0:0:
200,64,53756,1,0,0:0:0:0:
200,80,53918,1,0,0:0:0:0:
208,64,54081,1,8,0:0:0:0:
208,64,54162,1,0,0:0:0:0:
208,64,54243,1,8,0:0:0:0:
216,64,54405,1,8,0:0:0:0:
208,64,54567,1,0,0:0:0:0:
216,64,54729,1,8,0:0:0:0:
216,64,54891,1,8,0:0:0:0:
216,64,55054,1,0,0:0:0:0:
216,64,55216,1,0,0:0:0:0:
216,64,55378,1,8,0:0:0:0:
216,64,55540,1,8,0:0:0:0:
216,64,55702,1,0,0:0:0:0:
216,64,55864,1,0,0:0:0:0:
208,72,56027,1,8,0:0:0:0:
208,72,56108,1,0,0:0:0:0:
208,72,56189,1,8,0:0:0:0:
208,72,56351,1,0,0:0:0:0:
208,72,56513,1,8,0:0:0:0:
208,72,56675,1,0,0:0:0:0:
208,80,56837,1,0,0:0:0:0:
208,72,56918,1,8,0:0:0:0:
208,72,56999,1,8,0:0:0:0:
208,72,57162,1,0,0:0:0:0:
208,72,57324,1,8,0:0:0:0:
216,64,57405,1,8,0:0:0:0:
208,64,57486,1,0,0:0:0:0:
216,64,57648,1,8,0:0:0:0:
216,64,57810,1,0,0:0:0:0:
216,64,57891,1,0,0:0:0:0:
216,64,57972,1,8,0:0:0:0:
216,56,58135,1,0,0:0:0:0:
216,56,58216,1,0,0:0:0:0:
216,56,58297,1,8,0:0:0:0:
192,56,58378,1,0,0:0:0:0:
192,56,58459,1,8,0:0:0:0:
208,56,58621,1,8,0:0:0:0:
208,56,58702,1,0,0:0:0:0:
208,56,58783,1,8,0:0:0:0:
208,56,58945,1,0,0:0:0:0:
208,56,59108,1,0,0:0:0:0:
208,56,59270,1,8,0:0:0:0:
200,56,59351,1,0,0:0:0:0:
200,56,59432,1,8,0:0:0:0:
208,56,59594,1,8,0:0:0:0:
208,56,59756,1,0,0:0:0:0:
200,48,59918,1,8,0:0:0:0:
200,48,60081,1,0,0:0:0:0:
200,48,60243,1,8,0:0:0:0:
200,56,60405,1,0,0:0:0:0:
200,48,60567,1,8,0:0:0:0:
200,48,60729,1,8,0:0:0:0:
200,48,60891,1,0,0:0:0:0:
352,136,61053,2,0,L|440:144,4,70
200,48,61864,1,0,0:0:0:0:
200,48,61945,1,0,0:0:0:0:
200,48,62026,1,8,0:0:0:0:
200,48,62108,1,8,0:0:0:0:
200,48,62189,1,8,0:0:0:0:
200,48,62270,1,8,0:0:0:0:
200,48,62351,1,0,0:0:0:0:
200,48,62513,1,8,0:0:0:0:
200,48,62594,1,8,0:0:0:0:
200,40,62675,1,0,0:0:0:0:
208,40,62837,1,8,0:0:0:0:
208,40,62999,1,0,0:0:0:0:
200,48,63080,1,8,0:0:0:0:
200,48,63162,1,0,0:0:0:0:
208,48,63324,1,0,0:0:0:0:
208,48,63405,1,0,0:0:0:0:
208,48,63486,1,8,0:0:0:0:
208,40,63567,1,8,0:0:0:0:
208,48,63648,1,0,0:0:0:0:
208,48,63810,1,8,0:0:0:0:
208,48,63891,1,0,0:0:0:0:
208,48,63972,1,8,0:0:0:0:
208,48,64135,1,0,0:0:0:0:
208,48,64297,1,0,0:0:0:0:
208,48,64459,1,8,0:0:0:0:
208,48,64540,1,0,0:0:0:0:
208,48,64621,1,8,0:0:0:0:
208,48,64783,1,8,0:0:0:0:
208,48,64945,1,0,0:0:0:0:
208,48,65026,1,8,0:0:0:0:
208,40,65107,1,8,0:0:0:0:
200,32,65189,1,0,0:0:0:0:
200,48,65270,1,8,0:0:0:0:
200,40,65432,1,0,0:0:0:0:
200,40,65594,1,8,0:0:0:0:
200,32,65675,1,0,0:0:0:0:
200,32,65756,1,8,0:0:0:0:
192,48,65837,1,8,0:0:0:0:
200,48,65918,1,0,0:0:0:0:
200,48,66080,1,8,0:0:0:0:
224,56,66243,1,0,0:0:0:0:
200,40,66405,1,8,0:0:0:0:
200,40,66486,1,0,0:0:0:0:
200,40,66567,1,8,0:0:0:0:
200,40,66729,1,0,0:0:0:0:
200,40,66891,1,8,0:0:0:0:
192,32,67053,1,0,0:0:0:0:
200,48,67216,1,0,0:0:0:0:
192,32,67297,1,8,0:0:0:0:
208,40,67378,1,8,0:0:0:0:
200,40,67540,1,0,0:0:0:0:
192,32,67702,1,8,0:0:0:0:
192,32,67783,1,8,0:0:0:0:
192,32,67864,1,0,0:0:0:0:
192,32,68026,1,8,0:0:0:0:
192,32,68189,1,0,0:0:0:0:
200,32,68270,1,0,0:0:0:0:
192,32,68351,1,8,0:0:0:0:
184,40,68513,1,0,0:0:0:0:
184,48,68594,1,0,0:0:0:0:
192,40,68675,1,8,0:0:0:0:
200,32,68756,1,0,0:0:0:0:
200,32,68837,1,8,0:0:0:0:
184,48,68999,1,8,0:0:0:0:
184,48,69080,1,0,0:0:0:0:
184,48,69161,1,8,0:0:0:0:
184,48,69324,1,0,0:0:0:0:
184,40,69486,1,0,0:0:0:0:
184,40,69648,1,8,0:0:0:0:
184,40,69729,1,0,0:0:0:0:
184,40,69810,1,8,0:0:0:0:
184,48,69972,1,8,0:0:0:0:
184,48,70134,1,0,0:0:0:0:
184,48,70297,1,8,0:0:0:0:
184,48,70459,1,0,0:0:0:0:
184,48,70621,1,8,0:0:0:0:
184,48,70783,1,0,0:0:0:0:
184,48,70945,1,8,0:0:0:0:
184,48,71107,1,8,0:0:0:0:
184,48,71270,1,0,0:0:0:0:
176,136,71432,2,0,L|256:136,4,70
184,48,72242,1,0,0:0:0:0:
184,48,72324,1,0,0:0:0:0:
184,48,72405,1,8,0:0:0:0:
184,48,72486,1,8,0:0:0:0:
184,48,72567,1,8,0:0:0:0:
184,48,72648,1,8,0:0:0:0:
184,48,72729,1,0,0:0:0:0:
200,40,72891,1,0,0:0:0:0:
184,48,73053,1,8,0:0:0:0:
184,48,73215,1,0,0:0:0:0:
208,40,73540,1,0,0:0:0:0:
184,48,73702,1,8,0:0:0:0:
200,40,73864,1,8,0:0:0:0:
184,48,74026,1,0,0:0:0:0:
184,48,74188,1,8,0:0:0:0:
184,48,74269,1,0,0:0:0:0:
184,48,74351,1,8,0:0:0:0:
184,48,74513,1,0,0:0:0:0:
192,40,74594,1,0,0:0:0:0:
192,40,74675,1,8,0:0:0:0:
184,48,74837,1,0,0:0:0:0:
192,40,74918,1,8,0:0:0:0:
192,40,74999,1,0,0:0:0:0:
176,48,75161,1,0,0:0:0:0:
192,40,75242,1,0,0:0:0:0:
192,40,75324,1,8,0:0:0:0:
192,40,75486,1,0,0:0:0:0:
176,48,75648,1,8,0:0:0:0:
184,48,75810,1,8,0:0:0:0:
184,48,76134,1,0,0:0:0:0:
176,48,76296,1,8,0:0:0:0:
192,40,76459,1,0,0:0:0:0:
184,40,76621,1,0,0:0:0:0:
184,48,76783,1,8,0:0:0:0:
184,40,76945,1,8,0:0:0:0:
184,40,77107,1,0,0:0:0:0:
184,40,77269,1,0,0:0:0:0:
184,40,77351,1,0,0:0:0:0:
184,40,77432,1,8,0:0:0:0:
184,40,77513,1,0,0:0:0:0:
184,40,77594,1,8,0:0:0:0:
184,40,77675,1,8,0:0:0:0:
184,40,77756,1,8,0:0:0:0:
184,40,77837,1,8,0:0:0:0:
184,40,77918,1,0,0:0:0:0:
192,40,78080,1,0,0:0:0:0:
184,40,78242,1,8,0:0:0:0:
184,40,78405,1,0,0:0:0:0:
176,40,78729,1,0,0:0:0:0:
184,40,78891,1,8,0:0:0:0:
192,48,79053,1,8,0:0:0:0:
192,48,79215,1,0,0:0:0:0:
184,40,79296,1,0,0:0:0:0:
184,40,79378,1,8,0:0:0:0:
192,48,79459,1,0,0:0:0:0:
192,48,79540,1,8,0:0:0:0:
192,48,79621,1,8,0:0:0:0:
192,48,79702,1,0,0:0:0:0:
192,48,79783,1,0,0:0:0:0:
184,40,79864,1,8,0:0:0:0:
184,40,79945,1,0,0:0:0:0:
184,40,80026,1,8,0:0:0:0:
184,40,80107,1,0,0:0:0:0:
184,40,80188,1,8,0:0:0:0:
184,40,80269,1,0,0:0:0:0:
184,40,80350,1,0,0:0:0:0:
184,40,80432,1,8,0:0:0:0:
184,40,80513,1,0,0:0:0:0:
176,48,80675,1,0,0:0:0:0:
176,32,80837,1,8,0:0:0:0:
176,32,80999,1,0,0:0:0:0:
192,40,81161,1,0,0:0:0:0:
192,40,81323,1,8,0:0:0:0:
176,32,81486,1,8,0:0:0:0:
184,48,81648,1,0,0:0:0:0:
176,32,81810,1,12,0:0:0:0:
176,32,81972,1,0,0:0:0:0:
176,32,82134,1,0,0:0:0:0:
176,32,82296,1,12,0:0:0:0:
176,32,82621,1,8,0:0:0:0:
192,40,82702,1,0,0:0:0:0:
176,32,82783,1,8,0:0:0:0:
192,40,82864,1,0,0:0:0:0:
176,32,82945,1,8,0:0:0:0:
192,40,83026,1,0,0:0:0:0:
176,32,83107,1,0,0:0:0:0:
184,40,83269,1,0,0:0:0:0:
184,40,83431,1,8,0:0:0:0:
176,32,83594,1,8,0:0:0:0:
176,40,83918,1,0,0:0:0:0:
184,40,84080,1,8,0:0:0:0:
176,40,84242,1,0,0:0:0:0:
184,40,84404,1,8,0:0:0:0:
184,40,84567,1,0,0:0:0:0:
184,40,84648,1,8,0:0:0:0:
184,40,84729,1,0,0:0:0:0:
184,40,84891,1,8,0:0:0:0:
184,40,84972,1,8,0:0:0:0:
184,40,85053,1,0,0:0:0:0:
184,40,85215,1,8,0:0:0:0:
184,40,85296,1,0,0:0:0:0:
184,40,85377,1,8,0:0:0:0:
184,40,85540,1,0,0:0:0:0:
184,40,85621,1,0,0:0:0:0:
184,40,85702,1,8,0:0:0:0:
184,40,85864,1,0,0:0:0:0:
184,40,86026,1,0,0:0:0:0:
184,40,86188,1,8,0:0:0:0:
176,40,86513,1,0,0:0:0:0:
192,40,86675,1,8,0:0:0:0:
192,40,86837,1,0,0:0:0:0:
184,32,86999,1,8,0:0:0:0:
184,40,87161,1,8,0:0:0:0:
184,32,87323,1,0,0:0:0:0:
176,40,87485,1,8,0:0:0:0:
168,40,87648,1,8,0:0:0:0:
168,40,87810,1,0,0:0:0:0:
176,40,87972,1,8,0:0:0:0:
176,40,88134,1,0,0:0:0:0:
176,40,88215,1,0,0:0:0:0:
176,40,88296,1,8,0:0:0:0:
176,40,88458,1,0,0:0:0:0:
176,32,88621,1,8,0:0:0:0:
176,32,88783,1,8,0:0:0:0:
176,32,88945,1,0,0:0:0:0:
176,32,89107,1,8,0:0:0:0:
176,32,89269,1,8,0:0:0:0:
184,32,89431,1,0,0:0:0:0:
208,40,89594,1,8,0:0:0:0:
208,56,89702,1,0,0:0:0:0:
208,56,89810,1,8,0:0:0:0:
208,56,89918,1,8,0:0:0:0:
208,56,90026,1,0,0:0:0:0:
208,56,90134,1,8,0:0:0:0:
192,56,90242,1,8,0:0:0:0:
192,56,90350,1,0,0:0:0:0:
192,56,90459,1,8,0:0:0:0:
192,64,90567,1,8,0:0:0:0:
208,56,90675,1,0,0:0:0:0:
208,56,90783,1,0,0:0:0:0:
208,56,90891,1,8,0:0:0:0:
208,56,91053,1,0,0:0:0:0:
200,56,91215,1,8,0:0:0:0:
200,56,91377,1,8,0:0:0:0:
200,56,91702,1,0,0:0:0:0:
208,56,91864,1,8,0:0:0:0:
208,56,92026,1,8,0:0:0:0:
200,56,92188,1,0,0:0:0:0:
200,56,92269,1,0,0:0:0:0:
200,64,92350,1,8,0:0:0:0:
200,64,92431,1,8,0:0:0:0:
200,64,92512,1,0,0:0:0:0:
200,72,92594,1,0,0:0:0:0:
200,72,92675,1,8,0:0:0:0:
200,56,92756,1,0,0:0:0:0:
200,56,92837,1,8,0:0:0:0:
200,56,92999,1,0,0:0:0:0:
200,56,93080,1,0,0:0:0:0:
200,56,93161,1,8,0:0:0:0:
200,56,93242,1,8,0:0:0:0:
200,56,93323,1,8,0:0:0:0:
200,56,93404,1,8,0:0:0:0:
256,104,93485,5,0,0:0:0:0:
256,104,93647,1,8,0:0:0:0:
256,104,93809,1,8,0:0:0:0:
256,104,93971,1,0,0:0:0:0:
256,104,94133,1,0,0:0:0:0:
256,104,94295,1,8,0:0:0:0:
256,104,94457,1,0,0:0:0:0:
248,96,94539,1,0,0:0:0:0:
256,104,94620,1,8,0:0:0:0:
256,104,94702,1,8,0:0:0:0:
256,96,94783,1,0,0:0:0:0:
240,80,94944,1,8,0:0:0:0:
240,80,95106,1,8,0:0:0:0:
232,64,95268,1,0,0:0:0:0:
240,80,95430,1,0,0:0:0:0:
240,80,95593,1,8,0:0:0:0:
240,80,95674,1,0,0:0:0:0:
240,80,95755,1,8,0:0:0:0:
240,80,95917,1,8,0:0:0:0:
240,80,96079,1,0,0:0:0:0:
240,72,96403,1,8,0:0:0:0:
232,72,96728,1,0,0:0:0:0:
232,72,97052,1,8,0:0:0:0:
232,72,97376,1,0,0:0:0:0:
232,72,97701,1,8,0:0:0:0:
232,72,98025,1,8,0:0:0:0:
232,72,98187,1,0,0:0:0:0:
232,72,98349,1,8,0:0:0:0:
224,64,98511,1,8,0:0:0:0:
224,64,98674,1,0,0:0:0:0:
224,64,98836,1,8,0:0:0:0:
224,64,98998,1,8,0:0:0:0:
224,64,99160,1,0,0:0:0:0:
224,64,99322,1,0,0:0:0:0:
224,64,99484,1,8,0:0:0:0:
224,64,99647,1,0,0:0:0:0:
224,48,99729,1,0,0:0:0:0:
224,64,99809,1,8,0:0:0:0:
224,64,99891,1,8,0:0:0:0:
224,56,99971,1,0,0:0:0:0:
224,56,100133,1,8,0:0:0:0:
224,56,100295,1,8,0:0:0:0:
224,64,100457,1,0,0:0:0:0:
224,56,100620,1,0,0:0:0:0:
224,56,100782,1,8,0:0:0:0:
224,56,100863,1,0,0:0:0:0:
224,56,100944,1,8,0:0:0:0:
224,56,101106,1,8,0:0:0:0:
224,56,101269,1,0,0:0:0:0:
224,56,101445,1,8,0:0:0:0:
224,64,101621,1,0,0:0:0:0:
224,56,101798,1,8,0:0:0:0:
224,56,101974,1,0,0:0:0:0:
224,56,102155,1,8,0:0:0:0:
224,56,102337,1,8,0:0:0:0:
224,64,102525,1,0,0:0:0:0:
208,56,102725,1,0,0:0:0:0:
208,56,102940,1,8,0:0:0:0:
224,56,103174,1,0,0:0:0:0:
216,56,103446,1,8,0:0:0:0:
224,56,103798,1,0,0:0:0:0:
