osu file format v14

[General]
AudioFilename: audio.mp3
AudioLeadIn: 0
PreviewTime: 10135
Countdown: 0
SampleSet: Normal
StackLeniency: 0.7
Mode: 1
LetterboxInBreaks: 0
WidescreenStoryboard: 0

[Editor]
Bookmarks: 31216,51973,72729,93485
DistanceSpacing: 0.8
BeatDivisor: 6
GridSize: 8
TimelineZoom: 1.4

[Metadata]
Title:UP UP MT. CAKE
TitleUnicode:UP UP MT. CAKE
Artist:OISHII
ArtistUnicode:OISHII
Creator:Nifty
Version:Muzukashii
Source:
Tags:chiptune creamcore electronic happy kirby nes adventure hype nintendo videogame featured artist
BeatmapID:1456026
BeatmapSetID:664795

[Difficulty]
HPDrainRate:6
CircleSize:2
OverallDifficulty:4
ApproachRate:10
SliderMultiplier:1.4
SliderTickRate:1

[Events]
//Background and Video events
0,0,"mt cake.jpg",0,40
//Break Periods
//Storyboard Layer 0 (Background)
//Storyboard Layer 1 (Fail)
//Storyboard Layer 2 (Pass)
//Storyboard Layer 3 (Foreground)
//Storyboard Sound Samples

[TimingPoints]
82,324.319065096242,4,1,0,50,1,0
82,-125,4,1,0,50,0,0
10460,-100,4,1,0,70,0,0
51973,-100,4,1,0,70,0,1
72729,-100,4,1,0,70,0,0
93485,-100,4,1,0,50,0,0
93648,-102.040816326531,4,1,0,50,0,0
93810,-104.166666666667,4,1,0,50,0,0
94134,-108.695652173913,4,1,0,50,0,0
94296,-111.111111111111,4,1,0,50,0,0
94458,-113.636363636364,4,1,0,50,0,0
94621,-116.279069767442,4,1,0,50,0,0
94783,-119.047619047619,4,1,0,50,0,0
95107,-121.951219512195,4,1,0,50,0,0
95269,-125,4,1,0,50,0,0
101269,352.941176470588,4,1,0,50,1,0
101269,-117.647058823529,4,1,0,50,0,0
101621,-120.481927710843,4,1,0,50,0,0
101974,363.636363636364,4,1,0,50,1,8
101974,-116.279069767442,4,1,0,50,0,0
102155,-119.047619047619,4,1,0,50,0,0
102337,377.358490566038,4,1,0,50,1,8
102337,-116.279069767442,4,1,0,50,0,0
102525,400,4,1,0,50,1,8
102525,-114.942528735632,4,1,0,50,0,0
102725,431.654676258993,4,1,0,50,1,0
102725,-112.359550561798,4,1,0,50,0,0
102940,468.75,4,1,0,50,1,8
103174,545.454545454546,4,1,0,50,1,8
103174,-102.040816326531,4,1,0,50,0,0
103446,705.882352941176,4,1,0,50,1,8
103798,750,4,1,0,50,1,0
103798,-83.3333333333333,4,1,0,50,0,0

[HitObjects]
248,104,82,5,0,0:0:0:0:
248,104,244,1,8,0:0:0:0:
256,104,406,1,8,0:0:0:0:
256,104,730,1,0,0:0:0:0:
256,104,892,1,8,0:0:0:0:
256,104,1054,1,8,0:0:0:0:
256,104,1217,1,0,0:0:0:0:
256,104,1379,1,0,0:0:0:0:
256,104,1703,1,8,0:0:0:0:
256,96,1865,1,0,0:0:0:0:
248,96,2027,1,0,0:0:0:0:
256,96,2352,1,8,0:0:0:0:
256,96,2514,1,8,0:0:0:0:
256,104,2676,1,0,0:0:0:0:
264,104,3000,1,8,0:0:0:0:
264,104,3325,1,0,0:0:0:0:
264,104,3649,1,8,0:0:0:0:
264,104,3973,1,0,0:0:0:0:
272,96,4622,1,8,0:0:0:0:
272,96,4784,1,0,0:0:0:0:
272,96,4946,1,8,0:0:0:0:
272,96,5108,1,8,0:0:0:0:
272,96,5271,1,0,0:0:0:0:
272,96,5433,1,8,0:0:0:0:
272,96,5595,1,8,0:0:0:0:
272,96,5919,1,0,0:0:0:0:
272,96,6081,1,8,0:0:0:0:
272,96,6244,1,8,0:0:0:0:
272,96,6406,1,0,0:0:0:0:
272,96,6568,1,0,0:0:0:0:
272,96,6892,1,8,0:0:0:0:
272,96,7054,1,0,0:0:0:0:
272,96,7217,1,0,0:0:0:0:
272,96,7541,1,8,0:0:0:0:
264,88,7703,1,8,0:0:0:0:
272,96,7865,1,0,0:0:0:0:
272,96,8027,1,8,0:0:0:0:
272,96,8189,1,0,0:0:0:0:
272,96,8514,1,0,0:0:0:0:
272,96,8676,1,8,0:0:0:0:
272,96,8838,1,8,0:0:0:0:
272,96,9000,1,0,0:0:0:0:
264,96,9162,1,8,0:0:0:0:
264,96,9487,1,0,0:0:0:0:
264,96,9811,1,0,0:0:0:0:
248,96,10460,1,4,0:0:0:0:
256,88,10784,1,8,0:0:0:0:
256,80,10946,1,0,0:0:0:0:
256,80,11108,1,8,0:0:0:0:
256,80,11189,1,8,0:0:0:0:
256,80,11271,1,8,0:0:0:0:
256,80,11433,1,0,0:0:0:0:
264,96,11595,1,8,0:0:0:0:
264,96,11757,1,0,0:0:0:0:
264,96,12081,1,8,0:0:0:0:
264,96,12243,1,0,0:0:0:0:
264,96,12406,1,0,0:0:0:0:
264,96,12730,1,8,0:0:0:0:
264,96,12892,1,8,0:0:0:0:
264,96,13054,1,0,0:0:0:0:
264,96,13379,1,8,0:0:0:0:
264,96,13703,1,0,0:0:0:0:
264,96,14027,1,8,0:0:0:0:
264,96,14352,1,0,0:0:0:0:
256,88,15000,1,8,0:0:0:0:
256,88,15162,1,0,0:0:0:0:
256,88,15324,1,8,0:0:0:0:
256,88,15487,1,8,0:0:0:0:
256,88,15649,1,0,0:0:0:0:
256,80,15973,1,0,0:0:0:0:
256,80,16135,1,8,0:0:0:0:
272,88,16297,1,0,0:0:0:0:
272,88,16379,1,0,0:0:0:0:
272,88,16460,1,0,0:0:0:0:
256,88,16622,1,0,0:0:0:0:
248,88,16784,1,8,0:0:0:0:
248,88,16946,1,0,0:0:0:0:
248,88,17270,1,8,0:0:0:0:
256,88,17433,1,0,0:0:0:0:
248,88,17595,1,0,0:0:0:0:
248,88,17919,1,8,0:0:0:0:
248,88,18081,1,8,0:0:0:0:
248,88,18243,1,0,0:0:0:0:
256,88,18406,1,8,0:0:0:0:
248,88,18568,1,0,0:0:0:0:
248,88,18892,1,0,0:0:0:0:
248,88,19054,1,8,0:0:0:0:
248,88,19216,1,8,0:0:0:0:
248,80,19378,1,0,0:0:0:0:
248,80,19541,1,0,0:0:0:0:
248,88,20189,1,8,0:0:0:0:
248,80,20351,1,0,0:0:0:0:
248,80,20514,1,8,0:0:0:0:
256,80,20595,1,8,0:0:0:0:
240,80,20676,1,8,0:0:0:0:
240,80,20838,1,0,0:0:0:0:
248,88,21162,1,8,0:0:0:0:
248,80,21324,1,0,0:0:0:0:
248,80,21487,1,8,0:0:0:0:
240,80,21568,1,8,0:0:0:0:
240,80,21649,1,8,0:0:0:0:
232,72,21811,1,0,0:0:0:0:
240,80,21973,1,8,0:0:0:0:
240,72,22135,1,0,0:0:0:0:
240,72,22460,1,8,0:0:0:0:
240,72,22622,1,0,0:0:0:0:
240,72,22784,1,0,0:0:0:0:
240,72,23108,1,8,0:0:0:0:
240,72,23270,1,8,0:0:0:0:
240,72,23432,1,0,0:0:0:0:
240,72,23757,1,8,0:0:0:0:
240,72,24081,1,0,0:0:0:0:
240,64,24405,1,8,0:0:0:0:
240,72,24730,1,0,0:0:0:0:
240,64,25378,1,8,0:0:0:0:
240,64,25541,1,0,0:0:0:0:
240,64,25703,1,8,0:0:0:0:
240,64,25865,1,8,0:0:0:0:
240,64,26027,1,0,0:0:0:0:
240,72,26351,1,0,0:0:0:0:
240,72,26514,1,8,0:0:0:0:
240,72,26676,1,0,0:0:0:0:
240,72,26757,1,0,0:0:0:0:
240,72,26838,1,0,0:0:0:0:
248,64,27000,1,0,0:0:0:0:
240,64,27162,1,8,0:0:0:0:
240,64,27324,1,0,0:0:0:0:
240,64,27649,1,8,0:0:0:0:
240,64,27811,1,0,0:0:0:0:
240,64,27973,1,0,0:0:0:0:
240,64,28297,1,8,0:0:0:0:
240,64,28459,1,8,0:0:0:0:
240,64,28622,1,0,0:0:0:0:
240,64,28946,1,0,0:0:0:0:
232,56,29270,1,0,0:0:0:0:
240,64,29432,1,8,0:0:0:0:
232,64,29595,1,8,0:0:0:0:
240,64,29757,1,0,0:0:0:0:
232,64,29919,1,0,0:0:0:0:
224,56,30567,1,8,0:0:0:0:
232,64,30892,1,8,0:0:0:0:
232,56,30973,1,8,0:0:0:0:
232,56,31054,1,8,0:0:0:0:
232,56,31216,1,0,0:0:0:0:
224,56,31540,1,8,0:0:0:0:
232,64,31703,1,0,0:0:0:0:
232,56,32189,1,8,0:0:0:0:
232,56,32513,1,0,0:0:0:0:
240,56,32676,1,8,0:0:0:0:
248,64,32838,1,8,0:0:0:0:
232,56,33000,1,0,0:0:0:0:
232,56,33486,1,8,0:0:0:0:
240,56,33649,1,0,0:0:0:0:
240,56,33811,1,0,0:0:0:0:
240,64,34135,1,8,0:0:0:0:
240,64,34297,1,0,0:0:0:0:
240,64,34784,1,8,0:0:0:0:
240,64,35108,1,0,0:0:0:0:
240,64,35270,1,8,0:0:0:0:
240,64,35432,1,8,0:0:0:0:
240,64,35594,1,0,0:0:0:0:
240,64,35919,1,8,0:0:0:0:
240,64,36081,1,8,0:0:0:0:
240,64,36243,1,0,0:0:0:0:
240,64,36405,1,0,0:0:0:0:
240,64,36730,1,8,0:0:0:0:
240,64,36892,1,0,0:0:0:0:
240,64,37378,1,8,0:0:0:0:
240,72,37703,1,0,0:0:0:0:
240,72,37865,1,8,0:0:0:0:
248,72,38027,1,8,0:0:0:0:
248,72,38189,1,0,0:0:0:0:
240,72,38675,1,8,0:0:0:0:
240,72,38838,1,0,0:0:0:0:
240,72,39000,1,0,0:0:0:0:
240,72,39324,1,8,0:0:0:0:
240,72,39486,1,0,0:0:0:0:
240,72,39973,1,8,0:0:0:0:
240,88,40297,1,8,0:0:0:0:
240,88,40459,1,8,0:0:0:0:
240,88,40621,1,0,0:0:0:0:
240,88,40784,1,8,0:0:0:0:
240,88,41108,1,8,0:0:0:0:
240,88,41189,1,8,0:0:0:0:
240,88,41270,1,8,0:0:0:0:
224,80,41432,1,8,0:0:0:0:
224,80,41594,1,0,0:0:0:0:
224,88,41919,1,8,0:0:0:0:
224,88,42081,1,8,0:0:0:0:
224,88,42405,1,0,0:0:0:0:
224,88,42567,1,8,0:0:0:0:
224,88,42729,1,8,0:0:0:0:
224,88,42892,1,0,0:0:0:0:
224,88,43216,1,8,0:0:0:0:
224,88,43378,1,0,0:0:0:0:
224,88,43702,1,0,0:0:0:0:
224,88,43865,1,8,0:0:0:0:
224,88,44027,1,0,0:0:0:0:
224,88,44189,1,0,0:0:0:0:
224,88,44513,1,8,0:0:0:0:
224,88,44675,1,0,0:0:0:0:
224,88,45000,1,0,0:0:0:0:
224,88,45162,1,8,0:0:0:0:
224,88,45324,1,8,0:0:0:0:
224,88,45486,1,0,0:0:0:0:
224,88,45648,1,0,0:0:0:0:
224,88,45810,1,8,0:0:0:0:
224,88,45973,1,8,0:0:0:0:
216,96,46621,1,8,0:0:0:0:
216,96,46702,1,8,0:0:0:0:
216,96,46783,1,8,0:0:0:0:
224,104,47108,1,0,0:0:0:0:
232,88,47270,1,8,0:0:0:0:
216,96,47594,1,0,0:0:0:0:
216,96,47756,1,8,0:0:0:0:
216,96,48081,1,8,0:0:0:0:
224,96,48297,1,0,0:0:0:0:
216,96,48405,1,8,0:0:0:0:
224,96,48621,1,0,0:0:0:0:
224,96,48729,1,8,0:0:0:0:
232,96,48946,1,0,0:0:0:0:
232,96,49054,1,8,0:0:0:0:
224,96,49162,1,0,0:0:0:0:
224,96,49270,1,0,0:0:0:0:
216,88,49378,1,8,0:0:0:0:
216,88,49540,1,0,0:0:0:0:
216,88,49702,1,8,0:0:0:0:
216,88,49864,1,8,0:0:0:0:
208,96,50189,1,0,0:0:0:0:
208,96,50351,1,8,0:0:0:0:
208,96,50513,1,8,0:0:0:0:
208,96,50675,1,0,0:0:0:0:
208,96,50756,1,0,0:0:0:0:
208,96,50837,1,0,0:0:0:0:
208,96,51000,1,8,0:0:0:0:
216,96,51162,1,0,0:0:0:0:
200,88,51324,1,8,0:0:0:0:
200,88,51486,1,8,0:0:0:0:
200,88,51567,1,8,0:0:0:0:
200,88,51648,1,8,0:0:0:0:
200,88,51810,1,8,0:0:0:0:
248,96,51973,1,0,0:0:0:0:
256,88,52297,1,8,0:0:0:0:
256,80,52459,1,0,0:0:0:0:
256,80,52621,1,8,0:0:0:0:
256,80,52702,1,8,0:0:0:0:
256,80,52784,1,8,0:0:0:0:
256,80,52946,1,0,0:0:0:0:
264,96,53108,1,8,0:0:0:0:
264,96,53270,1,0,0:0:0:0:
264,96,53594,1,8,0:0:0:0:
264,96,53756,1,0,0:0:0:0:
264,96,53919,1,0,0:0:0:0:
264,96,54243,1,8,0:0:0:0:
264,96,54405,1,8,0:0:0:0:
264,96,54567,1,0,0:0:0:0:
264,96,54892,1,8,0:0:0:0:
264,96,55216,1,0,0:0:0:0:
264,96,55540,1,8,0:0:0:0:
264,96,55865,1,0,0:0:0:0:
256,88,56513,1,8,0:0:0:0:
256,88,56675,1,0,0:0:0:0:
256,88,56837,1,8,0:0:0:0:
256,88,57000,1,8,0:0:0:0:
256,88,57162,1,0,0:0:0:0:
256,80,57486,1,0,0:0:0:0:
256,80,57648,1,8,0:0:0:0:
272,88,57810,1,0,0:0:0:0:
272,88,57892,1,0,0:0:0:0:
272,88,57973,1,0,0:0:0:0:
256,88,58135,1,0,0:0:0:0:
248,88,58297,1,8,0:0:0:0:
248,88,58459,1,0,0:0:0:0:
248,88,58783,1,8,0:0:0:0:
256,88,58946,1,0,0:0:0:0:
248,88,59108,1,0,0:0:0:0:
248,88,59432,1,8,0:0:0:0:
248,88,59594,1,8,0:0:0:0:
248,88,59756,1,0,0:0:0:0:
256,88,59919,1,8,0:0:0:0:
248,88,60081,1,0,0:0:0:0:
248,88,60405,1,0,0:0:0:0:
248,88,60567,1,8,0:0:0:0:
248,88,60729,1,8,0:0:0:0:
248,80,60891,1,0,0:0:0:0:
248,80,61054,1,0,0:0:0:0:
248,88,61702,1,8,0:0:0:0:
248,80,61864,1,0,0:0:0:0:
248,80,62027,1,8,0:0:0:0:
248,88,62108,1,8,0:0:0:0:
240,80,62189,1,8,0:0:0:0:
240,80,62351,1,0,0:0:0:0:
248,88,62675,1,8,0:0:0:0:
248,80,62837,1,0,0:0:0:0:
248,80,63000,1,8,0:0:0:0:
240,80,63081,1,8,0:0:0:0:
240,80,63162,1,8,0:0:0:0:
232,72,63324,1,0,0:0:0:0:
240,80,63486,1,8,0:0:0:0:
240,72,63648,1,0,0:0:0:0:
240,72,63973,1,8,0:0:0:0:
240,72,64135,1,0,0:0:0:0:
240,72,64297,1,0,0:0:0:0:
240,72,64621,1,8,0:0:0:0:
240,72,64783,1,8,0:0:0:0:
240,72,64945,1,0,0:0:0:0:
240,72,65270,1,8,0:0:0:0:
240,72,65594,1,0,0:0:0:0:
240,64,65918,1,8,0:0:0:0:
240,72,66243,1,0,0:0:0:0:
240,64,66891,1,8,0:0:0:0:
240,64,67054,1,0,0:0:0:0:
240,64,67216,1,8,0:0:0:0:
240,64,67378,1,8,0:0:0:0:
240,64,67540,1,0,0:0:0:0:
240,72,67864,1,0,0:0:0:0:
240,72,68027,1,8,0:0:0:0:
240,72,68189,1,0,0:0:0:0:
240,72,68270,1,0,0:0:0:0:
240,72,68351,1,0,0:0:0:0:
248,64,68513,1,0,0:0:0:0:
240,64,68675,1,8,0:0:0:0:
240,64,68837,1,0,0:0:0:0:
240,64,69162,1,8,0:0:0:0:
240,64,69324,1,0,0:0:0:0:
240,64,69486,1,0,0:0:0:0:
240,64,69810,1,8,0:0:0:0:
240,64,69972,1,8,0:0:0:0:
240,64,70135,1,0,0:0:0:0:
240,64,70459,1,0,0:0:0:0:
232,56,70783,1,0,0:0:0:0:
240,64,70945,1,8,0:0:0:0:
232,64,71108,1,8,0:0:0:0:
240,64,71270,1,0,0:0:0:0:
232,64,71432,1,0,0:0:0:0:
224,56,72080,1,8,0:0:0:0:
232,64,72405,1,8,0:0:0:0:
232,56,72486,1,8,0:0:0:0:
232,56,72567,1,8,0:0:0:0:
232,56,72729,1,0,0:0:0:0:
224,56,73053,1,8,0:0:0:0:
232,64,73216,1,0,0:0:0:0:
232,56,73702,1,8,0:0:0:0:
232,56,74026,1,0,0:0:0:0:
240,56,74189,1,8,0:0:0:0:
248,64,74351,1,8,0:0:0:0:
232,56,74513,1,0,0:0:0:0:
232,56,74999,1,8,0:0:0:0:
240,56,75162,1,0,0:0:0:0:
240,56,75324,1,0,0:0:0:0:
240,64,75648,1,8,0:0:0:0:
240,64,75810,1,0,0:0:0:0:
240,64,76297,1,8,0:0:0:0:
240,64,76621,1,0,0:0:0:0:
240,64,76783,1,8,0:0:0:0:
240,64,76945,1,8,0:0:0:0:
240,64,77107,1,0,0:0:0:0:
240,64,77432,1,8,0:0:0:0:
240,64,77594,1,8,0:0:0:0:
240,64,77756,1,0,0:0:0:0:
240,64,77918,1,0,0:0:0:0:
240,64,78243,1,8,0:0:0:0:
240,64,78405,1,0,0:0:0:0:
240,64,78891,1,8,0:0:0:0:
240,72,79216,1,0,0:0:0:0:
240,72,79378,1,8,0:0:0:0:
248,72,79540,1,8,0:0:0:0:
248,72,79702,1,0,0:0:0:0:
240,72,80188,1,8,0:0:0:0:
240,72,80351,1,0,0:0:0:0:
240,72,80513,1,0,0:0:0:0:
240,72,80837,1,8,0:0:0:0:
240,72,80999,1,0,0:0:0:0:
240,72,81486,1,8,0:0:0:0:
240,88,81810,1,8,0:0:0:0:
240,88,81972,1,8,0:0:0:0:
240,88,82134,1,0,0:0:0:0:
240,88,82297,1,8,0:0:0:0:
240,88,82621,1,8,0:0:0:0:
240,88,82702,1,8,0:0:0:0:
240,88,82783,1,8,0:0:0:0:
224,80,82945,1,8,0:0:0:0:
224,80,83107,1,0,0:0:0:0:
224,88,83432,1,8,0:0:0:0:
224,88,83594,1,8,0:0:0:0:
224,88,83918,1,0,0:0:0:0:
224,88,84080,1,8,0:0:0:0:
224,88,84242,1,8,0:0:0:0:
224,88,84405,1,0,0:0:0:0:
224,88,84729,1,8,0:0:0:0:
224,88,84891,1,0,0:0:0:0:
224,88,85215,1,0,0:0:0:0:
224,88,85378,1,8,0:0:0:0:
224,88,85540,1,0,0:0:0:0:
224,88,85702,1,0,0:0:0:0:
224,88,86026,1,8,0:0:0:0:
224,88,86188,1,0,0:0:0:0:
224,88,86513,1,0,0:0:0:0:
224,88,86675,1,8,0:0:0:0:
224,88,86837,1,8,0:0:0:0:
224,88,86999,1,0,0:0:0:0:
224,88,87161,1,0,0:0:0:0:
224,88,87323,1,8,0:0:0:0:
224,88,87486,1,8,0:0:0:0:
216,96,88134,1,8,0:0:0:0:
216,96,88215,1,8,0:0:0:0:
216,96,88296,1,8,0:0:0:0:
224,104,88621,1,0,0:0:0:0:
216,96,88783,1,8,0:0:0:0:
224,104,89107,1,0,0:0:0:0:
216,96,89269,1,8,0:0:0:0:
216,96,89432,1,0,0:0:0:0:
216,96,89594,1,8,0:0:0:0:
224,88,89756,1,8,0:0:0:0:
216,96,90080,1,0,0:0:0:0:
216,96,90242,1,8,0:0:0:0:
216,96,90405,1,8,0:0:0:0:
216,96,90567,1,0,0:0:0:0:
216,88,90648,1,0,0:0:0:0:
216,96,90729,1,0,0:0:0:0:
216,88,90891,1,8,0:0:0:0:
216,88,91053,1,0,0:0:0:0:
216,88,91215,1,8,0:0:0:0:
216,88,91377,1,8,0:0:0:0:
208,96,91702,1,0,0:0:0:0:
208,96,91864,1,8,0:0:0:0:
208,96,92026,1,8,0:0:0:0:
208,96,92188,1,0,0:0:0:0:
208,96,92269,1,0,0:0:0:0:
208,96,92350,1,0,0:0:0:0:
208,96,92513,1,8,0:0:0:0:
208,104,92675,1,0,0:0:0:0:
200,88,92837,1,8,0:0:0:0:
200,88,92999,1,8,0:0:0:0:
200,88,93080,1,8,0:0:0:0:
200,88,93161,1,8,0:0:0:0:
200,88,93323,5,8,0:0:0:0:
216,88,93485,1,0,0:0:0:0:
248,104,93647,5,8,0:0:0:0:
256,104,93809,1,8,0:0:0:0:
256,104,94133,1,0,0:0:0:0:
256,104,94295,1,8,0:0:0:0:
256,104,94457,1,8,0:0:0:0:
256,104,94620,1,0,0:0:0:0:
256,104,94782,1,0,0:0:0:0:
256,104,95106,1,8,0:0:0:0:
256,96,95268,1,0,0:0:0:0:
248,96,95430,1,0,0:0:0:0:
256,96,95755,1,8,0:0:0:0:
256,96,95917,1,8,0:0:0:0:
256,104,96079,1,0,0:0:0:0:
264,104,96403,1,8,0:0:0:0:
264,104,96728,1,0,0:0:0:0:
264,104,97052,1,8,0:0:0:0:
264,104,97376,1,0,0:0:0:0:
272,96,98025,1,8,0:0:0:0:
272,96,98187,1,0,0:0:0:0:
272,96,98349,1,8,0:0:0:0:
272,96,98511,1,8,0:0:0:0:
272,96,98674,1,0,0:0:0:0:
272,96,98836,1,8,0:0:0:0:
272,96,98998,1,8,0:0:0:0:
272,96,99322,1,0,0:0:0:0:
272,96,99484,1,8,0:0:0:0:
272,96,99647,1,8,0:0:0:0:
272,96,99809,1,0,0:0:0:0:
272,96,99971,1,0,0:0:0:0:
272,96,100295,1,8,0:0:0:0:
272,96,100457,1,0,0:0:0:0:
272,96,100620,1,0,0:0:0:0:
272,96,100944,1,8,0:0:0:0:
264,88,101106,1,8,0:0:0:0:
272,96,101269,1,0,0:0:0:0:
272,96,101621,1,0,0:0:0:0:
272,96,101974,1,0,0:0:0:0:
272,96,102155,1,8,0:0:0:0:
272,96,102337,1,8,0:0:0:0:
272,96,102525,1,0,0:0:0:0:
264,96,102725,1,0,0:0:0:0:
264,96,103174,1,8,0:0:0:0:
264,96,103798,1,0,0:0:0:0:
