osu file format v14

[General]
AudioFilename: audio.mp3
AudioLeadIn: 0
PreviewTime: 10135
Countdown: 0
SampleSet: Normal
StackLeniency: 0.7
Mode: 1
LetterboxInBreaks: 0
WidescreenStoryboard: 0

[Editor]
Bookmarks: 31216,51973,72729,93485
DistanceSpacing: 0.8
BeatDivisor: 4
GridSize: 8
TimelineZoom: 1.4

[Metadata]
Title:UP UP MT. CAKE
TitleUnicode:UP UP MT. CAKE
Artist:OISHII
ArtistUnicode:OISHII
Creator:Nifty
Version:Kantan
Source:
Tags:chiptune creamcore electronic happy kirby nes adventure hype nintendo videogame featured artist
BeatmapID:1456025
BeatmapSetID:664795

[Difficulty]
HPDrainRate:7
CircleSize:2
OverallDifficulty:2
ApproachRate:10
SliderMultiplier:1.4
SliderTickRate:1

[Events]
//Background and Video events
0,0,"mt cake.jpg",0,40
//Break Periods
//Storyboard Layer 0 (Background)
//Storyboard Layer 1 (Fail)
//Storyboard Layer 2 (Pass)
//Storyboard Layer 3 (Foreground)
//Storyboard Sound Samples

[TimingPoints]
82,324.319065096242,4,1,0,50,1,0
82,-100,4,1,0,50,0,0
10460,-100,4,1,0,70,0,0
51973,-100,4,1,0,70,0,1
72729,-100,4,1,0,70,0,0
93485,-100,4,1,0,50,0,0
101269,352.941176470588,4,1,0,50,1,0
101269,-90.9090909090909,4,1,0,50,0,0
101974,363.636363636364,4,1,0,50,1,8
102337,377.358490566038,4,1,0,50,1,8
102525,400,4,1,0,50,1,8
102725,431.654676258993,4,1,0,50,1,0
102725,-75.7575757575758,4,1,0,50,0,0
102940,468.75,4,1,0,50,1,8
103174,545.454545454546,4,1,0,50,1,8
103446,705.882352941176,4,1,0,50,1,8
103798,750,4,1,0,50,1,0
103798,-43.4782608695652,4,1,0,50,0,0

[HitObjects]
272,112,82,5,0,0:0:0:0:
272,128,730,1,8,0:0:0:0:
272,120,1379,1,0,0:0:0:0:
272,120,2027,1,0,0:0:0:0:
272,104,2352,1,8,0:0:0:0:
272,120,2676,1,8,0:0:0:0:
264,120,3973,1,0,0:0:0:0:
264,120,4622,1,8,0:0:0:0:
256,112,4946,1,0,0:0:0:0:
264,120,5271,1,8,0:0:0:0:
264,120,5919,1,0,0:0:0:0:
264,120,6568,1,0,0:0:0:0:
264,104,7217,1,0,0:0:0:0:
272,104,7541,1,8,0:0:0:0:
264,104,7865,1,0,0:0:0:0:
256,112,8514,1,0,0:0:0:0:
256,112,9162,1,8,0:0:0:0:
256,112,9811,1,0,0:0:0:0:
256,112,10460,1,4,0:0:0:0:
256,112,11108,1,8,0:0:0:0:
256,112,11757,1,0,0:0:0:0:
256,112,13054,1,8,0:0:0:0:
256,112,13703,1,0,0:0:0:0:
256,112,14352,1,8,0:0:0:0:
256,112,14676,1,8,0:0:0:0:
256,112,15000,1,0,0:0:0:0:
248,96,15649,1,8,0:0:0:0:
248,96,16297,1,0,0:0:0:0:
248,112,16946,1,0,0:0:0:0:
256,104,18243,1,0,0:0:0:0:
248,104,18568,1,8,0:0:0:0:
248,104,18892,1,0,0:0:0:0:
248,112,19541,1,0,0:0:0:0:
248,112,20189,1,8,0:0:0:0:
256,104,20838,1,0,0:0:0:0:
256,104,21487,1,8,0:0:0:0:
256,104,22135,1,0,0:0:0:0:
264,88,23432,1,8,0:0:0:0:
248,88,24081,1,0,0:0:0:0:
248,88,24730,1,0,0:0:0:0:
248,88,25054,1,8,0:0:0:0:
256,96,25378,1,0,0:0:0:0:
256,88,26027,1,8,0:0:0:0:
248,88,26676,1,0,0:0:0:0:
248,88,27324,1,0,0:0:0:0:
256,96,28622,1,0,0:0:0:0:
256,96,28946,1,8,0:0:0:0:
256,96,29270,1,0,0:0:0:0:
256,96,29919,1,8,0:0:0:0:
256,96,30567,1,8,0:0:0:0:
264,136,31216,1,0,0:0:0:0:
264,144,32513,1,8,0:0:0:0:
256,136,33162,1,0,0:0:0:0:
256,136,33486,1,8,0:0:0:0:
264,144,33811,1,0,0:0:0:0:
256,144,35108,1,0,0:0:0:0:
256,144,35757,1,8,0:0:0:0:
264,144,36081,1,8,0:0:0:0:
264,144,36405,1,0,0:0:0:0:
256,136,37703,1,8,0:0:0:0:
256,136,38351,1,0,0:0:0:0:
256,136,38675,1,8,0:0:0:0:
256,136,39000,1,0,0:0:0:0:
264,128,39648,1,0,0:0:0:0:
264,128,40297,1,8,0:0:0:0:
264,128,40784,1,8,0:0:0:0:
264,128,41594,1,0,0:0:0:0:
272,128,42892,1,8,0:0:0:0:
272,128,43540,1,8,0:0:0:0:
272,128,43865,1,0,0:0:0:0:
272,128,44189,1,0,0:0:0:0:
296,128,45486,1,0,0:0:0:0:
280,112,46135,1,8,0:0:0:0:
288,112,46459,1,8,0:0:0:0:
288,112,46783,1,0,0:0:0:0:
288,112,47756,1,8,0:0:0:0:
288,112,48729,1,0,0:0:0:0:
288,112,49378,1,8,0:0:0:0:
288,112,49702,1,8,0:0:0:0:
288,112,50351,1,8,0:0:0:0:
288,112,51000,1,8,0:0:0:0:
288,112,51648,1,8,0:0:0:0:
256,112,51973,1,0,0:0:0:0:
256,112,52621,1,8,0:0:0:0:
256,112,53270,1,0,0:0:0:0:
256,96,54567,1,0,0:0:0:0:
256,112,54891,1,8,0:0:0:0:
256,112,55216,1,0,0:0:0:0:
256,112,55865,1,8,0:0:0:0:
256,112,56189,1,8,0:0:0:0:
256,112,56513,1,0,0:0:0:0:
248,96,57162,1,8,0:0:0:0:
248,96,57810,1,0,0:0:0:0:
248,112,58459,1,0,0:0:0:0:
256,104,59756,1,0,0:0:0:0:
248,104,60081,1,8,0:0:0:0:
248,104,60405,1,0,0:0:0:0:
248,104,61053,1,8,0:0:0:0:
248,96,61378,1,0,0:0:0:0:
248,112,61702,1,8,0:0:0:0:
256,104,62351,1,0,0:0:0:0:
256,104,63000,1,8,0:0:0:0:
256,104,63648,1,0,0:0:0:0:
248,88,64945,1,0,0:0:0:0:
248,88,65270,1,8,0:0:0:0:
248,88,65594,1,0,0:0:0:0:
248,88,66243,1,0,0:0:0:0:
248,80,66567,1,8,0:0:0:0:
248,88,66891,1,8,0:0:0:0:
248,80,67540,1,8,0:0:0:0:
248,80,68189,1,0,0:0:0:0:
248,88,68837,1,0,0:0:0:0:
256,96,70134,1,8,0:0:0:0:
256,96,70459,1,8,0:0:0:0:
256,96,70783,1,0,0:0:0:0:
256,96,71432,1,8,0:0:0:0:
256,96,71756,1,0,0:0:0:0:
264,88,72080,1,0,0:0:0:0:
264,136,72729,1,0,0:0:0:0:
264,144,74026,1,8,0:0:0:0:
256,136,74675,1,0,0:0:0:0:
256,136,74999,1,8,0:0:0:0:
264,144,75324,1,0,0:0:0:0:
256,144,76621,1,0,0:0:0:0:
256,144,77270,1,8,0:0:0:0:
264,144,77594,1,8,0:0:0:0:
264,144,77918,1,0,0:0:0:0:
256,136,79216,1,8,0:0:0:0:
256,136,79864,1,0,0:0:0:0:
256,136,80188,1,8,0:0:0:0:
256,136,80513,1,0,0:0:0:0:
264,128,81161,1,0,0:0:0:0:
264,128,81810,1,8,0:0:0:0:
264,128,82296,1,8,0:0:0:0:
264,128,83107,1,0,0:0:0:0:
272,136,83594,1,8,0:0:0:0:
272,128,84405,1,8,0:0:0:0:
272,128,85053,1,8,0:0:0:0:
272,128,85378,1,0,0:0:0:0:
272,128,85702,1,0,0:0:0:0:
272,120,86188,1,8,0:0:0:0:
296,128,86999,1,0,0:0:0:0:
280,112,87648,1,8,0:0:0:0:
288,112,87972,1,8,0:0:0:0:
288,112,88296,1,0,0:0:0:0:
288,112,89269,1,8,0:0:0:0:
288,112,90242,1,0,0:0:0:0:
288,112,90891,1,8,0:0:0:0:
288,112,91215,1,8,0:0:0:0:
288,112,91864,1,8,0:0:0:0:
288,112,92513,1,8,0:0:0:0:
288,112,93161,1,8,0:0:0:0:
288,104,93485,1,0,0:0:0:0:
272,112,94134,1,8,0:0:0:0:
288,104,94783,1,0,0:0:0:0:
280,96,95431,1,0,0:0:0:0:
288,104,95756,1,8,0:0:0:0:
280,96,96080,1,8,0:0:0:0:
288,104,97377,1,0,0:0:0:0:
280,104,98026,1,8,0:0:0:0:
288,104,98350,1,0,0:0:0:0:
280,104,98674,1,8,0:0:0:0:
280,104,99323,1,0,0:0:0:0:
256,144,99972,1,0,0:0:0:0:
272,112,100620,1,0,0:0:0:0:
272,112,100945,1,8,0:0:0:0:
272,112,101269,1,0,0:0:0:0:
288,96,102725,1,8,0:0:0:0:
296,96,103798,1,0,0:0:0:0:
