osu file format v14

[General]
AudioFilename: audio.mp3
AudioLeadIn: 0
PreviewTime: 10135
Countdown: 0
SampleSet: Normal
StackLeniency: 0.7
Mode: 1
LetterboxInBreaks: 0
WidescreenStoryboard: 0

[Editor]
Bookmarks: 31216,51973,72729,93485
DistanceSpacing: 0.8
BeatDivisor: 4
GridSize: 8
TimelineZoom: 1.4

[Metadata]
Title:UP UP MT. CAKE
TitleUnicode:UP UP MT. CAKE
Artist:OISHII
ArtistUnicode:OISHII
Creator:Nifty
Version:Futsuu
Source:
Tags:chiptune creamcore electronic happy kirby nes adventure hype nintendo videogame featured artist
BeatmapID:1456024
BeatmapSetID:664795

[Difficulty]
HPDrainRate:6.5
CircleSize:2
OverallDifficulty:3
ApproachRate:10
SliderMultiplier:1.4
SliderTickRate:1

[Events]
//Background and Video events
0,0,"mt cake.jpg",0,40
//Break Periods
//Storyboard Layer 0 (Background)
//Storyboard Layer 1 (Fail)
//Storyboard Layer 2 (Pass)
//Storyboard Layer 3 (Foreground)
//Storyboard Sound Samples

[TimingPoints]
82,324.319065096242,4,1,0,50,1,0
82,-100,4,1,0,50,0,0
10460,-100,4,1,0,70,0,0
51973,-100,4,1,0,70,0,1
72729,-100,4,1,0,70,0,0
93485,-100,4,1,0,50,0,0
101269,352.941176470588,4,1,0,50,1,0
101269,-90.9090909090909,4,1,0,50,0,0
101974,363.636363636364,4,1,0,50,1,8
101974,-86.9565217391304,4,1,0,50,0,8
102337,377.358490566038,4,1,0,50,1,8
102525,400,4,1,0,50,1,8
102725,431.654676258993,4,1,0,50,1,0
102725,-75.7575757575758,4,1,0,50,0,0
102940,468.75,4,1,0,50,1,8
103174,545.454545454546,4,1,0,50,1,8
103174,-58.8235294117647,4,1,0,50,0,8
103446,705.882352941176,4,1,0,50,1,8
103798,750,4,1,0,50,1,0
103798,-43.4782608695652,4,1,0,50,0,0

[HitObjects]
248,104,82,5,0,0:0:0:0:
256,104,406,1,8,0:0:0:0:
256,104,730,1,0,0:0:0:0:
264,96,1054,1,0,0:0:0:0:
256,96,1379,1,8,0:0:0:0:
248,96,2027,1,0,0:0:0:0:
256,96,2352,1,8,0:0:0:0:
256,96,2514,1,8,0:0:0:0:
256,104,2676,1,0,0:0:0:0:
264,104,3000,1,8,0:0:0:0:
264,104,3325,1,0,0:0:0:0:
264,104,3973,1,0,0:0:0:0:
272,112,4298,1,8,0:0:0:0:
272,96,4622,1,8,0:0:0:0:
272,96,4784,1,0,0:0:0:0:
272,96,4946,1,8,0:0:0:0:
272,96,5271,1,0,0:0:0:0:
272,96,5595,1,8,0:0:0:0:
272,96,5919,1,0,0:0:0:0:
272,96,6244,1,0,0:0:0:0:
272,96,6568,1,8,0:0:0:0:
272,96,7217,1,0,0:0:0:0:
272,96,7541,1,8,0:0:0:0:
264,88,7703,1,8,0:0:0:0:
272,96,7865,1,0,0:0:0:0:
272,96,8189,1,8,0:0:0:0:
272,96,8514,1,0,0:0:0:0:
264,80,8838,1,0,0:0:0:0:
264,96,9162,1,8,0:0:0:0:
264,96,9487,1,0,0:0:0:0:
264,96,9811,1,0,0:0:0:0:
248,96,10460,1,4,0:0:0:0:
240,88,10784,1,8,0:0:0:0:
240,88,11108,1,0,0:0:0:0:
240,80,11271,1,8,0:0:0:0:
248,96,11433,1,0,0:0:0:0:
248,88,11757,1,8,0:0:0:0:
248,88,12406,1,0,0:0:0:0:
248,80,12730,1,8,0:0:0:0:
248,80,12892,1,8,0:0:0:0:
248,96,13054,1,0,0:0:0:0:
248,88,13379,1,8,0:0:0:0:
248,96,13703,1,0,0:0:0:0:
248,96,14027,1,8,0:0:0:0:
248,88,14352,1,0,0:0:0:0:
248,96,15000,1,8,0:0:0:0:
248,88,15324,1,8,0:0:0:0:
248,96,15649,1,0,0:0:0:0:
240,88,15973,1,8,0:0:0:0:
232,88,16297,1,0,0:0:0:0:
232,88,16460,1,8,0:0:0:0:
232,88,16622,1,0,0:0:0:0:
232,88,16946,1,8,0:0:0:0:
232,88,17595,1,0,0:0:0:0:
232,80,17919,1,8,0:0:0:0:
232,88,18081,1,8,0:0:0:0:
232,88,18243,1,0,0:0:0:0:
232,88,18568,1,8,0:0:0:0:
232,88,18892,1,0,0:0:0:0:
248,96,19216,1,0,0:0:0:0:
232,88,19541,1,8,0:0:0:0:
224,72,20189,1,8,0:0:0:0:
224,72,20514,1,8,0:0:0:0:
232,72,20676,1,8,0:0:0:0:
224,72,20838,1,0,0:0:0:0:
224,72,21162,1,8,0:0:0:0:
224,72,21487,1,0,0:0:0:0:
224,72,21649,1,8,0:0:0:0:
224,72,21811,1,0,0:0:0:0:
224,72,22135,1,8,0:0:0:0:
224,72,22784,1,0,0:0:0:0:
224,80,23108,1,8,0:0:0:0:
224,80,23270,1,8,0:0:0:0:
224,72,23432,1,0,0:0:0:0:
224,72,23757,1,8,0:0:0:0:
224,72,24081,1,0,0:0:0:0:
224,72,24405,1,8,0:0:0:0:
224,72,24730,1,0,0:0:0:0:
224,72,25378,1,8,0:0:0:0:
224,72,25703,1,8,0:0:0:0:
224,64,26027,1,0,0:0:0:0:
224,64,26351,1,8,0:0:0:0:
224,64,26676,1,0,0:0:0:0:
224,64,26838,1,8,0:0:0:0:
224,64,27000,1,0,0:0:0:0:
224,64,27324,1,8,0:0:0:0:
224,64,27973,1,0,0:0:0:0:
224,56,28297,1,8,0:0:0:0:
224,56,28459,1,8,0:0:0:0:
224,64,28622,1,0,0:0:0:0:
224,64,28946,1,8,0:0:0:0:
224,64,29270,1,0,0:0:0:0:
224,64,29595,1,8,0:0:0:0:
232,56,29919,1,8,0:0:0:0:
232,64,30243,1,0,0:0:0:0:
232,64,30567,1,0,0:0:0:0:
232,64,31216,1,0,0:0:0:0:
232,64,31540,1,8,0:0:0:0:
224,64,32189,1,8,0:0:0:0:
224,64,32513,1,0,0:0:0:0:
224,64,32838,1,8,0:0:0:0:
224,64,33000,1,0,0:0:0:0:
224,64,33486,1,8,0:0:0:0:
224,64,33811,1,0,0:0:0:0:
224,64,34135,1,8,0:0:0:0:
224,64,34784,1,8,0:0:0:0:
224,64,35108,1,0,0:0:0:0:
224,64,35432,1,8,0:0:0:0:
224,64,35594,1,0,0:0:0:0:
224,48,35919,1,8,0:0:0:0:
224,48,36081,1,8,0:0:0:0:
224,48,36405,1,0,0:0:0:0:
224,48,36730,1,8,0:0:0:0:
224,48,37378,1,8,0:0:0:0:
224,48,37703,1,0,0:0:0:0:
224,48,38027,1,8,0:0:0:0:
224,48,38189,1,0,0:0:0:0:
216,48,38675,1,8,0:0:0:0:
224,48,39000,1,0,0:0:0:0:
224,48,39324,1,8,0:0:0:0:
208,48,39973,1,8,0:0:0:0:
200,40,40297,1,8,0:0:0:0:
208,48,40459,1,0,0:0:0:0:
208,48,40784,1,8,0:0:0:0:
208,48,41594,1,0,0:0:0:0:
200,56,41919,1,8,0:0:0:0:
200,56,42081,1,8,0:0:0:0:
200,56,42567,1,8,0:0:0:0:
200,56,42892,1,0,0:0:0:0:
200,56,43216,1,8,0:0:0:0:
200,56,43378,1,0,0:0:0:0:
200,56,43865,1,8,0:0:0:0:
200,56,44189,1,0,0:0:0:0:
200,56,44513,1,8,0:0:0:0:
200,56,44675,1,0,0:0:0:0:
200,56,45000,1,0,0:0:0:0:
200,56,45162,1,8,0:0:0:0:
200,56,45486,1,0,0:0:0:0:
200,56,45973,1,8,0:0:0:0:
208,64,46135,1,8,0:0:0:0:
208,64,46459,1,8,0:0:0:0:
208,64,46783,1,0,0:0:0:0:
208,64,47270,1,8,0:0:0:0:
208,64,47756,1,0,0:0:0:0:
208,64,48243,1,8,0:0:0:0:
208,64,48729,1,8,0:0:0:0:
208,64,49054,1,8,0:0:0:0:
208,64,49378,1,0,0:0:0:0:
208,64,49702,1,8,0:0:0:0:
208,64,50351,1,8,0:0:0:0:
208,72,50675,1,0,0:0:0:0:
208,64,51000,1,8,0:0:0:0:
208,64,51162,1,8,0:0:0:0:
208,64,51324,1,8,0:0:0:0:
208,56,51648,1,8,0:0:0:0:
248,96,51973,1,0,0:0:0:0:
240,88,52297,1,8,0:0:0:0:
240,88,52621,1,0,0:0:0:0:
240,80,52784,1,8,0:0:0:0:
248,96,52946,1,0,0:0:0:0:
248,88,53270,1,8,0:0:0:0:
248,88,53919,1,0,0:0:0:0:
240,80,54243,1,8,0:0:0:0:
240,80,54405,1,8,0:0:0:0:
248,96,54567,1,0,0:0:0:0:
248,88,54892,1,8,0:0:0:0:
248,96,55216,1,0,0:0:0:0:
248,96,55540,1,8,0:0:0:0:
248,88,55865,1,0,0:0:0:0:
248,96,56513,1,8,0:0:0:0:
248,88,56837,1,8,0:0:0:0:
248,96,57162,1,0,0:0:0:0:
240,88,57486,1,8,0:0:0:0:
232,88,57810,1,0,0:0:0:0:
232,88,57973,1,8,0:0:0:0:
232,88,58135,1,0,0:0:0:0:
232,88,58459,1,8,0:0:0:0:
232,88,59108,1,0,0:0:0:0:
240,80,59432,1,8,0:0:0:0:
240,80,59594,1,8,0:0:0:0:
232,88,59756,1,0,0:0:0:0:
232,88,60081,1,8,0:0:0:0:
232,88,60405,1,0,0:0:0:0:
240,80,60729,1,0,0:0:0:0:
232,88,61054,1,8,0:0:0:0:
224,72,61702,1,8,0:0:0:0:
224,72,62027,1,8,0:0:0:0:
232,72,62189,1,8,0:0:0:0:
224,72,62351,1,0,0:0:0:0:
224,72,62675,1,8,0:0:0:0:
224,72,63000,1,0,0:0:0:0:
224,72,63162,1,8,0:0:0:0:
224,72,63324,1,0,0:0:0:0:
224,72,63648,1,8,0:0:0:0:
224,72,64297,1,0,0:0:0:0:
208,72,64621,1,8,0:0:0:0:
208,72,64783,1,8,0:0:0:0:
224,72,64945,1,0,0:0:0:0:
224,72,65270,1,8,0:0:0:0:
224,72,65594,1,0,0:0:0:0:
224,72,65918,1,8,0:0:0:0:
224,72,66243,1,0,0:0:0:0:
224,72,66891,1,8,0:0:0:0:
224,72,67216,1,8,0:0:0:0:
224,64,67540,1,0,0:0:0:0:
224,64,67864,1,8,0:0:0:0:
224,64,68189,1,0,0:0:0:0:
224,64,68351,1,8,0:0:0:0:
224,64,68513,1,0,0:0:0:0:
224,64,68837,1,8,0:0:0:0:
224,64,69486,1,0,0:0:0:0:
224,64,69810,1,8,0:0:0:0:
224,64,69972,1,8,0:0:0:0:
224,64,70135,1,0,0:0:0:0:
224,64,70459,1,8,0:0:0:0:
224,64,70783,1,0,0:0:0:0:
224,64,71108,1,8,0:0:0:0:
232,56,71432,1,8,0:0:0:0:
224,56,71594,1,0,0:0:0:0:
232,56,71756,1,8,0:0:0:0:
232,64,72080,1,0,0:0:0:0:
232,64,72729,1,0,0:0:0:0:
232,64,73053,1,8,0:0:0:0:
224,64,73702,1,8,0:0:0:0:
224,64,74026,1,0,0:0:0:0:
224,64,74351,1,8,0:0:0:0:
224,64,74513,1,0,0:0:0:0:
224,64,74999,1,8,0:0:0:0:
224,64,75324,1,0,0:0:0:0:
224,64,75648,1,8,0:0:0:0:
224,64,76297,1,8,0:0:0:0:
224,64,76621,1,0,0:0:0:0:
224,64,76945,1,8,0:0:0:0:
224,64,77107,1,0,0:0:0:0:
224,48,77432,1,8,0:0:0:0:
224,48,77594,1,8,0:0:0:0:
224,48,77918,1,0,0:0:0:0:
224,48,78243,1,8,0:0:0:0:
224,48,78891,1,8,0:0:0:0:
224,48,79216,1,0,0:0:0:0:
224,48,79540,1,8,0:0:0:0:
224,48,79702,1,0,0:0:0:0:
216,48,80188,1,8,0:0:0:0:
224,48,80513,1,0,0:0:0:0:
224,48,80837,1,8,0:0:0:0:
208,48,81486,1,8,0:0:0:0:
200,40,81810,1,8,0:0:0:0:
208,48,81972,1,0,0:0:0:0:
208,48,82297,1,8,0:0:0:0:
208,48,83107,1,0,0:0:0:0:
200,56,83432,1,8,0:0:0:0:
200,56,83594,1,8,0:0:0:0:
200,56,84080,1,8,0:0:0:0:
200,56,84405,1,0,0:0:0:0:
200,56,84729,1,8,0:0:0:0:
200,56,84891,1,0,0:0:0:0:
200,56,85378,1,8,0:0:0:0:
200,56,85702,1,0,0:0:0:0:
200,56,86026,1,8,0:0:0:0:
200,56,86188,1,0,0:0:0:0:
200,56,86513,1,0,0:0:0:0:
200,56,86675,1,8,0:0:0:0:
200,56,86999,1,0,0:0:0:0:
200,56,87486,1,8,0:0:0:0:
208,64,87648,1,8,0:0:0:0:
208,64,87972,1,8,0:0:0:0:
208,64,88296,1,0,0:0:0:0:
208,64,88783,1,8,0:0:0:0:
208,64,89269,1,0,0:0:0:0:
208,64,89756,1,8,0:0:0:0:
208,64,90242,1,8,0:0:0:0:
208,64,90567,1,8,0:0:0:0:
208,64,90891,1,0,0:0:0:0:
208,64,91215,1,8,0:0:0:0:
208,64,91864,1,8,0:0:0:0:
208,64,92513,1,8,0:0:0:0:
208,64,92837,1,8,0:0:0:0:
208,64,93161,1,8,0:0:0:0:
208,64,93485,1,0,0:0:0:0:
208,64,93810,1,8,0:0:0:0:
208,64,94134,1,0,0:0:0:0:
208,56,94458,1,0,0:0:0:0:
208,56,94783,1,8,0:0:0:0:
208,64,95431,1,0,0:0:0:0:
208,56,95756,1,8,0:0:0:0:
208,64,95918,1,8,0:0:0:0:
216,64,96080,1,0,0:0:0:0:
208,64,96404,1,8,0:0:0:0:
216,64,96729,1,0,0:0:0:0:
216,64,97377,1,0,0:0:0:0:
216,56,97702,1,8,0:0:0:0:
216,64,98026,1,8,0:0:0:0:
208,56,98188,1,0,0:0:0:0:
216,64,98350,1,8,0:0:0:0:
216,64,98674,1,0,0:0:0:0:
208,48,98999,1,8,0:0:0:0:
200,48,99323,1,0,0:0:0:0:
216,64,99647,1,0,0:0:0:0:
216,64,99972,1,8,0:0:0:0:
200,56,100620,1,0,0:0:0:0:
208,56,100945,1,8,0:0:0:0:
200,56,101107,1,8,0:0:0:0:
216,64,101269,1,0,0:0:0:0:
216,64,101974,1,0,0:0:0:0:
216,64,102725,1,0,0:0:0:0:
216,64,103174,1,8,0:0:0:0:
216,64,103798,1,0,0:0:0:0:
