osu file format v14

[General]
AudioFilename: audio.mp3
AudioLeadIn: 0
PreviewTime: 10460
Countdown: 0
SampleSet: Normal
StackLeniency: 0
Mode: 1
LetterboxInBreaks: 0
WidescreenStoryboard: 1

[Editor]
DistanceSpacing: 1
BeatDivisor: 1
GridSize: 32
TimelineZoom: 1

[Metadata]
Title:UP UP MT. CAKE
TitleUnicode:UP UP MT. CAKE
Artist:OISHII
ArtistUnicode:OISHII
Creator:Fallmorph
Version:Kantan
Source:osu!
Tags:nsm beatmapping contest badger featured artist chiptune creamcore electronic happy kirby nes adventure hype nintendo videogame
BeatmapID:1443784
BeatmapSetID:682732

[Difficulty]
HPDrainRate:7
CircleSize:0
OverallDifficulty:3
ApproachRate:0
SliderMultiplier:1.4
SliderTickRate:1

[Events]
//Background and Video events
0,0,"bg.jpg",0,0
//Break Periods
//Storyboard Layer 0 (Background)
//Storyboard Layer 1 (Fail)
//Storyboard Layer 2 (Pass)
//Storyboard Layer 3 (Foreground)
//Storyboard Sound Samples

[TimingPoints]
82,324.319065096242,4,1,0,75,1,0
10460,-100,4,1,0,90,0,1
31216,-100,4,1,0,80,0,0
41594,-100,4,1,0,90,0,0
51973,-100,4,1,0,80,0,0
83107,-100,4,1,0,90,0,0
93445,-100,4,1,0,75,0,0
101269,352.941176470588,4,1,0,75,1,0
101269,-91.9117647058823,4,1,0,75,0,0
101974,363.636363636364,4,1,0,75,1,8
102337,377.358490566038,4,1,0,75,1,8
102525,400,4,1,0,75,1,8
102725,431.654676258993,4,1,0,75,1,0
102725,-75.187969924812,4,1,0,75,0,0
102940,468.75,4,1,0,75,1,8
103174,545.454545454546,4,1,0,75,1,8
103446,705.882352941176,4,1,0,75,1,8
103798,750,4,1,0,75,1,0
103798,-43.2432432432432,4,1,0,75,0,0

[HitObjects]
256,192,82,5,8,0:0:0:0:
256,192,1379,1,8,0:0:0:0:
256,192,2027,1,0,0:0:0:0:
256,192,2676,1,0,0:0:0:0:
256,192,3973,1,0,0:0:0:0:
256,192,4622,1,8,0:0:0:0:
256,192,4946,1,0,0:0:0:0:
256,192,5271,1,8,0:0:0:0:
256,192,6568,1,8,0:0:0:0:
256,192,7217,1,0,0:0:0:0:
256,192,7865,1,0,0:0:0:0:
256,192,9162,2,0,B|256:52|256:52|256:192,1,280
256,192,10460,5,12,0:0:0:0:
256,192,11108,1,8,0:0:0:0:
256,192,11757,1,0,0:0:0:0:
256,192,12081,1,8,0:0:0:0:
256,192,12406,1,0,0:0:0:0:
256,192,13054,1,0,0:0:0:0:
256,192,14352,1,0,0:0:0:0:
256,192,15000,1,8,0:0:0:0:
256,192,15324,1,0,0:0:0:0:
256,192,15649,5,12,0:0:0:0:
256,192,16297,1,8,0:0:0:0:
256,192,16946,1,0,0:0:0:0:
256,192,17270,1,8,0:0:0:0:
256,192,17595,1,8,0:0:0:0:
256,192,18243,1,0,0:0:0:0:
256,192,19541,2,0,B|256:52|256:52|256:192,1,280
256,192,20838,5,12,0:0:0:0:
256,192,21487,1,8,0:0:0:0:
256,192,22135,1,0,0:0:0:0:
256,192,22460,1,8,0:0:0:0:
256,192,22784,1,0,0:0:0:0:
256,192,23432,1,0,0:0:0:0:
256,192,24730,1,0,0:0:0:0:
256,192,25378,1,8,0:0:0:0:
256,192,25702,1,0,0:0:0:0:
256,192,26027,5,12,0:0:0:0:
256,192,26676,1,8,0:0:0:0:
256,192,27324,1,0,0:0:0:0:
256,192,27973,1,8,0:0:0:0:
256,192,28297,1,8,0:0:0:0:
256,192,28622,1,0,0:0:0:0:
256,192,29919,2,0,B|256:52|256:52|256:192,1,280
256,192,31216,5,4,0:0:0:0:
256,192,32513,1,0,0:0:0:0:
256,192,33162,1,0,0:0:0:0:
256,192,33486,1,8,0:0:0:0:
256,192,33811,1,0,0:0:0:0:
256,192,35108,1,0,0:0:0:0:
256,192,35757,1,8,0:0:0:0:
256,192,36081,1,8,0:0:0:0:
256,192,36405,5,4,0:0:0:0:
256,192,37703,1,8,0:0:0:0:
256,192,38351,1,8,0:0:0:0:
256,192,38675,1,0,0:0:0:0:
256,192,39000,1,8,0:0:0:0:
256,192,40297,1,8,0:0:0:0:
256,192,40946,1,0,0:0:0:0:
256,192,41270,1,8,0:0:0:0:
256,192,41594,5,4,0:0:0:0:
256,192,42892,5,12,0:0:0:0:
256,192,43865,1,8,0:0:0:0:
256,192,44189,5,4,0:0:0:0:
256,192,45486,5,12,0:0:0:0:
256,192,46459,1,0,0:0:0:0:
256,192,46783,12,0,49054,0:0:0:0:
256,192,49378,5,8,0:0:0:0:
256,192,50027,1,0,0:0:0:0:
256,192,50675,1,8,0:0:0:0:
256,192,51324,1,8,0:0:0:0:
256,192,51648,1,0,0:0:0:0:
256,192,51973,1,8,0:0:0:0:
256,192,53270,1,0,0:0:0:0:
256,192,53918,1,8,0:0:0:0:
256,192,54243,1,8,0:0:0:0:
256,192,54567,1,0,0:0:0:0:
256,192,55216,1,0,0:0:0:0:
256,192,55865,1,0,0:0:0:0:
256,192,56513,1,8,0:0:0:0:
256,192,56837,1,0,0:0:0:0:
256,192,57162,5,12,0:0:0:0:
256,192,58459,1,0,0:0:0:0:
256,192,59108,1,0,0:0:0:0:
256,192,59432,1,8,0:0:0:0:
256,192,59756,1,0,0:0:0:0:
256,192,60405,1,0,0:0:0:0:
256,192,61054,2,0,B|256:52|256:52|256:192,1,280
256,192,62351,5,12,0:0:0:0:
256,192,63648,1,0,0:0:0:0:
256,192,64297,1,0,0:0:0:0:
256,192,64621,1,8,0:0:0:0:
256,192,64945,1,0,0:0:0:0:
256,192,65594,1,0,0:0:0:0:
256,192,66243,1,0,0:0:0:0:
256,192,66891,1,8,0:0:0:0:
256,192,67215,1,0,0:0:0:0:
256,192,67540,5,12,0:0:0:0:
256,192,68837,1,0,0:0:0:0:
256,192,69486,1,8,0:0:0:0:
256,192,69810,1,8,0:0:0:0:
256,192,70134,1,0,0:0:0:0:
256,192,70783,1,0,0:0:0:0:
256,192,71432,2,0,B|256:52|256:52|256:192,1,280
256,192,72729,5,12,0:0:0:0:
256,192,74026,1,0,0:0:0:0:
256,192,74675,1,0,0:0:0:0:
256,192,74999,1,8,0:0:0:0:
256,192,75324,1,0,0:0:0:0:
256,192,76621,1,0,0:0:0:0:
256,192,77270,1,8,0:0:0:0:
256,192,77594,1,8,0:0:0:0:
256,192,77918,5,4,0:0:0:0:
256,192,79216,1,8,0:0:0:0:
256,192,79864,1,8,0:0:0:0:
256,192,80188,1,0,0:0:0:0:
256,192,80513,1,8,0:0:0:0:
256,192,81810,1,8,0:0:0:0:
256,192,82459,1,0,0:0:0:0:
256,192,82783,1,8,0:0:0:0:
256,192,83107,5,4,0:0:0:0:
256,192,84405,5,12,0:0:0:0:
256,192,85377,1,8,0:0:0:0:
256,192,85702,5,4,0:0:0:0:
256,192,86999,5,12,0:0:0:0:
256,192,87972,1,0,0:0:0:0:
256,192,88296,12,0,90567,0:0:0:0:
256,192,90891,5,8,0:0:0:0:
256,192,91539,1,0,0:0:0:0:
256,192,92188,1,8,0:0:0:0:
256,192,92837,1,8,0:0:0:0:
256,192,93161,1,0,0:0:0:0:
256,192,93485,1,8,0:0:0:0:
256,192,94782,1,8,0:0:0:0:
256,192,95431,1,0,0:0:0:0:
256,192,96079,1,0,0:0:0:0:
256,192,97376,1,0,0:0:0:0:
256,192,98025,1,8,0:0:0:0:
256,192,98349,1,0,0:0:0:0:
256,192,98674,1,8,0:0:0:0:
256,192,99971,1,8,0:0:0:0:
256,192,100620,1,0,0:0:0:0:
256,192,101269,1,0,0:0:0:0:
256,192,102725,12,0,103798,0:0:0:0:
