osu file format v14

[General]
AudioFilename: audio.mp3
AudioLeadIn: 0
PreviewTime: 10460
Countdown: 0
SampleSet: Normal
StackLeniency: 0
Mode: 1
LetterboxInBreaks: 0
WidescreenStoryboard: 0

[Editor]
DistanceSpacing: 1
BeatDivisor: 3
GridSize: 32
TimelineZoom: 3

[Metadata]
Title:UP UP MT. CAKE
TitleUnicode:UP UP MT. CAKE
Artist:OISHII
ArtistUnicode:OISHII
Creator:Fallmorph
Version:Inner Oni
Source:osu!
Tags:nsm beatmapping contest badger featured artist chiptune creamcore electronic happy kirby nes adventure hype nintendo videogame
BeatmapID:1509353
BeatmapSetID:682732

[Difficulty]
HPDrainRate:5
CircleSize:0
OverallDifficulty:6
ApproachRate:0
SliderMultiplier:1.4
SliderTickRate:1

[Events]
//Background and Video events
0,0,"bg.jpg",0,0
//Break Periods
//Storyboard Layer 0 (Background)
//Storyboard Layer 1 (Fail)
//Storyboard Layer 2 (Pass)
//Storyboard Layer 3 (Foreground)
//Storyboard Sound Samples

[TimingPoints]
82,324.319065096242,4,1,0,75,1,0
82,-108.695652173913,4,1,0,75,0,0
7946,-107.52688172043,4,1,0,75,0,0
8108,-106.382978723404,4,1,0,75,0,0
8271,-105.263157894737,4,1,0,75,0,0
8433,-104.166666666667,4,1,0,75,0,0
8595,-103.092783505155,4,1,0,75,0,0
8757,-102.040816326531,4,1,0,75,0,0
8919,-101.010101010101,4,1,0,75,0,0
9081,-100,4,1,0,75,0,0
9183,-101.010101010101,4,1,0,75,0,0
9244,-102.040816326531,4,1,0,75,0,0
9304,-103.092783505155,4,1,0,75,0,0
9365,-104.166666666667,4,1,0,75,0,0
9426,-105.263157894737,4,1,0,75,0,0
9487,-106.382978723404,4,1,0,75,0,0
9548,-107.52688172043,4,1,0,75,0,0
9608,-108.695652173913,4,1,0,75,0,0
10460,-100,4,1,0,90,0,1
13095,-101.522842639594,4,1,0,90,0,1
13176,-103.092783505155,4,1,0,90,0,1
13257,-104.712041884817,4,1,0,90,0,1
13338,-106.382978723404,4,1,0,90,0,1
13419,-104.712041884817,4,1,0,90,0,1
13500,-103.092783505155,4,1,0,90,0,1
13581,-101.522842639594,4,1,0,90,0,1
13662,-100,4,1,0,90,0,1
13743,-101.522842639594,4,1,0,90,0,1
13824,-103.092783505155,4,1,0,90,0,1
13905,-104.712041884817,4,1,0,90,0,1
13986,-106.382978723404,4,1,0,90,0,1
14067,-104.712041884817,4,1,0,90,0,1
14148,-103.092783505155,4,1,0,90,0,1
14229,-101.522842639594,4,1,0,90,0,1
14310,-100,4,1,0,90,0,1
15041,-98.5221674876847,4,1,0,90,0,1
15122,-97.0873786407767,4,1,0,90,0,1
15203,-95.6937799043062,4,1,0,90,0,1
15284,-94.3396226415094,4,1,0,90,0,1
15366,-93.0232558139535,4,1,0,90,0,1
15447,-91.743119266055,4,1,0,90,0,1
15568,-89.2857142857143,4,1,0,90,0,1
15730,-94.3396226415094,4,1,0,90,0,1
15852,-97.0873786407767,4,1,0,90,0,1
15933,-100,4,1,0,90,0,1
18284,-101.522842639594,4,1,0,90,0,1
18365,-103.092783505155,4,1,0,90,0,1
18446,-104.712041884817,4,1,0,90,0,1
18528,-106.382978723404,4,1,0,90,0,1
18608,-108.108108108108,4,1,0,90,0,1
18689,-109.89010989011,4,1,0,90,0,1
18811,-100,4,1,0,90,0,1
18933,-101.522842639594,4,1,0,90,0,1
19014,-103.092783505155,4,1,0,90,0,1
19095,-104.712041884817,4,1,0,90,0,1
19176,-106.382978723404,4,1,0,90,0,1
19257,-108.108108108108,4,1,0,90,0,1
19338,-109.89010989011,4,1,0,90,0,1
19460,-100,4,1,0,90,0,1
19561,-101.010101010101,4,1,0,90,0,1
19622,-102.040816326531,4,1,0,90,0,1
19682,-103.092783505155,4,1,0,90,0,1
19743,-104.166666666667,4,1,0,90,0,1
19804,-105.263157894737,4,1,0,90,0,1
19865,-106.382978723404,4,1,0,90,0,1
19926,-107.52688172043,4,1,0,90,0,1
19986,-108.695652173913,4,1,0,90,0,1
20393,-108.108108108108,4,1,0,90,0,1
20474,-106.382978723404,4,1,0,90,0,1
20555,-104.712041884817,4,1,0,90,0,1
20636,-103.092783505155,4,1,0,90,0,1
20716,-101.522842639594,4,1,0,90,0,1
20797,-100,4,1,0,90,0,1
23473,-101.522842639594,4,1,0,90,0,1
23554,-103.092783505155,4,1,0,90,0,1
23635,-104.712041884817,4,1,0,90,0,1
23716,-106.382978723404,4,1,0,90,0,1
23797,-104.712041884817,4,1,0,90,0,1
23878,-103.092783505155,4,1,0,90,0,1
23959,-101.522842639594,4,1,0,90,0,1
24040,-100,4,1,0,90,0,1
24121,-101.522842639594,4,1,0,90,0,1
24202,-103.092783505155,4,1,0,90,0,1
24283,-104.712041884817,4,1,0,90,0,1
24364,-106.382978723404,4,1,0,90,0,1
24445,-104.712041884817,4,1,0,90,0,1
24526,-103.092783505155,4,1,0,90,0,1
24607,-101.522842639594,4,1,0,90,0,1
24689,-100,4,1,0,90,0,1
25418,-98.5221674876847,4,1,0,90,0,1
25499,-97.0873786407767,4,1,0,90,0,1
25580,-95.6937799043062,4,1,0,90,0,1
25661,-94.3396226415094,4,1,0,90,0,1
25743,-93.0232558139535,4,1,0,90,0,1
25824,-91.743119266055,4,1,0,90,0,1
25945,-89.2857142857143,4,1,0,90,0,1
26107,-94.3396226415094,4,1,0,90,0,1
26229,-97.0873786407767,4,1,0,90,0,1
26310,-100,4,1,0,90,0,1
28662,-101.522842639594,4,1,0,90,0,1
28743,-103.092783505155,4,1,0,90,0,1
28824,-104.712041884817,4,1,0,90,0,1
28906,-106.382978723404,4,1,0,90,0,1
28986,-108.108108108108,4,1,0,90,0,1
29067,-109.89010989011,4,1,0,90,0,1
29189,-100,4,1,0,90,0,1
29311,-101.522842639594,4,1,0,90,0,1
29392,-103.092783505155,4,1,0,90,0,1
29473,-104.712041884817,4,1,0,90,0,1
29554,-106.382978723404,4,1,0,90,0,1
29635,-108.108108108108,4,1,0,90,0,1
29716,-109.89010989011,4,1,0,90,0,1
29838,-100,4,1,0,90,0,1
29939,-101.010101010101,4,1,0,90,0,1
30000,-102.040816326531,4,1,0,90,0,1
30060,-103.092783505155,4,1,0,90,0,1
30121,-104.166666666667,4,1,0,90,0,1
30182,-105.263157894737,4,1,0,90,0,1
30243,-106.382978723404,4,1,0,90,0,1
30304,-107.52688172043,4,1,0,90,0,1
30364,-108.695652173913,4,1,0,90,0,1
30771,-108.108108108108,4,1,0,90,0,1
30852,-106.382978723404,4,1,0,90,0,1
30933,-104.712041884817,4,1,0,90,0,1
31014,-103.092783505155,4,1,0,90,0,1
31094,-101.522842639594,4,1,0,90,0,1
31095,-102.040816326531,4,1,0,90,0,1
31216,-100,4,1,0,80,0,0
41594,-100,4,1,0,90,0,0
50716,-98.5221674876847,4,1,0,90,0,0
50797,-97.0873786407767,4,1,0,90,0,0
50879,-95.6937799043062,4,1,0,90,0,0
50960,-94.3396226415094,4,1,0,90,0,0
51041,-93.0232558139535,4,1,0,90,0,0
51122,-91.743119266055,4,1,0,90,0,0
51203,-90.4977375565611,4,1,0,90,0,0
51446,-91.743119266055,4,1,0,90,0,0
51527,-93.0232558139535,4,1,0,90,0,0
51608,-94.3396226415094,4,1,0,90,0,0
51689,-95.6937799043062,4,1,0,90,0,0
51770,-97.0873786407767,4,1,0,90,0,0
51851,-98.5221674876847,4,1,0,90,0,0
51973,-100,4,1,0,80,0,0
52094,-97.0873786407767,4,1,0,80,0,0
52175,-100,4,1,0,80,0,0
52418,-97.0873786407767,4,1,0,80,0,0
52499,-100,4,1,0,80,0,0
52743,-97.0873786407767,4,1,0,80,0,0
52824,-100,4,1,0,80,0,0
53067,-97.0873786407767,4,1,0,80,0,0
53148,-100,4,1,0,80,0,0
53391,-97.0873786407767,4,1,0,80,0,0
53472,-100,4,1,0,80,0,0
53716,-97.0873786407767,4,1,0,80,0,0
53797,-100,4,1,0,80,0,0
54040,-97.0873786407767,4,1,0,80,0,0
54121,-100,4,1,0,80,0,0
54364,-97.0873786407767,4,1,0,80,0,0
54445,-100,4,1,0,80,0,0
54689,-97.0873786407767,4,1,0,80,0,0
54770,-100,4,1,0,80,0,0
55013,-97.0873786407767,4,1,0,80,0,0
55094,-100,4,1,0,80,0,0
55337,-97.0873786407767,4,1,0,80,0,0
55418,-100,4,1,0,80,0,0
55662,-97.0873786407767,4,1,0,80,0,0
55743,-100,4,1,0,80,0,0
55986,-97.0873786407767,4,1,0,80,0,0
56067,-100,4,1,0,80,0,0
56310,-97.0873786407767,4,1,0,80,0,0
56391,-100,4,1,0,80,0,0
56553,-98.5221674876847,4,1,0,80,0,0
56634,-97.0873786407767,4,1,0,80,0,0
56715,-95.6937799043062,4,1,0,80,0,0
56796,-94.3396226415094,4,1,0,80,0,0
56878,-93.0232558139535,4,1,0,80,0,0
56959,-91.743119266055,4,1,0,80,0,0
57121,-89.2857142857143,4,1,0,80,0,0
57283,-97.0873786407767,4,1,0,80,0,0
57364,-100,4,1,0,80,0,0
57608,-97.0873786407767,4,1,0,80,0,0
57689,-100,4,1,0,80,0,0
57932,-97.0873786407767,4,1,0,80,0,0
58013,-100,4,1,0,80,0,0
58256,-97.0873786407767,4,1,0,80,0,0
58337,-100,4,1,0,80,0,0
58581,-97.0873786407767,4,1,0,80,0,0
58662,-100,4,1,0,80,0,0
58905,-97.0873786407767,4,1,0,80,0,0
58986,-100,4,1,0,80,0,0
59229,-97.0873786407767,4,1,0,80,0,0
59310,-100,4,1,0,80,0,0
59554,-97.0873786407767,4,1,0,80,0,0
59635,-100,4,1,0,80,0,0
59878,-94.3396226415094,4,1,0,80,0,0
59959,-100,4,1,0,80,0,0
60202,-94.3396226415094,4,1,0,80,0,0
60283,-100,4,1,0,80,0,0
60526,-94.3396226415094,4,1,0,80,0,0
60607,-100,4,1,0,80,0,0
60851,-94.3396226415094,4,1,0,80,0,0
60932,-100,4,1,0,80,0,0
61074,-101.010101010101,4,1,0,80,0,0
61135,-102.040816326531,4,1,0,80,0,0
61195,-103.092783505155,4,1,0,80,0,0
61256,-104.166666666667,4,1,0,80,0,0
61317,-105.263157894737,4,1,0,80,0,0
61378,-106.382978723404,4,1,0,80,0,0
61439,-107.52688172043,4,1,0,80,0,0
61499,-108.695652173913,4,1,0,80,0,0
61906,-108.108108108108,4,1,0,80,0,0
61987,-106.382978723404,4,1,0,80,0,0
62068,-104.712041884817,4,1,0,80,0,0
62149,-103.092783505155,4,1,0,80,0,0
62229,-101.522842639594,4,1,0,80,0,0
62310,-100,4,1,0,80,0,0
62472,-97.0873786407767,4,1,0,80,0,0
62553,-100,4,1,0,80,0,0
62797,-97.0873786407767,4,1,0,80,0,0
62878,-100,4,1,0,80,0,0
63121,-97.0873786407767,4,1,0,80,0,0
63202,-100,4,1,0,80,0,0
63445,-97.0873786407767,4,1,0,80,0,0
63526,-100,4,1,0,80,0,0
63770,-97.0873786407767,4,1,0,80,0,0
63851,-100,4,1,0,80,0,0
64094,-97.0873786407767,4,1,0,80,0,0
64175,-100,4,1,0,80,0,0
64418,-97.0873786407767,4,1,0,80,0,0
64499,-100,4,1,0,80,0,0
64743,-97.0873786407767,4,1,0,80,0,0
64824,-100,4,1,0,80,0,0
65067,-97.0873786407767,4,1,0,80,0,0
65148,-100,4,1,0,80,0,0
65391,-97.0873786407767,4,1,0,80,0,0
65472,-100,4,1,0,80,0,0
65716,-97.0873786407767,4,1,0,80,0,0
65797,-100,4,1,0,80,0,0
66040,-97.0873786407767,4,1,0,80,0,0
66121,-100,4,1,0,80,0,0
66364,-97.0873786407767,4,1,0,80,0,0
66445,-100,4,1,0,80,0,0
66689,-97.0873786407767,4,1,0,80,0,0
66770,-100,4,1,0,80,0,0
66932,-98.5221674876847,4,1,0,80,0,0
67013,-97.0873786407767,4,1,0,80,0,0
67094,-95.6937799043062,4,1,0,80,0,0
67175,-94.3396226415094,4,1,0,80,0,0
67257,-93.0232558139535,4,1,0,80,0,0
67338,-91.743119266055,4,1,0,80,0,0
67500,-89.2857142857143,4,1,0,80,0,0
67661,-97.0873786407767,4,1,0,80,0,0
67742,-100,4,1,0,80,0,0
67986,-97.0873786407767,4,1,0,80,0,0
68067,-100,4,1,0,80,0,0
68310,-97.0873786407767,4,1,0,80,0,0
68391,-100,4,1,0,80,0,0
68634,-97.0873786407767,4,1,0,80,0,0
68715,-100,4,1,0,80,0,0
68959,-97.0873786407767,4,1,0,80,0,0
69040,-100,4,1,0,80,0,0
69283,-97.0873786407767,4,1,0,80,0,0
69364,-100,4,1,0,80,0,0
69607,-97.0873786407767,4,1,0,80,0,0
69688,-100,4,1,0,80,0,0
69932,-97.0873786407767,4,1,0,80,0,0
70013,-100,4,1,0,80,0,0
70256,-94.3396226415094,4,1,0,80,0,0
70337,-100,4,1,0,80,0,0
70580,-94.3396226415094,4,1,0,80,0,0
70661,-100,4,1,0,80,0,0
70905,-94.3396226415094,4,1,0,80,0,0
70986,-100,4,1,0,80,0,0
71229,-94.3396226415094,4,1,0,80,0,0
71310,-100,4,1,0,80,0,0
71452,-101.010101010101,4,1,0,80,0,0
71513,-102.040816326531,4,1,0,80,0,0
71573,-103.092783505155,4,1,0,80,0,0
71634,-104.166666666667,4,1,0,80,0,0
71695,-105.263157894737,4,1,0,80,0,0
71756,-106.382978723404,4,1,0,80,0,0
71817,-107.52688172043,4,1,0,80,0,0
71877,-108.695652173913,4,1,0,80,0,0
72284,-108.108108108108,4,1,0,80,0,0
72365,-106.382978723404,4,1,0,80,0,0
72446,-104.712041884817,4,1,0,80,0,0
72527,-103.092783505155,4,1,0,80,0,0
72607,-101.522842639594,4,1,0,80,0,0
72729,-100,4,1,0,80,0,0
83107,-100,4,1,0,90,0,0
92229,-98.5221674876847,4,1,0,90,0,0
92310,-97.0873786407767,4,1,0,90,0,0
92392,-95.6937799043062,4,1,0,90,0,0
92473,-94.3396226415094,4,1,0,90,0,0
92554,-93.0232558139535,4,1,0,90,0,0
92635,-91.743119266055,4,1,0,90,0,0
92716,-90.4977375565611,4,1,0,90,0,0
92959,-91.743119266055,4,1,0,90,0,0
93040,-93.0232558139535,4,1,0,90,0,0
93121,-94.3396226415094,4,1,0,90,0,0
93202,-95.6937799043062,4,1,0,90,0,0
93283,-97.0873786407767,4,1,0,90,0,0
93364,-98.5221674876847,4,1,0,90,0,0
93445,-100,4,1,0,75,0,0
93769,-102.040816326531,4,1,0,75,0,0
93891,-103.092783505155,4,1,0,75,0,0
94053,-104.166666666667,4,1,0,75,0,0
94175,-104.712041884817,4,1,0,75,0,0
94256,-105.263157894737,4,1,0,75,0,0
94377,-106.382978723404,4,1,0,75,0,0
94499,-106.951871657754,4,1,0,75,0,0
94580,-107.52688172043,4,1,0,75,0,0
94661,-108.108108108108,4,1,0,75,0,0
94783,-108.695652173913,4,1,0,75,0,0
101269,352.941176470588,4,1,0,75,1,0
101269,-99.8808714970309,4,1,0,75,0,0
101445,-98.8068836314715,4,1,0,75,0,0
101621,-97.7557465715622,4,1,0,75,0,0
101798,-96.7267387129142,4,1,0,75,0,0
101974,363.636363636364,4,1,0,75,1,8
101974,-92.9038988556942,4,1,0,75,0,8
102155,-91.9461267025427,4,1,0,75,0,8
102337,377.358490566038,4,1,0,75,1,8
102337,-87.6985227045959,4,1,0,75,0,8
102525,400,4,1,0,75,1,8
102525,-81.8987538121822,4,1,0,75,0,8
102725,431.654676258993,4,1,0,75,1,0
102725,-75.133916747296,4,1,0,75,0,0
102805,-75.8928451992889,4,1,0,75,0,0
102886,-76.6672619870367,4,1,0,75,0,0
102940,468.75,4,1,0,75,1,8
102969,-71.3279043510635,4,1,0,75,0,8
103057,-72.0709033547204,4,1,0,75,0,8
103145,-72.8295444426648,4,1,0,75,0,8
103174,545.454545454546,4,1,0,75,1,8
103242,-63.2537183698344,4,1,0,75,0,8
103344,-63.9338658791874,4,1,0,75,0,8
103446,705.882352941176,4,1,0,75,1,8
103446,-49.9404357485155,4,1,0,75,0,8
103798,750,4,1,0,75,1,0
103798,-47.0027630574263,4,1,0,75,0,0
103985,-47.0027630574263,4,1,0,25,0,0

[HitObjects]
256,192,82,5,8,0:0:0:0:
256,192,406,1,8,0:0:0:0:
256,192,568,1,8,0:0:0:0:
256,192,730,1,0,0:0:0:0:
256,192,811,1,0,0:0:0:0:
256,192,892,1,8,0:0:0:0:
256,192,1054,1,0,0:0:0:0:
256,192,1217,1,8,0:0:0:0:
256,192,1298,1,8,0:0:0:0:
256,192,1379,1,0,0:0:0:0:
256,192,1541,1,8,0:0:0:0:
256,192,1622,1,8,0:0:0:0:
256,192,1703,1,8,0:0:0:0:
256,192,1865,1,8,0:0:0:0:
256,192,2027,1,0,0:0:0:0:
256,192,2190,1,8,0:0:0:0:
256,192,2271,1,0,0:0:0:0:
256,192,2352,1,8,0:0:0:0:
256,192,2514,1,8,0:0:0:0:
256,192,2676,1,0,0:0:0:0:
256,192,3000,1,8,0:0:0:0:
256,192,3163,1,8,0:0:0:0:
256,192,3244,1,8,0:0:0:0:
256,192,3325,1,0,0:0:0:0:
256,192,3487,1,0,0:0:0:0:
256,192,3568,1,0,0:0:0:0:
256,192,3649,1,8,0:0:0:0:
256,192,3811,1,8,0:0:0:0:
256,192,3973,1,0,0:0:0:0:
256,192,4135,1,8,0:0:0:0:
256,192,4217,1,0,0:0:0:0:
256,192,4298,1,8,0:0:0:0:
256,192,4460,1,0,0:0:0:0:
256,192,4622,1,8,0:0:0:0:
256,192,4784,1,0,0:0:0:0:
256,192,4865,1,0,0:0:0:0:
256,192,4946,1,8,0:0:0:0:
256,192,5027,1,0,0:0:0:0:
256,192,5108,1,8,0:0:0:0:
256,192,5271,1,8,0:0:0:0:
256,192,5595,1,0,0:0:0:0:
256,192,5757,1,8,0:0:0:0:
256,192,5919,1,8,0:0:0:0:
256,192,6000,1,0,0:0:0:0:
256,192,6081,1,8,0:0:0:0:
256,192,6244,1,0,0:0:0:0:
256,192,6406,1,8,0:0:0:0:
256,192,6487,1,8,0:0:0:0:
256,192,6568,1,0,0:0:0:0:
256,192,6730,1,8,0:0:0:0:
256,192,6811,1,0,0:0:0:0:
256,192,6892,1,8,0:0:0:0:
256,192,7054,1,8,0:0:0:0:
256,192,7217,1,0,0:0:0:0:
256,192,7379,1,8,0:0:0:0:
256,192,7460,1,8,0:0:0:0:
256,192,7541,1,8,0:0:0:0:
256,192,7703,1,8,0:0:0:0:
256,192,7865,1,0,0:0:0:0:
256,192,8027,1,8,0:0:0:0:
256,192,8189,1,0,0:0:0:0:
256,192,8352,1,8,0:0:0:0:
256,192,8514,1,0,0:0:0:0:
256,192,8676,1,8,0:0:0:0:
256,192,8838,1,8,0:0:0:0:
256,192,9000,1,0,0:0:0:0:
256,192,9162,1,0,0:0:0:0:
256,192,9223,1,8,0:0:0:0:
256,192,9284,1,0,0:0:0:0:
256,192,9345,1,8,0:0:0:0:
256,192,9406,1,0,0:0:0:0:
256,192,9466,1,8,0:0:0:0:
256,192,9527,1,0,0:0:0:0:
256,192,9588,1,8,0:0:0:0:
256,192,9649,1,0,0:0:0:0:
256,192,9730,1,8,0:0:0:0:
256,192,9811,1,0,0:0:0:0:
256,192,10135,1,0,0:0:0:0:
256,192,10460,5,12,0:0:0:0:
256,192,10622,1,8,0:0:0:0:
256,192,10703,1,0,0:0:0:0:
256,192,10784,1,8,0:0:0:0:
256,192,10946,1,0,0:0:0:0:
256,192,11108,1,0,0:0:0:0:
256,192,11189,1,0,0:0:0:0:
256,192,11271,1,8,0:0:0:0:
256,192,11433,1,0,0:0:0:0:
256,192,11514,1,8,0:0:0:0:
256,192,11595,1,8,0:0:0:0:
256,192,11676,1,0,0:0:0:0:
256,192,11757,1,8,0:0:0:0:
256,192,11919,1,8,0:0:0:0:
256,192,12000,1,0,0:0:0:0:
256,192,12081,1,8,0:0:0:0:
256,192,12243,1,8,0:0:0:0:
256,192,12406,1,0,0:0:0:0:
256,192,12568,1,8,0:0:0:0:
256,192,12649,1,8,0:0:0:0:
256,192,12730,1,8,0:0:0:0:
256,192,12892,1,0,0:0:0:0:
256,192,13054,1,0,0:0:0:0:
256,192,13135,1,0,0:0:0:0:
256,192,13216,1,8,0:0:0:0:
256,192,13298,1,0,0:0:0:0:
256,192,13379,1,8,0:0:0:0:
256,192,13460,1,0,0:0:0:0:
256,192,13541,1,8,0:0:0:0:
256,192,13622,1,8,0:0:0:0:
256,192,13703,1,0,0:0:0:0:
256,192,13784,1,8,0:0:0:0:
256,192,13865,1,8,0:0:0:0:
256,192,13946,1,0,0:0:0:0:
256,192,14027,1,8,0:0:0:0:
256,192,14108,1,0,0:0:0:0:
256,192,14189,1,8,0:0:0:0:
256,192,14270,1,0,0:0:0:0:
256,192,14352,1,0,0:0:0:0:
256,192,14514,1,8,0:0:0:0:
256,192,14595,1,0,0:0:0:0:
256,192,14676,1,8,0:0:0:0:
256,192,14838,1,0,0:0:0:0:
256,192,15000,1,8,0:0:0:0:
256,192,15081,1,8,0:0:0:0:
256,192,15162,1,0,0:0:0:0:
256,192,15243,1,0,0:0:0:0:
256,192,15324,1,8,0:0:0:0:
256,192,15406,1,0,0:0:0:0:
256,192,15487,1,8,0:0:0:0:
256,192,15649,5,12,0:0:0:0:
256,192,15811,1,0,0:0:0:0:
256,192,15892,1,0,0:0:0:0:
256,192,15973,1,8,0:0:0:0:
256,192,16135,1,0,0:0:0:0:
256,192,16297,1,8,0:0:0:0:
256,192,16379,1,0,0:0:0:0:
256,192,16460,1,8,0:0:0:0:
256,192,16622,1,0,0:0:0:0:
256,192,16703,1,0,0:0:0:0:
256,192,16784,1,8,0:0:0:0:
256,192,16865,1,0,0:0:0:0:
256,192,16946,1,8,0:0:0:0:
256,192,17108,1,8,0:0:0:0:
256,192,17189,1,0,0:0:0:0:
256,192,17270,1,8,0:0:0:0:
256,192,17433,1,8,0:0:0:0:
256,192,17595,1,0,0:0:0:0:
256,192,17757,1,8,0:0:0:0:
256,192,17838,1,8,0:0:0:0:
256,192,17919,1,8,0:0:0:0:
256,192,18081,1,0,0:0:0:0:
256,192,18243,1,0,0:0:0:0:
256,192,18324,1,0,0:0:0:0:
256,192,18406,1,8,0:0:0:0:
256,192,18487,1,8,0:0:0:0:
256,192,18568,1,0,0:0:0:0:
256,192,18649,1,0,0:0:0:0:
256,192,18730,1,8,0:0:0:0:
256,192,18892,1,0,0:0:0:0:
256,192,18973,1,0,0:0:0:0:
256,192,19054,1,8,0:0:0:0:
256,192,19135,1,0,0:0:0:0:
256,192,19216,1,8,0:0:0:0:
256,192,19297,1,8,0:0:0:0:
256,192,19378,1,0,0:0:0:0:
256,192,19541,1,0,0:0:0:0:
256,192,19601,1,8,0:0:0:0:
256,192,19662,1,0,0:0:0:0:
256,192,19723,1,8,0:0:0:0:
256,192,19784,1,0,0:0:0:0:
256,192,19845,1,8,0:0:0:0:
256,192,19906,1,0,0:0:0:0:
256,192,19966,1,8,0:0:0:0:
256,192,20027,1,0,0:0:0:0:
256,192,20108,1,8,0:0:0:0:
256,192,20189,1,0,0:0:0:0:
256,192,20351,1,0,0:0:0:0:
256,192,20433,1,0,0:0:0:0:
256,192,20514,1,8,0:0:0:0:
256,192,20595,1,0,0:0:0:0:
256,192,20676,1,8,0:0:0:0:
256,192,20757,1,0,0:0:0:0:
256,192,20838,5,12,0:0:0:0:
256,192,21000,1,8,0:0:0:0:
256,192,21081,1,0,0:0:0:0:
256,192,21162,1,8,0:0:0:0:
256,192,21324,1,0,0:0:0:0:
256,192,21487,1,0,0:0:0:0:
256,192,21568,1,0,0:0:0:0:
256,192,21649,1,8,0:0:0:0:
256,192,21811,1,0,0:0:0:0:
256,192,21892,1,8,0:0:0:0:
256,192,21973,1,8,0:0:0:0:
256,192,22054,1,0,0:0:0:0:
256,192,22135,1,8,0:0:0:0:
256,192,22297,1,8,0:0:0:0:
256,192,22378,1,8,0:0:0:0:
256,192,22460,1,8,0:0:0:0:
256,192,22622,1,8,0:0:0:0:
256,192,22784,1,0,0:0:0:0:
256,192,22946,1,8,0:0:0:0:
256,192,23027,1,0,0:0:0:0:
256,192,23108,1,8,0:0:0:0:
256,192,23270,1,0,0:0:0:0:
256,192,23432,1,0,0:0:0:0:
256,192,23514,1,8,0:0:0:0:
256,192,23595,1,8,0:0:0:0:
256,192,23676,1,0,0:0:0:0:
256,192,23757,1,8,0:0:0:0:
256,192,23838,1,0,0:0:0:0:
256,192,23919,1,8,0:0:0:0:
256,192,24000,1,8,0:0:0:0:
256,192,24081,1,0,0:0:0:0:
256,192,24162,1,8,0:0:0:0:
256,192,24243,1,8,0:0:0:0:
256,192,24324,1,0,0:0:0:0:
256,192,24405,1,8,0:0:0:0:
256,192,24487,1,0,0:0:0:0:
256,192,24568,1,8,0:0:0:0:
256,192,24649,1,8,0:0:0:0:
256,192,24730,1,0,0:0:0:0:
256,192,24892,1,8,0:0:0:0:
256,192,24973,1,0,0:0:0:0:
256,192,25054,1,8,0:0:0:0:
256,192,25216,1,0,0:0:0:0:
256,192,25378,1,8,0:0:0:0:
256,192,25459,1,8,0:0:0:0:
256,192,25541,1,0,0:0:0:0:
256,192,25622,1,0,0:0:0:0:
256,192,25703,1,8,0:0:0:0:
256,192,25784,1,0,0:0:0:0:
256,192,25865,1,8,0:0:0:0:
256,192,26027,5,12,0:0:0:0:
256,192,26189,1,0,0:0:0:0:
256,192,26270,1,0,0:0:0:0:
256,192,26351,1,8,0:0:0:0:
256,192,26514,1,0,0:0:0:0:
256,192,26676,1,8,0:0:0:0:
256,192,26757,1,0,0:0:0:0:
256,192,26838,1,8,0:0:0:0:
256,192,27000,1,0,0:0:0:0:
256,192,27081,1,0,0:0:0:0:
256,192,27162,1,8,0:0:0:0:
256,192,27243,1,0,0:0:0:0:
256,192,27324,1,8,0:0:0:0:
256,192,27486,1,8,0:0:0:0:
256,192,27568,1,8,0:0:0:0:
256,192,27649,1,8,0:0:0:0:
256,192,27811,1,8,0:0:0:0:
256,192,27973,1,0,0:0:0:0:
256,192,28135,1,8,0:0:0:0:
256,192,28216,1,0,0:0:0:0:
256,192,28297,1,8,0:0:0:0:
256,192,28459,1,0,0:0:0:0:
256,192,28622,1,0,0:0:0:0:
256,192,28703,1,0,0:0:0:0:
256,192,28784,1,8,0:0:0:0:
256,192,28865,1,8,0:0:0:0:
256,192,28946,1,0,0:0:0:0:
256,192,29027,1,0,0:0:0:0:
256,192,29108,1,8,0:0:0:0:
256,192,29270,1,0,0:0:0:0:
256,192,29351,1,8,0:0:0:0:
256,192,29432,1,8,0:0:0:0:
256,192,29513,1,0,0:0:0:0:
256,192,29595,1,8,0:0:0:0:
256,192,29676,1,8,0:0:0:0:
256,192,29757,1,0,0:0:0:0:
256,192,29919,1,0,0:0:0:0:
256,192,29980,1,8,0:0:0:0:
256,192,30040,1,0,0:0:0:0:
256,192,30101,1,8,0:0:0:0:
256,192,30162,1,0,0:0:0:0:
256,192,30223,1,8,0:0:0:0:
256,192,30284,1,0,0:0:0:0:
256,192,30345,1,8,0:0:0:0:
256,192,30405,1,0,0:0:0:0:
256,192,30486,1,8,0:0:0:0:
256,192,30567,1,0,0:0:0:0:
256,192,30730,1,0,0:0:0:0:
256,192,30811,1,0,0:0:0:0:
256,192,30892,1,8,0:0:0:0:
256,192,30973,1,8,0:0:0:0:
256,192,31054,1,8,0:0:0:0:
256,192,31135,1,8,0:0:0:0:
256,192,31216,5,4,0:0:0:0:
256,192,31378,1,0,0:0:0:0:
256,192,31540,1,8,0:0:0:0:
256,192,31703,1,8,0:0:0:0:
256,192,32027,1,8,0:0:0:0:
256,192,32189,1,0,0:0:0:0:
256,192,32351,1,0,0:0:0:0:
256,192,32513,1,8,0:0:0:0:
256,192,32676,1,8,0:0:0:0:
256,192,32757,1,0,0:0:0:0:
256,192,32838,1,8,0:0:0:0:
256,192,33000,1,0,0:0:0:0:
256,192,33081,1,8,0:0:0:0:
256,192,33162,1,0,0:0:0:0:
256,192,33324,1,8,0:0:0:0:
256,192,33405,1,0,0:0:0:0:
256,192,33486,1,8,0:0:0:0:
256,192,33649,1,0,0:0:0:0:
256,192,33730,1,8,0:0:0:0:
256,192,33811,1,0,0:0:0:0:
256,192,33973,1,0,0:0:0:0:
256,192,34135,1,8,0:0:0:0:
256,192,34297,1,8,0:0:0:0:
256,192,34621,1,8,0:0:0:0:
256,192,34784,1,8,0:0:0:0:
256,192,34946,1,0,0:0:0:0:
256,192,35108,1,8,0:0:0:0:
256,192,35270,1,0,0:0:0:0:
256,192,35432,1,8,0:0:0:0:
256,192,35594,1,0,0:0:0:0:
256,192,35757,1,0,0:0:0:0:
256,192,35838,1,0,0:0:0:0:
256,192,35919,1,8,0:0:0:0:
256,192,36000,1,0,0:0:0:0:
256,192,36081,1,8,0:0:0:0:
256,192,36162,1,8,0:0:0:0:
256,192,36243,1,0,0:0:0:0:
256,192,36405,5,4,0:0:0:0:
256,192,36567,1,8,0:0:0:0:
256,192,36730,1,0,0:0:0:0:
256,192,36892,1,8,0:0:0:0:
256,192,37216,1,8,0:0:0:0:
256,192,37378,1,8,0:0:0:0:
256,192,37540,1,0,0:0:0:0:
256,192,37703,1,8,0:0:0:0:
256,192,37784,1,8,0:0:0:0:
256,192,37865,1,0,0:0:0:0:
256,192,37946,1,0,0:0:0:0:
256,192,38027,1,8,0:0:0:0:
256,192,38189,1,8,0:0:0:0:
256,192,38270,1,8,0:0:0:0:
256,192,38351,1,8,0:0:0:0:
256,192,38513,1,8,0:0:0:0:
256,192,38594,1,0,0:0:0:0:
256,192,38675,1,8,0:0:0:0:
256,192,38757,1,8,0:0:0:0:
256,192,38838,1,0,0:0:0:0:
256,192,38919,1,8,0:0:0:0:
256,192,39000,1,0,0:0:0:0:
256,192,39162,1,0,0:0:0:0:
256,192,39324,1,8,0:0:0:0:
256,192,39486,1,8,0:0:0:0:
256,192,39648,1,0,0:0:0:0:
256,192,39811,1,8,0:0:0:0:
256,192,39973,1,8,0:0:0:0:
256,192,40135,1,0,0:0:0:0:
256,192,40297,5,4,0:0:0:0:
256,192,40459,5,12,0:0:0:0:
256,192,40621,5,4,0:0:0:0:
256,192,40784,5,12,0:0:0:0:
256,192,41108,1,8,0:0:0:0:
256,192,41189,1,8,0:0:0:0:
256,192,41270,1,8,0:0:0:0:
256,192,41432,1,8,0:0:0:0:
256,192,41594,5,4,0:0:0:0:
256,192,41756,1,8,0:0:0:0:
256,192,41919,1,0,0:0:0:0:
256,192,42081,5,12,0:0:0:0:
256,192,42405,1,0,0:0:0:0:
256,192,42567,1,8,0:0:0:0:
256,192,42729,1,0,0:0:0:0:
256,192,42892,5,12,0:0:0:0:
256,192,43054,1,0,0:0:0:0:
256,192,43135,1,0,0:0:0:0:
256,192,43216,1,8,0:0:0:0:
256,192,43378,5,4,0:0:0:0:
256,192,43540,1,0,0:0:0:0:
256,192,43702,1,0,0:0:0:0:
256,192,43783,1,0,0:0:0:0:
256,192,43865,1,8,0:0:0:0:
256,192,44027,1,0,0:0:0:0:
256,192,44189,5,12,0:0:0:0:
256,192,44351,1,0,0:0:0:0:
256,192,44513,1,8,0:0:0:0:
256,192,44675,5,4,0:0:0:0:
256,192,45000,1,0,0:0:0:0:
256,192,45162,1,8,0:0:0:0:
256,192,45324,1,8,0:0:0:0:
256,192,45486,5,4,0:0:0:0:
256,192,45648,1,8,0:0:0:0:
256,192,45810,1,0,0:0:0:0:
256,192,45973,5,12,0:0:0:0:
256,192,46135,1,0,0:0:0:0:
256,192,46297,1,8,0:0:0:0:
256,192,46378,1,0,0:0:0:0:
256,192,46459,1,8,0:0:0:0:
256,192,46540,1,8,0:0:0:0:
256,192,46621,1,0,0:0:0:0:
256,192,46702,1,0,0:0:0:0:
256,192,46783,5,12,0:0:0:0:
256,192,46946,1,0,0:0:0:0:
256,192,47108,1,0,0:0:0:0:
256,192,47270,5,12,0:0:0:0:
256,192,47432,1,0,0:0:0:0:
256,192,47594,1,0,0:0:0:0:
256,192,47756,5,12,0:0:0:0:
256,192,47919,1,0,0:0:0:0:
256,192,48081,1,8,0:0:0:0:
256,192,48189,1,0,0:0:0:0:
256,192,48297,1,8,0:0:0:0:
256,192,48405,1,8,0:0:0:0:
256,192,48513,1,0,0:0:0:0:
256,192,48621,1,8,0:0:0:0:
256,192,48729,1,8,0:0:0:0:
256,192,48837,1,0,0:0:0:0:
256,192,48946,1,8,0:0:0:0:
256,192,49054,1,8,0:0:0:0:
256,192,49162,1,0,0:0:0:0:
256,192,49270,1,8,0:0:0:0:
256,192,49378,1,8,0:0:0:0:
256,192,49540,1,0,0:0:0:0:
256,192,49702,1,8,0:0:0:0:
256,192,49864,1,8,0:0:0:0:
256,192,50027,1,0,0:0:0:0:
256,192,50189,1,0,0:0:0:0:
256,192,50351,1,8,0:0:0:0:
256,192,50513,1,0,0:0:0:0:
256,192,50675,1,8,0:0:0:0:
256,192,50756,1,8,0:0:0:0:
256,192,50837,1,0,0:0:0:0:
256,192,50919,1,0,0:0:0:0:
256,192,51000,1,8,0:0:0:0:
256,192,51081,1,0,0:0:0:0:
256,192,51162,1,8,0:0:0:0:
256,192,51243,1,0,0:0:0:0:
256,192,51324,1,8,0:0:0:0:
256,192,51405,1,8,0:0:0:0:
256,192,51486,1,0,0:0:0:0:
256,192,51567,1,0,0:0:0:0:
256,192,51648,1,8,0:0:0:0:
256,192,51729,1,0,0:0:0:0:
256,192,51810,1,8,0:0:0:0:
256,192,51891,1,0,0:0:0:0:
256,192,51973,1,0,0:0:0:0:
256,192,52135,1,8,0:0:0:0:
256,192,52216,1,0,0:0:0:0:
256,192,52297,1,0,0:0:0:0:
256,192,52459,1,8,0:0:0:0:
256,192,52621,1,0,0:0:0:0:
256,192,52702,1,0,0:0:0:0:
256,192,52783,1,8,0:0:0:0:
256,192,52946,1,0,0:0:0:0:
256,192,53027,1,0,0:0:0:0:
256,192,53108,1,8,0:0:0:0:
256,192,53189,1,0,0:0:0:0:
256,192,53270,1,0,0:0:0:0:
256,192,53432,1,8,0:0:0:0:
256,192,53513,1,0,0:0:0:0:
256,192,53594,1,0,0:0:0:0:
256,192,53756,1,8,0:0:0:0:
256,192,53918,1,0,0:0:0:0:
256,192,54081,1,8,0:0:0:0:
256,192,54162,1,0,0:0:0:0:
256,192,54243,1,0,0:0:0:0:
256,192,54405,1,8,0:0:0:0:
256,192,54567,1,0,0:0:0:0:
256,192,54648,1,0,0:0:0:0:
256,192,54729,1,8,0:0:0:0:
256,192,54810,1,0,0:0:0:0:
256,192,54891,1,0,0:0:0:0:
256,192,54973,1,0,0:0:0:0:
256,192,55054,1,8,0:0:0:0:
256,192,55135,1,0,0:0:0:0:
256,192,55216,1,0,0:0:0:0:
256,192,55297,1,0,0:0:0:0:
256,192,55378,1,8,0:0:0:0:
256,192,55459,1,0,0:0:0:0:
256,192,55540,1,0,0:0:0:0:
256,192,55621,1,0,0:0:0:0:
256,192,55702,1,8,0:0:0:0:
256,192,55783,1,0,0:0:0:0:
256,192,55864,1,0,0:0:0:0:
256,192,56027,1,8,0:0:0:0:
256,192,56108,1,0,0:0:0:0:
256,192,56189,1,0,0:0:0:0:
256,192,56351,1,8,0:0:0:0:
256,192,56513,1,0,0:0:0:0:
256,192,56594,1,0,0:0:0:0:
256,192,56675,1,8,0:0:0:0:
256,192,56756,1,8,0:0:0:0:
256,192,56837,1,0,0:0:0:0:
256,192,56918,1,0,0:0:0:0:
256,192,56999,1,8,0:0:0:0:
256,192,57162,5,12,0:0:0:0:
256,192,57324,1,8,0:0:0:0:
256,192,57405,1,0,0:0:0:0:
256,192,57486,1,0,0:0:0:0:
256,192,57648,1,8,0:0:0:0:
256,192,57810,1,0,0:0:0:0:
256,192,57891,1,0,0:0:0:0:
256,192,57972,1,8,0:0:0:0:
256,192,58135,1,0,0:0:0:0:
256,192,58216,1,0,0:0:0:0:
256,192,58297,1,8,0:0:0:0:
256,192,58378,1,0,0:0:0:0:
256,192,58459,1,0,0:0:0:0:
256,192,58621,1,8,0:0:0:0:
256,192,58702,1,0,0:0:0:0:
256,192,58783,1,0,0:0:0:0:
256,192,58945,1,8,0:0:0:0:
256,192,59108,1,0,0:0:0:0:
256,192,59270,1,8,0:0:0:0:
256,192,59351,1,0,0:0:0:0:
256,192,59432,1,0,0:0:0:0:
256,192,59594,1,8,0:0:0:0:
256,192,59756,1,0,0:0:0:0:
256,192,59918,1,8,0:0:0:0:
256,192,60081,1,0,0:0:0:0:
256,192,60243,1,8,0:0:0:0:
256,192,60405,1,0,0:0:0:0:
256,192,60567,1,8,0:0:0:0:
256,192,60729,1,0,0:0:0:0:
256,192,60891,1,8,0:0:0:0:
256,192,61053,1,0,0:0:0:0:
256,192,61114,1,8,0:0:0:0:
256,192,61175,1,0,0:0:0:0:
256,192,61236,1,8,0:0:0:0:
256,192,61297,1,0,0:0:0:0:
256,192,61358,1,8,0:0:0:0:
256,192,61418,1,0,0:0:0:0:
256,192,61479,1,8,0:0:0:0:
256,192,61540,1,0,0:0:0:0:
256,192,61621,1,8,0:0:0:0:
256,192,61702,1,0,0:0:0:0:
256,192,61864,1,0,0:0:0:0:
256,192,61945,1,0,0:0:0:0:
256,192,62026,1,8,0:0:0:0:
256,192,62108,1,0,0:0:0:0:
256,192,62189,1,8,0:0:0:0:
256,192,62270,1,0,0:0:0:0:
256,192,62351,5,12,0:0:0:0:
256,192,62513,1,0,0:0:0:0:
256,192,62594,1,8,0:0:0:0:
256,192,62675,1,8,0:0:0:0:
256,192,62837,1,0,0:0:0:0:
256,192,62999,1,8,0:0:0:0:
256,192,63080,1,8,0:0:0:0:
256,192,63162,1,0,0:0:0:0:
256,192,63324,1,8,0:0:0:0:
256,192,63405,1,8,0:0:0:0:
256,192,63486,1,0,0:0:0:0:
256,192,63567,1,8,0:0:0:0:
256,192,63648,1,8,0:0:0:0:
256,192,63810,1,0,0:0:0:0:
256,192,63891,1,8,0:0:0:0:
256,192,63972,1,8,0:0:0:0:
256,192,64135,1,0,0:0:0:0:
256,192,64297,1,8,0:0:0:0:
256,192,64459,1,0,0:0:0:0:
256,192,64540,1,8,0:0:0:0:
256,192,64621,1,8,0:0:0:0:
256,192,64783,1,0,0:0:0:0:
256,192,64945,1,8,0:0:0:0:
256,192,65026,1,8,0:0:0:0:
256,192,65107,1,0,0:0:0:0:
256,192,65189,1,8,0:0:0:0:
256,192,65270,1,8,0:0:0:0:
256,192,65351,1,8,0:0:0:0:
256,192,65432,1,0,0:0:0:0:
256,192,65513,1,8,0:0:0:0:
256,192,65594,1,8,0:0:0:0:
256,192,65675,1,8,0:0:0:0:
256,192,65756,1,0,0:0:0:0:
256,192,65837,1,8,0:0:0:0:
256,192,65918,1,8,0:0:0:0:
256,192,65999,1,8,0:0:0:0:
256,192,66080,1,0,0:0:0:0:
256,192,66162,1,8,0:0:0:0:
256,192,66243,1,8,0:0:0:0:
256,192,66405,1,0,0:0:0:0:
256,192,66486,1,8,0:0:0:0:
256,192,66567,1,8,0:0:0:0:
256,192,66729,1,0,0:0:0:0:
256,192,66891,1,8,0:0:0:0:
256,192,66972,1,8,0:0:0:0:
256,192,67053,1,0,0:0:0:0:
256,192,67134,1,0,0:0:0:0:
256,192,67216,1,8,0:0:0:0:
256,192,67297,1,8,0:0:0:0:
256,192,67378,1,0,0:0:0:0:
256,192,67540,5,12,0:0:0:0:
256,192,67702,1,0,0:0:0:0:
256,192,67783,1,8,0:0:0:0:
256,192,67864,1,8,0:0:0:0:
256,192,68026,1,0,0:0:0:0:
256,192,68189,1,8,0:0:0:0:
256,192,68270,1,8,0:0:0:0:
256,192,68351,1,0,0:0:0:0:
256,192,68513,1,8,0:0:0:0:
256,192,68594,1,8,0:0:0:0:
256,192,68675,1,0,0:0:0:0:
256,192,68756,1,8,0:0:0:0:
256,192,68837,1,8,0:0:0:0:
256,192,68999,1,0,0:0:0:0:
256,192,69080,1,8,0:0:0:0:
256,192,69161,1,8,0:0:0:0:
256,192,69324,1,0,0:0:0:0:
256,192,69486,1,8,0:0:0:0:
256,192,69648,1,0,0:0:0:0:
256,192,69729,1,8,0:0:0:0:
256,192,69810,1,8,0:0:0:0:
256,192,69972,1,0,0:0:0:0:
256,192,70134,1,8,0:0:0:0:
256,192,70297,1,0,0:0:0:0:
256,192,70459,1,8,0:0:0:0:
256,192,70621,1,0,0:0:0:0:
256,192,70783,1,8,0:0:0:0:
256,192,70945,1,0,0:0:0:0:
256,192,71107,1,8,0:0:0:0:
256,192,71270,1,0,0:0:0:0:
256,192,71432,1,0,0:0:0:0:
256,192,71493,1,8,0:0:0:0:
256,192,71553,1,0,0:0:0:0:
256,192,71614,1,8,0:0:0:0:
256,192,71675,1,0,0:0:0:0:
256,192,71736,1,8,0:0:0:0:
256,192,71797,1,0,0:0:0:0:
256,192,71857,1,8,0:0:0:0:
256,192,71918,1,0,0:0:0:0:
256,192,71999,1,8,0:0:0:0:
256,192,72080,1,0,0:0:0:0:
256,192,72242,1,0,0:0:0:0:
256,192,72324,1,0,0:0:0:0:
256,192,72405,1,8,0:0:0:0:
256,192,72486,1,0,0:0:0:0:
256,192,72567,1,8,0:0:0:0:
256,192,72648,1,0,0:0:0:0:
256,192,72729,5,12,0:0:0:0:
256,192,72891,1,8,0:0:0:0:
256,192,73053,1,0,0:0:0:0:
256,192,73215,1,8,0:0:0:0:
256,192,73540,1,8,0:0:0:0:
256,192,73702,1,0,0:0:0:0:
256,192,73864,1,8,0:0:0:0:
256,192,74026,1,8,0:0:0:0:
256,192,74188,1,8,0:0:0:0:
256,192,74269,1,0,0:0:0:0:
256,192,74351,1,8,0:0:0:0:
256,192,74513,1,0,0:0:0:0:
256,192,74594,1,8,0:0:0:0:
256,192,74675,1,0,0:0:0:0:
256,192,74837,1,0,0:0:0:0:
256,192,74918,1,0,0:0:0:0:
256,192,74999,1,8,0:0:0:0:
256,192,75161,1,8,0:0:0:0:
256,192,75242,1,8,0:0:0:0:
256,192,75324,1,0,0:0:0:0:
256,192,75486,1,0,0:0:0:0:
256,192,75648,1,8,0:0:0:0:
256,192,75810,1,8,0:0:0:0:
256,192,76134,1,8,0:0:0:0:
256,192,76296,1,0,0:0:0:0:
256,192,76459,1,0,0:0:0:0:
256,192,76621,1,8,0:0:0:0:
256,192,76783,1,0,0:0:0:0:
256,192,76945,1,8,0:0:0:0:
256,192,77107,1,0,0:0:0:0:
256,192,77269,1,0,0:0:0:0:
256,192,77351,1,8,0:0:0:0:
256,192,77432,1,8,0:0:0:0:
256,192,77513,1,0,0:0:0:0:
256,192,77594,1,8,0:0:0:0:
256,192,77675,1,8,0:0:0:0:
256,192,77756,1,0,0:0:0:0:
256,192,77918,5,4,0:0:0:0:
256,192,78080,1,0,0:0:0:0:
256,192,78242,1,8,0:0:0:0:
256,192,78405,1,8,0:0:0:0:
256,192,78729,1,8,0:0:0:0:
256,192,78891,1,8,0:0:0:0:
256,192,79053,1,0,0:0:0:0:
256,192,79215,1,8,0:0:0:0:
256,192,79296,1,0,0:0:0:0:
256,192,79378,1,8,0:0:0:0:
256,192,79459,1,0,0:0:0:0:
256,192,79540,1,8,0:0:0:0:
256,192,79702,1,8,0:0:0:0:
256,192,79783,1,8,0:0:0:0:
256,192,79864,1,8,0:0:0:0:
256,192,80026,1,8,0:0:0:0:
256,192,80107,1,0,0:0:0:0:
256,192,80188,1,8,0:0:0:0:
256,192,80269,1,0,0:0:0:0:
256,192,80350,1,0,0:0:0:0:
256,192,80432,1,8,0:0:0:0:
256,192,80513,1,0,0:0:0:0:
256,192,80675,1,0,0:0:0:0:
256,192,80837,1,8,0:0:0:0:
256,192,80999,1,8,0:0:0:0:
256,192,81161,1,0,0:0:0:0:
256,192,81323,1,8,0:0:0:0:
256,192,81486,1,8,0:0:0:0:
256,192,81648,1,0,0:0:0:0:
256,192,81810,5,4,0:0:0:0:
256,192,81972,5,12,0:0:0:0:
256,192,82134,5,4,0:0:0:0:
256,192,82296,5,12,0:0:0:0:
256,192,82621,1,8,0:0:0:0:
256,192,82702,1,8,0:0:0:0:
256,192,82783,1,8,0:0:0:0:
256,192,82945,1,8,0:0:0:0:
256,192,83107,5,4,0:0:0:0:
256,192,83269,1,8,0:0:0:0:
256,192,83431,1,0,0:0:0:0:
256,192,83594,5,12,0:0:0:0:
256,192,83918,1,0,0:0:0:0:
256,192,84080,1,8,0:0:0:0:
256,192,84242,1,0,0:0:0:0:
256,192,84404,5,12,0:0:0:0:
256,192,84567,1,0,0:0:0:0:
256,192,84648,1,0,0:0:0:0:
256,192,84729,1,8,0:0:0:0:
256,192,84891,5,4,0:0:0:0:
256,192,85053,1,0,0:0:0:0:
256,192,85215,1,8,0:0:0:0:
256,192,85296,1,0,0:0:0:0:
256,192,85377,1,8,0:0:0:0:
256,192,85540,1,0,0:0:0:0:
256,192,85702,5,12,0:0:0:0:
256,192,85864,1,0,0:0:0:0:
256,192,86026,1,8,0:0:0:0:
256,192,86188,5,4,0:0:0:0:
256,192,86513,1,0,0:0:0:0:
256,192,86675,1,8,0:0:0:0:
256,192,86837,1,8,0:0:0:0:
256,192,86999,5,4,0:0:0:0:
256,192,87161,1,8,0:0:0:0:
256,192,87323,1,0,0:0:0:0:
256,192,87485,5,12,0:0:0:0:
256,192,87648,1,0,0:0:0:0:
256,192,87810,1,8,0:0:0:0:
256,192,87891,1,0,0:0:0:0:
256,192,87972,1,8,0:0:0:0:
256,192,88053,1,8,0:0:0:0:
256,192,88134,1,0,0:0:0:0:
256,192,88215,1,0,0:0:0:0:
256,192,88296,5,12,0:0:0:0:
256,192,88458,1,0,0:0:0:0:
256,192,88621,1,0,0:0:0:0:
256,192,88783,5,12,0:0:0:0:
256,192,88945,1,0,0:0:0:0:
256,192,89107,1,0,0:0:0:0:
256,192,89269,5,12,0:0:0:0:
256,192,89431,1,0,0:0:0:0:
256,192,89594,1,8,0:0:0:0:
256,192,89702,1,0,0:0:0:0:
256,192,89810,1,0,0:0:0:0:
256,192,89918,1,8,0:0:0:0:
256,192,90026,1,0,0:0:0:0:
256,192,90134,1,0,0:0:0:0:
256,192,90242,1,8,0:0:0:0:
256,192,90350,1,0,0:0:0:0:
256,192,90458,1,0,0:0:0:0:
256,192,90567,1,8,0:0:0:0:
256,192,90675,1,0,0:0:0:0:
256,192,90783,1,0,0:0:0:0:
256,192,90891,1,8,0:0:0:0:
256,192,91053,1,0,0:0:0:0:
256,192,91215,1,8,0:0:0:0:
256,192,91377,1,8,0:0:0:0:
256,192,91539,1,0,0:0:0:0:
256,192,91702,1,0,0:0:0:0:
256,192,91864,1,8,0:0:0:0:
256,192,92026,1,0,0:0:0:0:
256,192,92188,1,8,0:0:0:0:
256,192,92269,1,8,0:0:0:0:
256,192,92350,1,0,0:0:0:0:
256,192,92431,1,0,0:0:0:0:
256,192,92512,1,8,0:0:0:0:
256,192,92594,1,0,0:0:0:0:
256,192,92675,1,8,0:0:0:0:
256,192,92756,1,0,0:0:0:0:
256,192,92837,1,8,0:0:0:0:
256,192,92918,1,8,0:0:0:0:
256,192,92999,1,0,0:0:0:0:
256,192,93080,1,8,0:0:0:0:
256,192,93161,1,8,0:0:0:0:
256,192,93242,1,0,0:0:0:0:
256,192,93323,1,8,0:0:0:0:
256,192,93404,1,0,0:0:0:0:
256,192,93485,1,8,0:0:0:0:
256,192,93810,1,8,0:0:0:0:
256,192,93972,1,8,0:0:0:0:
256,192,94134,1,0,0:0:0:0:
256,192,94215,1,0,0:0:0:0:
256,192,94296,1,8,0:0:0:0:
256,192,94458,1,0,0:0:0:0:
256,192,94621,1,8,0:0:0:0:
256,192,94702,1,8,0:0:0:0:
256,192,94783,1,0,0:0:0:0:
256,192,94945,1,8,0:0:0:0:
256,192,95026,1,0,0:0:0:0:
256,192,95107,1,8,0:0:0:0:
256,192,95269,1,8,0:0:0:0:
256,192,95431,1,0,0:0:0:0:
256,192,95593,1,8,0:0:0:0:
256,192,95675,1,8,0:0:0:0:
256,192,95756,1,8,0:0:0:0:
256,192,95918,1,8,0:0:0:0:
256,192,96080,1,0,0:0:0:0:
256,192,96404,1,8,0:0:0:0:
256,192,96566,1,8,0:0:0:0:
256,192,96648,1,8,0:0:0:0:
256,192,96729,1,0,0:0:0:0:
256,192,96891,1,0,0:0:0:0:
256,192,96972,1,0,0:0:0:0:
256,192,97053,1,8,0:0:0:0:
256,192,97215,1,8,0:0:0:0:
256,192,97377,1,0,0:0:0:0:
256,192,97539,1,8,0:0:0:0:
256,192,97620,1,0,0:0:0:0:
256,192,97702,1,8,0:0:0:0:
256,192,97864,1,0,0:0:0:0:
256,192,98026,1,8,0:0:0:0:
256,192,98188,1,8,0:0:0:0:
256,192,98269,1,8,0:0:0:0:
256,192,98350,1,0,0:0:0:0:
256,192,98431,1,0,0:0:0:0:
256,192,98512,1,8,0:0:0:0:
256,192,98674,1,8,0:0:0:0:
256,192,98999,1,0,0:0:0:0:
256,192,99161,1,8,0:0:0:0:
256,192,99323,1,0,0:0:0:0:
256,192,99404,1,0,0:0:0:0:
256,192,99485,1,8,0:0:0:0:
256,192,99647,1,0,0:0:0:0:
256,192,99810,1,8,0:0:0:0:
256,192,99891,1,0,0:0:0:0:
256,192,99972,1,8,0:0:0:0:
256,192,100134,1,8,0:0:0:0:
256,192,100215,1,8,0:0:0:0:
256,192,100296,1,8,0:0:0:0:
256,192,100458,1,8,0:0:0:0:
256,192,100620,1,0,0:0:0:0:
256,192,100783,1,8,0:0:0:0:
256,192,100864,1,0,0:0:0:0:
256,192,100945,1,8,0:0:0:0:
256,192,101107,1,8,0:0:0:0:
256,192,101269,1,0,0:0:0:0:
256,192,101445,1,8,0:0:0:0:
256,192,101621,1,0,0:0:0:0:
256,192,101798,1,8,0:0:0:0:
256,192,101974,1,0,0:0:0:0:
256,192,102155,1,8,0:0:0:0:
256,192,102337,1,8,0:0:0:0:
256,192,102525,1,0,0:0:0:0:
256,192,102725,1,0,0:0:0:0:
256,192,102805,1,8,0:0:0:0:
256,192,102886,1,0,0:0:0:0:
256,192,102969,1,8,0:0:0:0:
256,192,103057,1,0,0:0:0:0:
256,192,103145,1,8,0:0:0:0:
256,192,103242,1,0,0:0:0:0:
256,192,103344,1,8,0:0:0:0:
256,192,103446,1,0,0:0:0:0:
256,192,103622,1,8,0:0:0:0:
256,192,103798,1,0,0:0:0:0:
256,192,103985,12,0,104548,0:0:0:0:
