osu file format v14

[General]
AudioFilename: audio.mp3
AudioLeadIn: 0
PreviewTime: 10460
Countdown: 0
SampleSet: Normal
StackLeniency: 0
Mode: 1
LetterboxInBreaks: 0
WidescreenStoryboard: 1

[Editor]
DistanceSpacing: 1
BeatDivisor: 4
GridSize: 32
TimelineZoom: 2

[Metadata]
Title:UP UP MT. CAKE
TitleUnicode:UP UP MT. CAKE
Artist:OISHII
ArtistUnicode:OISHII
Creator:Fallmorph
Version:Futsuu
Source:osu!
Tags:nsm beatmapping contest badger featured artist chiptune creamcore electronic happy kirby nes adventure hype nintendo videogame
BeatmapID:1511793
BeatmapSetID:682732

[Difficulty]
HPDrainRate:6.5
CircleSize:0
OverallDifficulty:3.8
ApproachRate:0
SliderMultiplier:1.4
SliderTickRate:1

[Events]
//Background and Video events
0,0,"bg.jpg",0,0
//Break Periods
//Storyboard Layer 0 (Background)
//Storyboard Layer 1 (Fail)
//Storyboard Layer 2 (Pass)
//Storyboard Layer 3 (Foreground)
//Storyboard Sound Samples

[TimingPoints]
82,324.319065096242,4,1,0,75,1,0
10460,-100,4,1,0,90,0,1
31216,-100,4,1,0,80,0,0
41594,-100,4,1,0,90,0,0
51973,-100,4,1,0,80,0,0
83107,-100,4,1,0,90,0,0
93445,-100,4,1,0,75,0,0
101269,352.941176470588,4,1,0,75,1,0
101269,-91.9117647058823,4,1,0,75,0,0
101974,363.636363636364,4,1,0,75,1,8
101974,-89.2857142857143,4,1,0,75,0,8
102337,377.358490566038,4,1,0,75,1,8
102525,400,4,1,0,75,1,8
102725,431.654676258993,4,1,0,75,1,0
102725,-75.187969924812,4,1,0,75,0,0
102940,468.75,4,1,0,75,1,8
103174,545.454545454546,4,1,0,75,1,8
103446,705.882352941176,4,1,0,75,1,8
103798,750,4,1,0,75,1,0
103798,-43.2432432432432,4,1,0,75,0,0

[HitObjects]
256,192,82,5,8,0:0:0:0:
256,192,730,1,0,0:0:0:0:
256,192,1054,1,0,0:0:0:0:
256,192,1379,1,8,0:0:0:0:
256,192,2027,1,0,0:0:0:0:
256,192,2352,1,8,0:0:0:0:
256,192,2676,1,0,0:0:0:0:
256,192,3325,1,0,0:0:0:0:
256,192,3973,1,0,0:0:0:0:
256,192,4298,1,8,0:0:0:0:
256,192,4622,1,8,0:0:0:0:
256,192,4946,1,0,0:0:0:0:
256,192,5108,1,8,0:0:0:0:
256,192,5271,1,8,0:0:0:0:
256,192,5919,1,0,0:0:0:0:
256,192,6244,1,0,0:0:0:0:
256,192,6568,1,8,0:0:0:0:
256,192,7217,1,0,0:0:0:0:
256,192,7541,1,8,0:0:0:0:
256,192,7865,1,0,0:0:0:0:
256,192,8514,1,0,0:0:0:0:
256,192,9162,2,0,B|256:52|256:52|256:192,1,280
256,192,10460,5,12,0:0:0:0:
256,192,10785,1,8,0:0:0:0:
256,192,10947,1,8,0:0:0:0:
256,192,11109,1,0,0:0:0:0:
256,192,11434,1,8,0:0:0:0:
256,192,11758,1,0,0:0:0:0:
256,192,12082,1,8,0:0:0:0:
256,192,12244,1,0,0:0:0:0:
256,192,12407,1,0,0:0:0:0:
256,192,12731,1,8,0:0:0:0:
256,192,13055,1,0,0:0:0:0:
256,192,13704,1,0,0:0:0:0:
256,192,14353,1,0,0:0:0:0:
256,192,14677,1,8,0:0:0:0:
256,192,15001,1,0,0:0:0:0:
256,192,15163,1,0,0:0:0:0:
256,192,15325,1,8,0:0:0:0:
256,192,15650,5,12,0:0:0:0:
256,192,15974,1,8,0:0:0:0:
256,192,16136,1,8,0:0:0:0:
256,192,16298,1,0,0:0:0:0:
256,192,16623,1,8,0:0:0:0:
256,192,16947,1,0,0:0:0:0:
256,192,17271,1,8,0:0:0:0:
256,192,17433,1,0,0:0:0:0:
256,192,17596,1,0,0:0:0:0:
256,192,17920,1,8,0:0:0:0:
256,192,18244,1,0,0:0:0:0:
256,192,18893,1,0,0:0:0:0:
256,192,19541,2,0,B|256:52|256:52|256:192,1,280
256,192,20515,1,8,0:0:0:0:
256,192,20839,5,12,0:0:0:0:
256,192,21163,1,8,0:0:0:0:
256,192,21325,1,0,0:0:0:0:
256,192,21487,1,0,0:0:0:0:
256,192,21812,1,8,0:0:0:0:
256,192,22136,1,0,0:0:0:0:
256,192,22460,1,8,0:0:0:0:
256,192,22623,1,8,0:0:0:0:
256,192,22785,1,0,0:0:0:0:
256,192,23109,1,8,0:0:0:0:
256,192,23433,1,0,0:0:0:0:
256,192,24082,1,0,0:0:0:0:
256,192,24731,1,0,0:0:0:0:
256,192,25055,1,8,0:0:0:0:
256,192,25379,1,0,0:0:0:0:
256,192,25541,1,0,0:0:0:0:
256,192,25704,1,8,0:0:0:0:
256,192,26027,5,12,0:0:0:0:
256,192,26352,1,8,0:0:0:0:
256,192,26514,1,0,0:0:0:0:
256,192,26676,1,0,0:0:0:0:
256,192,27001,1,8,0:0:0:0:
256,192,27325,1,0,0:0:0:0:
256,192,27649,1,8,0:0:0:0:
256,192,27812,1,8,0:0:0:0:
256,192,27974,1,0,0:0:0:0:
256,192,28298,1,8,0:0:0:0:
256,192,28622,1,0,0:0:0:0:
256,192,29271,1,0,0:0:0:0:
256,192,29920,2,0,B|256:52|256:52|256:192,1,280
256,192,30893,1,8,0:0:0:0:
256,192,31216,5,4,0:0:0:0:
256,192,31540,1,8,0:0:0:0:
256,192,32189,1,8,0:0:0:0:
256,192,32513,1,0,0:0:0:0:
256,192,32838,1,8,0:0:0:0:
256,192,33000,1,0,0:0:0:0:
256,192,33324,1,0,0:0:0:0:
256,192,33486,1,8,0:0:0:0:
256,192,33811,1,0,0:0:0:0:
256,192,34135,1,8,0:0:0:0:
256,192,34784,1,8,0:0:0:0:
256,192,35108,1,0,0:0:0:0:
256,192,35432,1,8,0:0:0:0:
256,192,35594,1,0,0:0:0:0:
256,192,35919,1,8,0:0:0:0:
256,192,36081,1,8,0:0:0:0:
256,192,36405,5,4,0:0:0:0:
256,192,36730,1,8,0:0:0:0:
256,192,37378,1,8,0:0:0:0:
256,192,37702,1,0,0:0:0:0:
256,192,38027,1,8,0:0:0:0:
256,192,38189,1,0,0:0:0:0:
256,192,38513,1,0,0:0:0:0:
256,192,38675,1,8,0:0:0:0:
256,192,39000,1,0,0:0:0:0:
256,192,39324,1,8,0:0:0:0:
256,192,39973,1,8,0:0:0:0:
256,192,40297,1,0,0:0:0:0:
256,192,40621,1,0,0:0:0:0:
256,192,40783,1,8,0:0:0:0:
256,192,41108,1,8,0:0:0:0:
256,192,41432,1,8,0:0:0:0:
256,192,41594,5,4,0:0:0:0:
256,192,41919,1,8,0:0:0:0:
256,192,42567,1,8,0:0:0:0:
256,192,42891,5,4,0:0:0:0:
256,192,43216,1,8,0:0:0:0:
256,192,43378,1,0,0:0:0:0:
256,192,43702,1,0,0:0:0:0:
256,192,43864,1,8,0:0:0:0:
256,192,44189,5,4,0:0:0:0:
256,192,44513,1,8,0:0:0:0:
256,192,45162,1,8,0:0:0:0:
256,192,45486,5,4,0:0:0:0:
256,192,45810,1,0,0:0:0:0:
256,192,45972,1,8,0:0:0:0:
256,192,46459,1,8,0:0:0:0:
256,192,46783,5,12,0:0:0:0:
256,192,47270,5,12,0:0:0:0:
256,192,47756,5,12,0:0:0:0:
256,192,48243,5,12,0:0:0:0:
256,192,48729,1,8,0:0:0:0:
256,192,49054,1,0,0:0:0:0:
256,192,49378,1,8,0:0:0:0:
256,192,50027,1,0,0:0:0:0:
256,192,50351,1,8,0:0:0:0:
256,192,50675,1,0,0:0:0:0:
256,192,50999,1,8,0:0:0:0:
256,192,51162,1,0,0:0:0:0:
256,192,51324,1,8,0:0:0:0:
256,192,51648,1,8,0:0:0:0:
256,192,51810,1,8,0:0:0:0:
256,192,51973,1,0,0:0:0:0:
256,192,52621,1,8,0:0:0:0:
256,192,52946,1,8,0:0:0:0:
256,192,53270,1,0,0:0:0:0:
256,192,53594,1,8,0:0:0:0:
256,192,53919,1,0,0:0:0:0:
256,192,54243,1,8,0:0:0:0:
256,192,54405,1,8,0:0:0:0:
256,192,54567,1,0,0:0:0:0:
256,192,55216,1,0,0:0:0:0:
256,192,55865,1,0,0:0:0:0:
256,192,56189,1,8,0:0:0:0:
256,192,56513,1,8,0:0:0:0:
256,192,56837,1,0,0:0:0:0:
256,192,57000,1,8,0:0:0:0:
256,192,57162,5,12,0:0:0:0:
256,192,57810,1,0,0:0:0:0:
256,192,58135,1,0,0:0:0:0:
256,192,58459,1,8,0:0:0:0:
256,192,58783,1,8,0:0:0:0:
256,192,59108,1,0,0:0:0:0:
256,192,59432,1,8,0:0:0:0:
256,192,59594,1,0,0:0:0:0:
256,192,59756,1,0,0:0:0:0:
256,192,60405,1,0,0:0:0:0:
256,192,61054,2,0,B|256:52|256:52|256:192,1,280
256,192,62027,1,8,0:0:0:0:
256,192,62351,5,12,0:0:0:0:
256,192,62999,1,0,0:0:0:0:
256,192,63324,1,8,0:0:0:0:
256,192,63648,1,0,0:0:0:0:
256,192,63973,1,8,0:0:0:0:
256,192,64297,1,0,0:0:0:0:
256,192,64621,1,8,0:0:0:0:
256,192,64783,1,8,0:0:0:0:
256,192,64945,1,0,0:0:0:0:
256,192,65594,1,0,0:0:0:0:
256,192,66243,1,0,0:0:0:0:
256,192,66567,1,8,0:0:0:0:
256,192,66891,1,8,0:0:0:0:
256,192,67215,1,0,0:0:0:0:
256,192,67378,1,8,0:0:0:0:
256,192,67540,5,12,0:0:0:0:
256,192,68188,1,0,0:0:0:0:
256,192,68513,1,0,0:0:0:0:
256,192,68837,1,8,0:0:0:0:
256,192,69162,1,8,0:0:0:0:
256,192,69486,1,0,0:0:0:0:
256,192,69810,1,8,0:0:0:0:
256,192,69972,1,0,0:0:0:0:
256,192,70134,1,0,0:0:0:0:
256,192,70783,1,0,0:0:0:0:
256,192,71432,2,0,B|256:52|256:52|256:192,1,280
256,192,72405,1,8,0:0:0:0:
256,192,72729,5,12,0:0:0:0:
256,192,73053,1,8,0:0:0:0:
256,192,73702,1,8,0:0:0:0:
256,192,74026,1,0,0:0:0:0:
256,192,74351,1,8,0:0:0:0:
256,192,74513,1,0,0:0:0:0:
256,192,74837,1,0,0:0:0:0:
256,192,74999,1,8,0:0:0:0:
256,192,75324,1,0,0:0:0:0:
256,192,75648,1,8,0:0:0:0:
256,192,76297,1,8,0:0:0:0:
256,192,76621,1,0,0:0:0:0:
256,192,76945,1,8,0:0:0:0:
256,192,77107,1,0,0:0:0:0:
256,192,77432,1,8,0:0:0:0:
256,192,77594,1,8,0:0:0:0:
256,192,77918,5,4,0:0:0:0:
256,192,78242,1,8,0:0:0:0:
256,192,78891,1,8,0:0:0:0:
256,192,79215,1,0,0:0:0:0:
256,192,79540,1,8,0:0:0:0:
256,192,79702,1,0,0:0:0:0:
256,192,80026,1,0,0:0:0:0:
256,192,80188,1,8,0:0:0:0:
256,192,80513,1,0,0:0:0:0:
256,192,80837,1,8,0:0:0:0:
256,192,81486,1,8,0:0:0:0:
256,192,81810,1,0,0:0:0:0:
256,192,82134,1,0,0:0:0:0:
256,192,82296,1,8,0:0:0:0:
256,192,82621,1,8,0:0:0:0:
256,192,82945,1,8,0:0:0:0:
256,192,83107,5,4,0:0:0:0:
256,192,83431,1,8,0:0:0:0:
256,192,84080,1,8,0:0:0:0:
256,192,84404,5,4,0:0:0:0:
256,192,84729,1,8,0:0:0:0:
256,192,84891,1,0,0:0:0:0:
256,192,85215,1,0,0:0:0:0:
256,192,85377,1,8,0:0:0:0:
256,192,85702,5,4,0:0:0:0:
256,192,86026,1,8,0:0:0:0:
256,192,86675,1,8,0:0:0:0:
256,192,86999,5,4,0:0:0:0:
256,192,87323,1,0,0:0:0:0:
256,192,87485,1,8,0:0:0:0:
256,192,87972,1,8,0:0:0:0:
256,192,88296,5,12,0:0:0:0:
256,192,88783,5,12,0:0:0:0:
256,192,89269,5,12,0:0:0:0:
256,192,89756,5,12,0:0:0:0:
256,192,90242,1,8,0:0:0:0:
256,192,90567,1,0,0:0:0:0:
256,192,90891,1,8,0:0:0:0:
256,192,91539,1,0,0:0:0:0:
256,192,91864,1,8,0:0:0:0:
256,192,92188,1,0,0:0:0:0:
256,192,92512,1,8,0:0:0:0:
256,192,92675,1,0,0:0:0:0:
256,192,92837,1,8,0:0:0:0:
256,192,93161,1,8,0:0:0:0:
256,192,93323,1,8,0:0:0:0:
256,192,93485,1,8,0:0:0:0:
256,192,94133,1,0,0:0:0:0:
256,192,94457,1,0,0:0:0:0:
256,192,94782,1,8,0:0:0:0:
256,192,95430,1,0,0:0:0:0:
256,192,95756,1,8,0:0:0:0:
256,192,96079,1,0,0:0:0:0:
256,192,96728,1,0,0:0:0:0:
256,192,97376,1,0,0:0:0:0:
256,192,97701,1,8,0:0:0:0:
256,192,98025,1,8,0:0:0:0:
256,192,98349,1,0,0:0:0:0:
256,192,98511,1,8,0:0:0:0:
256,192,98674,1,8,0:0:0:0:
256,192,99322,1,0,0:0:0:0:
256,192,99647,1,0,0:0:0:0:
256,192,99971,1,8,0:0:0:0:
256,192,100620,1,0,0:0:0:0:
256,192,100945,1,8,0:0:0:0:
256,192,101269,1,0,0:0:0:0:
256,192,101974,1,0,0:0:0:0:
256,192,102725,12,0,103798,0:0:0:0:
