osu file format v14

[General]
AudioFilename: audio.mp3
AudioLeadIn: 0
PreviewTime: 82
Countdown: 0
SampleSet: Soft
StackLeniency: 0.7
Mode: 3
LetterboxInBreaks: 0
SpecialStyle: 0
WidescreenStoryboard: 0

[Editor]
DistanceSpacing: 0.8
BeatDivisor: 4
GridSize: 8
TimelineZoom: 1.8

[Metadata]
Title:UP UP MT. CAKE
TitleUnicode:UP UP MT. CAKE
Artist:OISHII
ArtistUnicode:OISHII
Creator:Carpihat
Version:YUM YUM CARPI. EASY
Source:
Tags:featured artist fa chiptune creamcore instrumental electronic happy kirby nes adventure hype nintendo video game mount cai_ji_ccc
BeatmapID:4332212
BeatmapSetID:2069976

[Difficulty]
HPDrainRate:6.5
CircleSize:4
OverallDifficulty:6.5
ApproachRate:5
SliderMultiplier:1.4
SliderTickRate:1

[Events]
//Background and Video events
0,0,"bg.jpg",0,0
//Break Periods
//Storyboard Layer 0 (Background)
//Storyboard Layer 1 (Fail)
//Storyboard Layer 2 (Pass)
//Storyboard Layer 3 (Foreground)
//Storyboard Layer 4 (Overlay)
//Storyboard Sound Samples

[TimingPoints]
82,324.324324324324,4,2,1,35,1,0
41595,-100,4,2,1,50,0,1
72730,-100,4,2,1,35,0,0
83109,-100,4,2,1,50,0,1
93487,-100,4,2,1,35,0,0
101269,352.941176470588,4,2,1,33,1,0
101269,-91.743119266055,4,2,1,33,0,0
101974,363.636363636364,4,2,1,31,1,0
101974,-89.2857142857143,4,2,1,31,0,0
102337,377.358490566038,4,2,1,29,1,0
102337,-86.2068965517241,4,2,1,29,0,0
102525,400,4,2,1,27,1,0
102525,-81.3008130081301,4,2,1,27,0,0
102725,431.654676258993,4,2,1,25,1,0
102725,-75.187969924812,4,2,1,25,0,0
102940,468.75,4,2,1,23,1,0
102940,-68.9655172413793,4,2,1,23,0,0
103174,545.454545454546,4,2,1,21,1,0
103174,-59.5238095238095,4,2,1,21,0,0
103446,705.882352941176,4,2,1,19,1,0
103446,-45.8715596330275,4,2,1,19,0,0
103798,750,4,2,1,17,1,0
103798,-43.2900432900433,4,2,1,17,0,0

[HitObjects]
448,192,82,5,0,0:0:0:0:
192,192,244,1,0,0:0:0:0:
64,192,568,1,0,0:0:0:0:
320,192,730,1,0,0:0:0:0:
192,192,1054,128,0,1379:0:0:0:0:
448,192,1379,1,0,0:0:0:0:
64,192,1541,1,0,0:0:0:0:
320,192,1865,1,0,0:0:0:0:
192,192,2027,1,0,0:0:0:0:
448,192,2190,1,0,0:0:0:0:
320,192,2514,1,0,0:0:0:0:
64,192,2676,128,0,3000:0:0:0:0:
448,192,3000,128,0,3325:0:0:0:0:
192,192,3325,128,0,3649:0:0:0:0:
448,192,3649,128,0,3973:0:0:0:0:
64,192,3973,128,0,4298:0:0:0:0:
320,192,4298,128,0,4622:0:0:0:0:
192,192,4622,1,0,0:0:0:0:
64,192,4946,1,0,0:0:0:0:
448,192,5271,1,0,0:0:0:0:
192,192,5433,1,0,0:0:0:0:
64,192,5757,1,0,0:0:0:0:
320,192,5919,1,0,0:0:0:0:
192,192,6244,128,0,6568:0:0:0:0:
448,192,6568,1,0,0:0:0:0:
64,192,6730,1,0,0:0:0:0:
320,192,7054,1,0,0:0:0:0:
192,192,7217,1,0,0:0:0:0:
448,192,7379,1,0,0:0:0:0:
320,192,7703,1,0,0:0:0:0:
192,192,7865,128,0,8190:0:0:0:0:
320,192,8190,128,0,8514:0:0:0:0:
448,192,8514,128,0,8838:0:0:0:0:
64,192,8838,128,0,9163:0:0:0:0:
448,192,9163,128,0,9811:0:0:0:0:
192,192,9811,128,0,10136:0:0:0:0:
448,192,10460,1,0,0:0:0:0:
320,192,10460,1,0,0:0:0:0:
192,192,10622,1,0,0:0:0:0:
64,192,10784,1,0,0:0:0:0:
320,192,10946,1,0,0:0:0:0:
448,192,11109,1,0,0:0:0:0:
192,192,11433,128,0,11757:0:0:0:0:
448,192,11757,1,0,0:0:0:0:
320,192,11919,1,0,0:0:0:0:
64,192,12081,1,0,0:0:0:0:
320,192,12244,1,0,0:0:0:0:
192,192,12406,1,0,0:0:0:0:
448,192,12730,1,0,0:0:0:0:
320,192,12892,1,0,0:0:0:0:
64,192,13054,128,0,13379:0:0:0:0:
448,192,13379,128,0,13703:0:0:0:0:
192,192,13703,128,0,14027:0:0:0:0:
448,192,14027,128,0,14352:0:0:0:0:
64,192,14352,128,0,14676:0:0:0:0:
320,192,14676,128,0,15000:0:0:0:0:
64,192,15000,128,0,15325:0:0:0:0:
192,192,15325,128,0,15649:0:0:0:0:
448,192,15649,1,0,0:0:0:0:
320,192,15649,1,0,0:0:0:0:
64,192,15811,1,0,0:0:0:0:
448,192,15973,1,0,0:0:0:0:
192,192,16136,1,0,0:0:0:0:
320,192,16298,1,0,0:0:0:0:
192,192,16622,128,0,16946:0:0:0:0:
448,192,16946,1,0,0:0:0:0:
320,192,17109,1,0,0:0:0:0:
64,192,17271,1,0,0:0:0:0:
320,192,17433,1,0,0:0:0:0:
192,192,17595,1,0,0:0:0:0:
448,192,17919,1,0,0:0:0:0:
320,192,18081,1,0,0:0:0:0:
64,192,18244,128,0,18568:0:0:0:0:
192,192,18568,128,0,18892:0:0:0:0:
320,192,18892,128,0,19217:0:0:0:0:
448,192,19217,128,0,19541:0:0:0:0:
192,192,19541,128,0,20190:0:0:0:0:
448,192,20190,1,0,0:0:0:0:
320,192,20514,128,0,20838:0:0:0:0:
64,192,20838,1,0,0:0:0:0:
448,192,20838,1,0,0:0:0:0:
192,192,21000,1,0,0:0:0:0:
320,192,21163,1,0,0:0:0:0:
192,192,21325,1,0,0:0:0:0:
64,192,21487,1,0,0:0:0:0:
448,192,21811,128,0,22136:0:0:0:0:
64,192,22136,1,0,0:0:0:0:
320,192,22298,1,0,0:0:0:0:
448,192,22460,1,0,0:0:0:0:
192,192,22622,1,0,0:0:0:0:
64,192,22784,1,0,0:0:0:0:
320,192,23109,1,0,0:0:0:0:
192,192,23271,1,0,0:0:0:0:
448,192,23433,128,0,23757:0:0:0:0:
64,192,23757,128,0,24081:0:0:0:0:
320,192,24081,128,0,24406:0:0:0:0:
64,192,24406,128,0,24730:0:0:0:0:
448,192,24730,128,0,25054:0:0:0:0:
192,192,25054,128,0,25379:0:0:0:0:
448,192,25379,128,0,25703:0:0:0:0:
320,192,25703,128,0,26027:0:0:0:0:
64,192,26027,1,0,0:0:0:0:
448,192,26027,1,0,0:0:0:0:
192,192,26190,1,0,0:0:0:0:
448,192,26352,1,0,0:0:0:0:
320,192,26514,1,0,0:0:0:0:
192,192,26676,1,0,0:0:0:0:
320,192,27000,128,0,27325:0:0:0:0:
64,192,27325,1,0,0:0:0:0:
192,192,27487,1,0,0:0:0:0:
448,192,27649,1,0,0:0:0:0:
320,192,27811,1,0,0:0:0:0:
192,192,27973,1,0,0:0:0:0:
192,192,28298,1,0,0:0:0:0:
64,192,28460,1,0,0:0:0:0:
448,192,28622,128,0,28946:0:0:0:0:
320,192,28946,128,0,29271:0:0:0:0:
192,192,29271,128,0,29595:0:0:0:0:
64,192,29595,128,0,29919:0:0:0:0:
320,192,29919,128,0,30568:0:0:0:0:
64,192,30568,128,0,30892:0:0:0:0:
448,192,30892,128,0,31217:0:0:0:0:
320,192,31217,1,0,0:0:0:0:
192,192,31217,1,0,0:0:0:0:
64,192,31379,1,0,0:0:0:0:
448,192,31541,1,0,0:0:0:0:
320,192,31703,1,0,0:0:0:0:
192,192,32027,1,0,0:0:0:0:
64,192,32190,1,0,0:0:0:0:
448,192,32352,1,0,0:0:0:0:
192,192,32514,1,0,0:0:0:0:
320,192,32676,1,0,0:0:0:0:
192,192,33000,1,0,0:0:0:0:
64,192,33325,1,0,0:0:0:0:
448,192,33649,1,0,0:0:0:0:
320,192,33811,1,0,0:0:0:0:
64,192,33973,1,0,0:0:0:0:
192,192,34136,1,0,0:0:0:0:
320,192,34298,1,0,0:0:0:0:
448,192,34622,1,0,0:0:0:0:
320,192,34784,128,0,35109:0:0:0:0:
192,192,35109,1,0,0:0:0:0:
64,192,35271,1,0,0:0:0:0:
320,192,35433,1,0,0:0:0:0:
192,192,35595,1,0,0:0:0:0:
448,192,35757,128,0,36406:0:0:0:0:
192,192,36406,1,0,0:0:0:0:
64,192,36406,1,0,0:0:0:0:
320,192,36568,1,0,0:0:0:0:
64,192,36730,1,0,0:0:0:0:
448,192,36892,1,0,0:0:0:0:
192,192,37217,1,0,0:0:0:0:
320,192,37379,1,0,0:0:0:0:
64,192,37541,1,0,0:0:0:0:
448,192,37703,1,0,0:0:0:0:
192,192,37865,1,0,0:0:0:0:
320,192,38190,1,0,0:0:0:0:
448,192,38514,1,0,0:0:0:0:
64,192,38838,1,0,0:0:0:0:
320,192,39000,128,0,39325:0:0:0:0:
64,192,39325,128,0,39649:0:0:0:0:
192,192,39649,128,0,39973:0:0:0:0:
448,192,39973,128,0,40298:0:0:0:0:
64,192,40298,1,0,0:0:0:0:
320,192,40460,1,0,0:0:0:0:
192,192,40622,1,0,0:0:0:0:
448,192,40784,1,0,0:0:0:0:
64,192,40946,128,0,41595:0:0:0:0:
448,192,41595,1,0,0:0:0:0:
320,192,41595,1,0,0:0:0:0:
192,192,41757,1,0,0:0:0:0:
64,192,41919,1,0,0:0:0:0:
448,192,42081,1,0,0:0:0:0:
192,192,42406,1,0,0:0:0:0:
320,192,42568,1,0,0:0:0:0:
64,192,42730,1,0,0:0:0:0:
448,192,42892,1,0,0:0:0:0:
320,192,43054,1,0,0:0:0:0:
64,192,43379,1,0,0:0:0:0:
192,192,43703,1,0,0:0:0:0:
320,192,44027,1,0,0:0:0:0:
448,192,44190,1,0,0:0:0:0:
192,192,44352,1,0,0:0:0:0:
320,192,44514,1,0,0:0:0:0:
64,192,44676,1,0,0:0:0:0:
192,192,45000,1,0,0:0:0:0:
320,192,45163,128,0,45487:0:0:0:0:
192,192,45487,1,0,0:0:0:0:
64,192,45649,1,0,0:0:0:0:
320,192,45811,1,0,0:0:0:0:
448,192,45973,128,0,46460:0:0:0:0:
64,192,46622,1,0,0:0:0:0:
320,192,46784,128,0,47109:0:0:0:0:
192,192,47271,128,0,47595:0:0:0:0:
448,192,47757,128,0,48081:0:0:0:0:
64,192,48244,128,0,48568:0:0:0:0:
192,192,48730,128,0,49054:0:0:0:0:
320,192,49054,128,0,49379:0:0:0:0:
448,192,49379,1,0,0:0:0:0:
64,192,49541,1,0,0:0:0:0:
320,192,49703,1,0,0:0:0:0:
192,192,49865,128,0,50190:0:0:0:0:
320,192,50190,1,0,0:0:0:0:
64,192,50352,1,0,0:0:0:0:
448,192,50514,128,0,50838:0:0:0:0:
64,192,50838,1,0,0:0:0:0:
320,192,51000,1,0,0:0:0:0:
192,192,51163,128,0,51487:0:0:0:0:
320,192,51487,1,0,0:0:0:0:
64,192,51649,128,0,51973:0:0:0:0:
320,192,51973,1,0,0:0:0:0:
448,192,51973,1,0,0:0:0:0:
192,192,52136,1,0,0:0:0:0:
320,192,52298,1,0,0:0:0:0:
448,192,52460,1,0,0:0:0:0:
64,192,52622,1,0,0:0:0:0:
192,192,52946,128,0,53271:0:0:0:0:
448,192,53271,1,0,0:0:0:0:
64,192,53433,1,0,0:0:0:0:
320,192,53595,1,0,0:0:0:0:
192,192,53757,1,0,0:0:0:0:
64,192,53919,1,0,0:0:0:0:
448,192,54244,1,0,0:0:0:0:
320,192,54406,1,0,0:0:0:0:
64,192,54568,128,0,54892:0:0:0:0:
448,192,54892,128,0,55217:0:0:0:0:
192,192,55217,128,0,55541:0:0:0:0:
448,192,55541,128,0,55865:0:0:0:0:
64,192,55865,128,0,56190:0:0:0:0:
320,192,56190,128,0,56514:0:0:0:0:
64,192,56514,128,0,56838:0:0:0:0:
192,192,56838,128,0,57163:0:0:0:0:
320,192,57163,1,0,0:0:0:0:
448,192,57163,1,0,0:0:0:0:
64,192,57325,1,0,0:0:0:0:
448,192,57487,1,0,0:0:0:0:
192,192,57649,1,0,0:0:0:0:
320,192,57811,1,0,0:0:0:0:
192,192,58136,128,0,58460:0:0:0:0:
448,192,58460,1,0,0:0:0:0:
64,192,58622,1,0,0:0:0:0:
320,192,58784,1,0,0:0:0:0:
192,192,58946,1,0,0:0:0:0:
448,192,59109,1,0,0:0:0:0:
64,192,59433,1,0,0:0:0:0:
448,192,59595,1,0,0:0:0:0:
192,192,59757,128,0,60081:0:0:0:0:
320,192,60081,128,0,60406:0:0:0:0:
448,192,60406,128,0,60730:0:0:0:0:
64,192,60730,128,0,61054:0:0:0:0:
192,192,61054,128,0,61703:0:0:0:0:
448,192,61703,128,0,62027:0:0:0:0:
320,192,62027,128,0,62352:0:0:0:0:
192,192,62352,1,0,0:0:0:0:
64,192,62352,1,0,0:0:0:0:
448,192,62514,1,0,0:0:0:0:
192,192,62676,1,0,0:0:0:0:
320,192,62838,1,0,0:0:0:0:
64,192,63000,1,0,0:0:0:0:
448,192,63325,128,0,63649:0:0:0:0:
192,192,63649,1,0,0:0:0:0:
320,192,63811,1,0,0:0:0:0:
64,192,63973,1,0,0:0:0:0:
448,192,64136,1,0,0:0:0:0:
192,192,64298,1,0,0:0:0:0:
320,192,64622,1,0,0:0:0:0:
64,192,64784,1,0,0:0:0:0:
448,192,64946,128,0,65271:0:0:0:0:
64,192,65271,128,0,65595:0:0:0:0:
320,192,65595,128,0,65919:0:0:0:0:
64,192,65919,128,0,66244:0:0:0:0:
448,192,66244,128,0,66568:0:0:0:0:
192,192,66568,128,0,66892:0:0:0:0:
448,192,66892,128,0,67217:0:0:0:0:
320,192,67217,128,0,67541:0:0:0:0:
192,192,67541,1,0,0:0:0:0:
64,192,67541,1,0,0:0:0:0:
448,192,67703,1,0,0:0:0:0:
64,192,67865,1,0,0:0:0:0:
320,192,68027,1,0,0:0:0:0:
192,192,68190,1,0,0:0:0:0:
320,192,68514,128,0,68838:0:0:0:0:
64,192,68838,1,0,0:0:0:0:
448,192,69000,1,0,0:0:0:0:
192,192,69163,1,0,0:0:0:0:
320,192,69325,1,0,0:0:0:0:
64,192,69487,1,0,0:0:0:0:
320,192,69811,1,0,0:0:0:0:
192,192,69973,1,0,0:0:0:0:
448,192,70136,128,0,70460:0:0:0:0:
320,192,70460,128,0,70784:0:0:0:0:
192,192,70784,128,0,71109:0:0:0:0:
64,192,71109,128,0,71433:0:0:0:0:
192,192,71433,128,0,72081:0:0:0:0:
320,192,72081,128,0,72406:0:0:0:0:
448,192,72406,128,0,72730:0:0:0:0:
192,192,72730,1,0,0:0:0:0:
320,192,72730,1,0,0:0:0:0:
64,192,72892,1,0,0:0:0:0:
448,192,73054,1,0,0:0:0:0:
320,192,73217,1,0,0:0:0:0:
192,192,73541,1,0,0:0:0:0:
64,192,73703,1,0,0:0:0:0:
448,192,73865,1,0,0:0:0:0:
192,192,74027,1,0,0:0:0:0:
320,192,74190,1,0,0:0:0:0:
192,192,74514,1,0,0:0:0:0:
64,192,74838,1,0,0:0:0:0:
448,192,75163,1,0,0:0:0:0:
320,192,75325,1,0,0:0:0:0:
192,192,75487,1,0,0:0:0:0:
320,192,75649,1,0,0:0:0:0:
64,192,75811,1,0,0:0:0:0:
448,192,76136,1,0,0:0:0:0:
320,192,76298,128,0,76622:0:0:0:0:
192,192,76622,1,0,0:0:0:0:
64,192,76784,1,0,0:0:0:0:
320,192,76946,1,0,0:0:0:0:
192,192,77109,1,0,0:0:0:0:
448,192,77271,128,0,77919:0:0:0:0:
64,192,77919,1,0,0:0:0:0:
320,192,77919,1,0,0:0:0:0:
192,192,78081,1,0,0:0:0:0:
320,192,78244,1,0,0:0:0:0:
448,192,78406,1,0,0:0:0:0:
192,192,78730,1,0,0:0:0:0:
320,192,78892,1,0,0:0:0:0:
64,192,79054,1,0,0:0:0:0:
448,192,79217,1,0,0:0:0:0:
320,192,79379,1,0,0:0:0:0:
192,192,79703,1,0,0:0:0:0:
64,192,80027,1,0,0:0:0:0:
448,192,80352,1,0,0:0:0:0:
320,192,80514,128,0,80838:0:0:0:0:
64,192,80838,128,0,81163:0:0:0:0:
192,192,81163,128,0,81487:0:0:0:0:
448,192,81487,128,0,81811:0:0:0:0:
64,192,81811,1,0,0:0:0:0:
320,192,81973,1,0,0:0:0:0:
192,192,82136,1,0,0:0:0:0:
448,192,82298,1,0,0:0:0:0:
64,192,82460,128,0,83109:0:0:0:0:
320,192,83109,1,0,0:0:0:0:
448,192,83109,1,0,0:0:0:0:
192,192,83271,1,0,0:0:0:0:
64,192,83433,1,0,0:0:0:0:
448,192,83595,1,0,0:0:0:0:
192,192,83919,1,0,0:0:0:0:
320,192,84081,1,0,0:0:0:0:
64,192,84244,1,0,0:0:0:0:
448,192,84406,1,0,0:0:0:0:
320,192,84568,1,0,0:0:0:0:
64,192,84892,1,0,0:0:0:0:
192,192,85217,1,0,0:0:0:0:
448,192,85541,1,0,0:0:0:0:
320,192,85703,1,0,0:0:0:0:
192,192,85865,1,0,0:0:0:0:
320,192,86027,1,0,0:0:0:0:
64,192,86190,1,0,0:0:0:0:
192,192,86514,1,0,0:0:0:0:
320,192,86676,128,0,87000:0:0:0:0:
192,192,87000,1,0,0:0:0:0:
64,192,87163,1,0,0:0:0:0:
320,192,87325,1,0,0:0:0:0:
448,192,87487,128,0,87973:0:0:0:0:
64,192,88136,1,0,0:0:0:0:
320,192,88298,128,0,88622:0:0:0:0:
192,192,88784,128,0,89109:0:0:0:0:
448,192,89271,128,0,89595:0:0:0:0:
64,192,89757,128,0,90081:0:0:0:0:
192,192,90244,128,0,90568:0:0:0:0:
320,192,90568,128,0,90892:0:0:0:0:
448,192,90892,1,0,0:0:0:0:
64,192,91054,1,0,0:0:0:0:
320,192,91217,1,0,0:0:0:0:
192,192,91379,128,0,91703:0:0:0:0:
320,192,91703,1,0,0:0:0:0:
64,192,91865,1,0,0:0:0:0:
448,192,92027,128,0,92352:0:0:0:0:
64,192,92352,1,0,0:0:0:0:
320,192,92514,1,0,0:0:0:0:
192,192,92676,128,0,93000:0:0:0:0:
320,192,93000,1,0,0:0:0:0:
64,192,93163,128,0,93487:0:0:0:0:
448,192,93487,5,0,0:0:0:0:
192,192,93649,1,0,0:0:0:0:
64,192,93973,1,0,0:0:0:0:
320,192,94136,1,0,0:0:0:0:
192,192,94460,128,0,94784:0:0:0:0:
448,192,94784,1,0,0:0:0:0:
64,192,94946,1,0,0:0:0:0:
320,192,95271,1,0,0:0:0:0:
192,192,95433,1,0,0:0:0:0:
448,192,95595,1,0,0:0:0:0:
320,192,95919,1,0,0:0:0:0:
64,192,96081,128,0,96406:0:0:0:0:
448,192,96406,128,0,96730:0:0:0:0:
192,192,96730,128,0,97054:0:0:0:0:
448,192,97054,128,0,97379:0:0:0:0:
64,192,97379,128,0,97703:0:0:0:0:
320,192,97703,128,0,98027:0:0:0:0:
192,192,98027,1,0,0:0:0:0:
64,192,98352,1,0,0:0:0:0:
448,192,98676,1,0,0:0:0:0:
192,192,98838,1,0,0:0:0:0:
64,192,99163,1,0,0:0:0:0:
320,192,99325,1,0,0:0:0:0:
192,192,99649,128,0,99973:0:0:0:0:
448,192,99973,1,0,0:0:0:0:
64,192,100136,1,0,0:0:0:0:
320,192,100460,1,0,0:0:0:0:
192,192,100622,1,0,0:0:0:0:
448,192,100784,1,0,0:0:0:0:
320,192,101109,1,0,0:0:0:0:
192,192,101269,128,0,101621:0:0:0:0:
320,192,101621,128,0,101974:0:0:0:0:
448,192,101974,128,0,102337:0:0:0:0:
64,192,102337,128,0,102725:0:0:0:0:
320,192,102725,128,0,103798:0:0:0:0:
192,192,103798,128,0,104548:0:0:0:0:
