osu file format v14

[General]
AudioFilename: audio.mp3
AudioLeadIn: 0
PreviewTime: 82
Countdown: 0
SampleSet: Soft
StackLeniency: 0.7
Mode: 3
LetterboxInBreaks: 0
SpecialStyle: 0
WidescreenStoryboard: 0

[Editor]
DistanceSpacing: 0.8
BeatDivisor: 16
GridSize: 8
TimelineZoom: 2.099999

[Metadata]
Title:UP UP MT. CAKE
TitleUnicode:UP UP MT. CAKE
Artist:OISHII
ArtistUnicode:OISHII
Creator:Carpihat
Version:YUM YUM CARPI. CAKE
Source:
Tags:featured artist fa chiptune creamcore instrumental electronic happy kirby nes adventure hype nintendo video game mount cai_ji_ccc
BeatmapID:4331264
BeatmapSetID:2069976

[Difficulty]
HPDrainRate:8
CircleSize:4
OverallDifficulty:8
ApproachRate:5
SliderMultiplier:1.4
SliderTickRate:1

[Events]
//Background and Video events
0,0,"bg.jpg",0,0
//Break Periods
//Storyboard Layer 0 (Background)
//Storyboard Layer 1 (Fail)
//Storyboard Layer 2 (Pass)
//Storyboard Layer 3 (Foreground)
//Storyboard Layer 4 (Overlay)
//Storyboard Sound Samples

[TimingPoints]
82,324.324324324324,4,2,1,35,1,0
41595,-100,4,2,1,50,0,1
72730,-100,4,2,1,35,0,0
83109,-100,4,2,1,50,0,1
93487,-100,4,2,1,35,0,0
101269,352.941176470588,4,2,1,33,1,0
101269,-91.743119266055,4,2,1,33,0,0
101974,363.636363636364,4,2,1,31,1,0
101974,-89.2857142857143,4,2,1,31,0,0
102337,377.358490566038,4,2,1,29,1,0
102337,-86.2068965517241,4,2,1,29,0,0
102525,400,4,2,1,27,1,0
102525,-81.3008130081301,4,2,1,27,0,0
102725,431.654676258993,4,2,1,25,1,0
102725,-75.187969924812,4,2,1,25,0,0
102940,468.75,4,2,1,23,1,0
102940,-68.9655172413793,4,2,1,23,0,0
103174,545.454545454546,4,2,1,21,1,0
103174,-59.5238095238095,4,2,1,21,0,0
103446,705.882352941176,4,2,1,19,1,0
103446,-45.8715596330275,4,2,1,19,0,0
103798,750,4,2,1,17,1,0
103798,-43.2900432900433,4,2,1,17,0,0

[HitObjects]
448,192,82,5,0,0:0:0:0:
320,192,244,1,0,0:0:0:0:
192,192,325,1,0,0:0:0:0:
320,192,406,1,0,0:0:0:0:
64,192,568,1,0,0:0:0:0:
192,192,730,1,0,0:0:0:0:
320,192,811,1,0,0:0:0:0:
192,192,892,1,0,0:0:0:0:
64,192,1054,1,0,0:0:0:0:
192,192,1136,1,0,0:0:0:0:
320,192,1217,1,0,0:0:0:0:
448,192,1298,1,0,0:0:0:0:
64,192,1379,1,0,0:0:0:0:
448,192,1541,1,0,0:0:0:0:
192,192,1622,1,0,0:0:0:0:
448,192,1703,1,0,0:0:0:0:
320,192,1865,1,0,0:0:0:0:
192,192,2027,1,0,0:0:0:0:
64,192,2190,1,0,0:0:0:0:
320,192,2271,1,0,0:0:0:0:
64,192,2352,1,0,0:0:0:0:
192,192,2514,1,0,0:0:0:0:
320,192,2676,128,0,3000:0:0:0:0:
192,192,2757,1,0,0:0:0:0:
64,192,2838,1,0,0:0:0:0:
192,192,2919,1,0,0:0:0:0:
448,192,3000,128,0,3325:0:0:0:0:
64,192,3081,1,0,0:0:0:0:
192,192,3163,1,0,0:0:0:0:
320,192,3244,1,0,0:0:0:0:
192,192,3325,128,0,3649:0:0:0:0:
448,192,3406,1,0,0:0:0:0:
320,192,3487,1,0,0:0:0:0:
64,192,3568,1,0,0:0:0:0:
448,192,3649,128,0,3973:0:0:0:0:
320,192,3730,1,0,0:0:0:0:
192,192,3811,1,0,0:0:0:0:
320,192,3892,1,0,0:0:0:0:
64,192,3973,128,0,4298:0:0:0:0:
192,192,4136,1,0,0:0:0:0:
448,192,4217,1,0,0:0:0:0:
320,192,4298,128,0,4622:0:0:0:0:
192,192,4460,1,0,0:0:0:0:
448,192,4622,1,0,0:0:0:0:
64,192,4784,1,0,0:0:0:0:
192,192,4946,1,0,0:0:0:0:
320,192,5109,1,0,0:0:0:0:
448,192,5271,1,0,0:0:0:0:
320,192,5433,1,0,0:0:0:0:
192,192,5514,1,0,0:0:0:0:
320,192,5595,1,0,0:0:0:0:
64,192,5757,1,0,0:0:0:0:
192,192,5919,1,0,0:0:0:0:
320,192,6000,1,0,0:0:0:0:
192,192,6081,1,0,0:0:0:0:
64,192,6244,1,0,0:0:0:0:
192,192,6325,1,0,0:0:0:0:
320,192,6406,1,0,0:0:0:0:
448,192,6487,1,0,0:0:0:0:
64,192,6568,1,0,0:0:0:0:
448,192,6730,1,0,0:0:0:0:
192,192,6811,1,0,0:0:0:0:
448,192,6892,1,0,0:0:0:0:
320,192,7054,1,0,0:0:0:0:
192,192,7217,1,0,0:0:0:0:
64,192,7379,1,0,0:0:0:0:
320,192,7460,1,0,0:0:0:0:
64,192,7541,1,0,0:0:0:0:
192,192,7703,1,0,0:0:0:0:
320,192,7865,128,0,8190:0:0:0:0:
448,192,8027,128,0,8190:0:0:0:0:
192,192,8190,128,0,8514:0:0:0:0:
320,192,8352,128,0,8514:0:0:0:0:
64,192,8514,128,0,8838:0:0:0:0:
192,192,8676,128,0,8838:0:0:0:0:
448,192,8838,128,0,9163:0:0:0:0:
320,192,9000,128,0,9163:0:0:0:0:
64,192,9163,1,0,0:0:0:0:
192,192,9223,1,0,0:0:0:0:
320,192,9284,1,0,0:0:0:0:
448,192,9345,1,0,0:0:0:0:
64,192,9406,1,0,0:0:0:0:
192,192,9467,1,0,0:0:0:0:
448,192,9527,1,0,0:0:0:0:
320,192,9588,1,0,0:0:0:0:
192,192,9649,1,0,0:0:0:0:
64,192,9730,1,0,0:0:0:0:
448,192,9811,128,0,10136:0:0:0:0:
192,192,10136,128,0,10298:0:0:0:0:
64,192,10298,128,0,10460:0:0:0:0:
448,192,10460,5,0,0:0:0:0:
192,192,10460,1,0,0:0:0:0:
320,192,10622,1,0,0:0:0:0:
64,192,10622,1,0,0:0:0:0:
192,192,10703,1,0,0:0:0:0:
320,192,10784,1,0,0:0:0:0:
448,192,10784,1,0,0:0:0:0:
64,192,10946,1,0,0:0:0:0:
448,192,10946,1,0,0:0:0:0:
192,192,11109,1,0,0:0:0:0:
64,192,11109,1,0,0:0:0:0:
448,192,11190,1,0,0:0:0:0:
192,192,11271,1,0,0:0:0:0:
320,192,11271,1,0,0:0:0:0:
64,192,11433,1,0,0:0:0:0:
448,192,11433,1,0,0:0:0:0:
192,192,11514,1,0,0:0:0:0:
320,192,11595,1,0,0:0:0:0:
448,192,11595,1,0,0:0:0:0:
192,192,11676,1,0,0:0:0:0:
64,192,11757,1,0,0:0:0:0:
320,192,11757,1,0,0:0:0:0:
448,192,11919,1,0,0:0:0:0:
64,192,11919,1,0,0:0:0:0:
192,192,12000,1,0,0:0:0:0:
448,192,12081,1,0,0:0:0:0:
320,192,12081,1,0,0:0:0:0:
320,192,12244,1,0,0:0:0:0:
192,192,12244,1,0,0:0:0:0:
448,192,12406,1,0,0:0:0:0:
192,192,12406,1,0,0:0:0:0:
64,192,12568,1,0,0:0:0:0:
448,192,12568,1,0,0:0:0:0:
320,192,12649,1,0,0:0:0:0:
64,192,12730,1,0,0:0:0:0:
192,192,12730,1,0,0:0:0:0:
192,192,12892,1,0,0:0:0:0:
320,192,12892,1,0,0:0:0:0:
320,192,13054,128,0,13379:0:0:0:0:
192,192,13217,128,0,13379:0:0:0:0:
64,192,13217,1,0,0:0:0:0:
448,192,13379,128,0,13703:0:0:0:0:
320,192,13541,128,0,13703:0:0:0:0:
64,192,13541,1,0,0:0:0:0:
192,192,13703,128,0,14027:0:0:0:0:
320,192,13865,128,0,14027:0:0:0:0:
64,192,13865,1,0,0:0:0:0:
448,192,14027,128,0,14352:0:0:0:0:
192,192,14190,128,0,14352:0:0:0:0:
64,192,14190,1,0,0:0:0:0:
64,192,14352,128,0,14676:0:0:0:0:
448,192,14514,1,0,0:0:0:0:
320,192,14514,1,0,0:0:0:0:
192,192,14595,1,0,0:0:0:0:
320,192,14676,128,0,15000:0:0:0:0:
448,192,14838,1,0,0:0:0:0:
192,192,14838,1,0,0:0:0:0:
64,192,15000,1,0,0:0:0:0:
448,192,15000,1,0,0:0:0:0:
64,192,15163,1,0,0:0:0:0:
192,192,15163,1,0,0:0:0:0:
448,192,15325,1,0,0:0:0:0:
64,192,15406,1,0,0:0:0:0:
192,192,15406,1,0,0:0:0:0:
320,192,15487,1,0,0:0:0:0:
448,192,15487,1,0,0:0:0:0:
64,192,15649,5,0,0:0:0:0:
320,192,15649,1,0,0:0:0:0:
448,192,15811,1,0,0:0:0:0:
192,192,15811,1,0,0:0:0:0:
320,192,15892,1,0,0:0:0:0:
64,192,15973,1,0,0:0:0:0:
192,192,15973,1,0,0:0:0:0:
64,192,16136,1,0,0:0:0:0:
448,192,16136,1,0,0:0:0:0:
448,192,16298,1,0,0:0:0:0:
320,192,16298,1,0,0:0:0:0:
64,192,16379,1,0,0:0:0:0:
192,192,16460,1,0,0:0:0:0:
320,192,16460,1,0,0:0:0:0:
64,192,16622,1,0,0:0:0:0:
448,192,16622,1,0,0:0:0:0:
320,192,16703,1,0,0:0:0:0:
64,192,16784,1,0,0:0:0:0:
192,192,16784,1,0,0:0:0:0:
320,192,16865,1,0,0:0:0:0:
192,192,16946,1,0,0:0:0:0:
448,192,16946,1,0,0:0:0:0:
448,192,17109,1,0,0:0:0:0:
64,192,17109,1,0,0:0:0:0:
320,192,17190,1,0,0:0:0:0:
192,192,17271,1,0,0:0:0:0:
64,192,17271,1,0,0:0:0:0:
320,192,17433,1,0,0:0:0:0:
192,192,17433,1,0,0:0:0:0:
320,192,17595,1,0,0:0:0:0:
64,192,17595,1,0,0:0:0:0:
64,192,17757,1,0,0:0:0:0:
448,192,17757,1,0,0:0:0:0:
192,192,17838,1,0,0:0:0:0:
320,192,17919,1,0,0:0:0:0:
448,192,17919,1,0,0:0:0:0:
192,192,18081,1,0,0:0:0:0:
320,192,18081,1,0,0:0:0:0:
64,192,18244,128,0,18568:0:0:0:0:
192,192,18406,128,0,18568:0:0:0:0:
448,192,18406,1,0,0:0:0:0:
320,192,18568,128,0,18892:0:0:0:0:
448,192,18730,1,0,0:0:0:0:
192,192,18730,128,0,18892:0:0:0:0:
64,192,18892,128,0,19217:0:0:0:0:
448,192,19054,1,0,0:0:0:0:
320,192,19054,128,0,19217:0:0:0:0:
192,192,19217,128,0,19541:0:0:0:0:
64,192,19379,128,0,19541:0:0:0:0:
448,192,19379,1,0,0:0:0:0:
448,192,19541,1,0,0:0:0:0:
320,192,19602,1,0,0:0:0:0:
192,192,19663,1,0,0:0:0:0:
64,192,19723,1,0,0:0:0:0:
320,192,19784,1,0,0:0:0:0:
448,192,19845,1,0,0:0:0:0:
192,192,19906,1,0,0:0:0:0:
64,192,19967,1,0,0:0:0:0:
320,192,20027,1,0,0:0:0:0:
192,192,20109,1,0,0:0:0:0:
64,192,20190,1,0,0:0:0:0:
448,192,20190,1,0,0:0:0:0:
192,192,20352,1,0,0:0:0:0:
320,192,20433,1,0,0:0:0:0:
64,192,20514,1,0,0:0:0:0:
192,192,20514,1,0,0:0:0:0:
320,192,20595,1,0,0:0:0:0:
448,192,20595,1,0,0:0:0:0:
192,192,20676,1,0,0:0:0:0:
64,192,20676,1,0,0:0:0:0:
320,192,20757,1,0,0:0:0:0:
448,192,20757,1,0,0:0:0:0:
64,192,20838,5,0,0:0:0:0:
192,192,20838,1,0,0:0:0:0:
320,192,21000,1,0,0:0:0:0:
64,192,21000,1,0,0:0:0:0:
192,192,21081,1,0,0:0:0:0:
320,192,21163,1,0,0:0:0:0:
448,192,21163,1,0,0:0:0:0:
64,192,21325,1,0,0:0:0:0:
448,192,21325,1,0,0:0:0:0:
192,192,21487,1,0,0:0:0:0:
64,192,21487,1,0,0:0:0:0:
448,192,21568,1,0,0:0:0:0:
192,192,21649,1,0,0:0:0:0:
320,192,21649,1,0,0:0:0:0:
64,192,21811,1,0,0:0:0:0:
448,192,21811,1,0,0:0:0:0:
192,192,21892,1,0,0:0:0:0:
320,192,21973,1,0,0:0:0:0:
448,192,21973,1,0,0:0:0:0:
192,192,22054,1,0,0:0:0:0:
64,192,22136,1,0,0:0:0:0:
320,192,22136,1,0,0:0:0:0:
448,192,22298,1,0,0:0:0:0:
64,192,22298,1,0,0:0:0:0:
192,192,22379,1,0,0:0:0:0:
448,192,22460,1,0,0:0:0:0:
320,192,22460,1,0,0:0:0:0:
320,192,22622,1,0,0:0:0:0:
192,192,22622,1,0,0:0:0:0:
448,192,22784,1,0,0:0:0:0:
192,192,22784,1,0,0:0:0:0:
64,192,22946,1,0,0:0:0:0:
448,192,22946,1,0,0:0:0:0:
320,192,23027,1,0,0:0:0:0:
64,192,23109,1,0,0:0:0:0:
192,192,23109,1,0,0:0:0:0:
192,192,23271,1,0,0:0:0:0:
320,192,23271,1,0,0:0:0:0:
320,192,23433,128,0,23757:0:0:0:0:
64,192,23514,1,0,0:0:0:0:
448,192,23595,1,0,0:0:0:0:
192,192,23595,1,0,0:0:0:0:
64,192,23676,1,0,0:0:0:0:
448,192,23757,128,0,24081:0:0:0:0:
320,192,23838,1,0,0:0:0:0:
64,192,23919,1,0,0:0:0:0:
192,192,23919,1,0,0:0:0:0:
320,192,24000,1,0,0:0:0:0:
192,192,24081,128,0,24406:0:0:0:0:
64,192,24163,1,0,0:0:0:0:
448,192,24244,1,0,0:0:0:0:
320,192,24244,1,0,0:0:0:0:
64,192,24325,1,0,0:0:0:0:
448,192,24406,128,0,24730:0:0:0:0:
320,192,24487,1,0,0:0:0:0:
192,192,24568,1,0,0:0:0:0:
64,192,24568,1,0,0:0:0:0:
320,192,24649,1,0,0:0:0:0:
64,192,24730,128,0,25054:0:0:0:0:
320,192,24892,1,0,0:0:0:0:
192,192,24892,1,0,0:0:0:0:
448,192,24973,1,0,0:0:0:0:
320,192,25054,128,0,25379:0:0:0:0:
192,192,25217,1,0,0:0:0:0:
64,192,25217,1,0,0:0:0:0:
448,192,25379,1,0,0:0:0:0:
64,192,25379,1,0,0:0:0:0:
320,192,25541,1,0,0:0:0:0:
448,192,25541,1,0,0:0:0:0:
192,192,25703,1,0,0:0:0:0:
448,192,25784,1,0,0:0:0:0:
320,192,25784,1,0,0:0:0:0:
192,192,25865,1,0,0:0:0:0:
64,192,25865,1,0,0:0:0:0:
64,192,26027,5,0,0:0:0:0:
320,192,26027,1,0,0:0:0:0:
448,192,26190,1,0,0:0:0:0:
192,192,26190,1,0,0:0:0:0:
320,192,26271,1,0,0:0:0:0:
64,192,26352,1,0,0:0:0:0:
192,192,26352,1,0,0:0:0:0:
64,192,26514,1,0,0:0:0:0:
448,192,26514,1,0,0:0:0:0:
448,192,26676,1,0,0:0:0:0:
320,192,26676,1,0,0:0:0:0:
64,192,26757,1,0,0:0:0:0:
192,192,26838,1,0,0:0:0:0:
320,192,26838,1,0,0:0:0:0:
64,192,27000,1,0,0:0:0:0:
448,192,27000,1,0,0:0:0:0:
320,192,27081,1,0,0:0:0:0:
64,192,27163,1,0,0:0:0:0:
192,192,27163,1,0,0:0:0:0:
320,192,27244,1,0,0:0:0:0:
192,192,27325,1,0,0:0:0:0:
448,192,27325,1,0,0:0:0:0:
448,192,27487,1,0,0:0:0:0:
64,192,27487,1,0,0:0:0:0:
320,192,27568,1,0,0:0:0:0:
192,192,27649,1,0,0:0:0:0:
64,192,27649,1,0,0:0:0:0:
320,192,27811,1,0,0:0:0:0:
192,192,27811,1,0,0:0:0:0:
320,192,27973,1,0,0:0:0:0:
64,192,27973,1,0,0:0:0:0:
64,192,28136,1,0,0:0:0:0:
448,192,28136,1,0,0:0:0:0:
192,192,28217,1,0,0:0:0:0:
320,192,28298,1,0,0:0:0:0:
448,192,28298,1,0,0:0:0:0:
192,192,28460,1,0,0:0:0:0:
320,192,28460,1,0,0:0:0:0:
64,192,28622,128,0,28946:0:0:0:0:
192,192,28784,128,0,28946:0:0:0:0:
448,192,28784,1,0,0:0:0:0:
320,192,28946,128,0,29271:0:0:0:0:
448,192,29109,1,0,0:0:0:0:
192,192,29109,128,0,29271:0:0:0:0:
64,192,29271,128,0,29595:0:0:0:0:
448,192,29433,1,0,0:0:0:0:
320,192,29433,128,0,29595:0:0:0:0:
192,192,29595,128,0,29919:0:0:0:0:
64,192,29757,128,0,29919:0:0:0:0:
448,192,29757,1,0,0:0:0:0:
448,192,29919,1,0,0:0:0:0:
320,192,29980,1,0,0:0:0:0:
64,192,30041,1,0,0:0:0:0:
192,192,30102,1,0,0:0:0:0:
320,192,30163,1,0,0:0:0:0:
448,192,30223,1,0,0:0:0:0:
192,192,30284,1,0,0:0:0:0:
64,192,30345,1,0,0:0:0:0:
320,192,30406,1,0,0:0:0:0:
192,192,30487,1,0,0:0:0:0:
64,192,30568,128,0,30892:0:0:0:0:
448,192,30568,128,0,30730:0:0:0:0:
320,192,30730,1,0,0:0:0:0:
192,192,30811,1,0,0:0:0:0:
320,192,30892,1,0,0:0:0:0:
448,192,30892,1,0,0:0:0:0:
192,192,30973,1,0,0:0:0:0:
64,192,30973,1,0,0:0:0:0:
320,192,31054,1,0,0:0:0:0:
448,192,31054,1,0,0:0:0:0:
192,192,31136,1,0,0:0:0:0:
64,192,31136,1,0,0:0:0:0:
320,192,31217,128,0,31379:0:0:0:0:
448,192,31217,1,0,0:0:0:0:
64,192,31379,128,0,31541:0:0:0:0:
192,192,31541,128,0,31622:0:0:0:0:
320,192,31541,1,0,0:0:0:0:
64,192,31703,1,0,0:0:0:0:
448,192,31703,128,0,31946:0:0:0:0:
192,192,31865,1,0,0:0:0:0:
320,192,32027,128,0,32190:0:0:0:0:
64,192,32190,128,0,32352:0:0:0:0:
192,192,32190,1,0,0:0:0:0:
448,192,32352,128,0,32514:0:0:0:0:
192,192,32514,128,0,32595:0:0:0:0:
64,192,32514,1,0,0:0:0:0:
448,192,32676,128,0,32757:0:0:0:0:
320,192,32757,128,0,32838:0:0:0:0:
448,192,32838,128,0,32919:0:0:0:0:
192,192,32838,1,0,0:0:0:0:
320,192,33000,128,0,33081:0:0:0:0:
64,192,33000,1,0,0:0:0:0:
192,192,33081,128,0,33163:0:0:0:0:
320,192,33163,128,0,33244:0:0:0:0:
192,192,33325,128,0,33406:0:0:0:0:
64,192,33406,128,0,33487:0:0:0:0:
192,192,33487,128,0,33568:0:0:0:0:
320,192,33487,1,0,0:0:0:0:
448,192,33649,1,0,0:0:0:0:
64,192,33649,128,0,33730:0:0:0:0:
192,192,33730,128,0,33811:0:0:0:0:
448,192,33811,1,0,0:0:0:0:
320,192,33811,128,0,33973:0:0:0:0:
64,192,33973,128,0,34136:0:0:0:0:
192,192,34136,128,0,34217:0:0:0:0:
320,192,34136,1,0,0:0:0:0:
448,192,34298,128,0,34541:0:0:0:0:
64,192,34298,1,0,0:0:0:0:
192,192,34460,1,0,0:0:0:0:
320,192,34622,128,0,34784:0:0:0:0:
192,192,34784,128,0,34946:0:0:0:0:
448,192,34784,1,0,0:0:0:0:
64,192,34946,128,0,35109:0:0:0:0:
320,192,35109,128,0,35271:0:0:0:0:
448,192,35109,1,0,0:0:0:0:
192,192,35271,128,0,35352:0:0:0:0:
64,192,35352,1,0,0:0:0:0:
448,192,35433,1,0,0:0:0:0:
320,192,35433,128,0,35514:0:0:0:0:
64,192,35595,128,0,35757:0:0:0:0:
192,192,35595,1,0,0:0:0:0:
320,192,35757,128,0,35838:0:0:0:0:
192,192,35838,128,0,35919:0:0:0:0:
448,192,35919,1,0,0:0:0:0:
320,192,35919,128,0,36000:0:0:0:0:
64,192,36000,128,0,36081:0:0:0:0:
448,192,36081,1,0,0:0:0:0:
192,192,36081,128,0,36163:0:0:0:0:
320,192,36163,128,0,36244:0:0:0:0:
64,192,36244,1,0,0:0:0:0:
192,192,36244,128,0,36325:0:0:0:0:
448,192,36325,128,0,36406:0:0:0:0:
64,192,36406,1,0,0:0:0:0:
320,192,36406,128,0,36568:0:0:0:0:
64,192,36568,128,0,36730:0:0:0:0:
192,192,36730,128,0,36811:0:0:0:0:
448,192,36730,1,0,0:0:0:0:
320,192,36892,128,0,37136:0:0:0:0:
64,192,36892,1,0,0:0:0:0:
192,192,37054,1,0,0:0:0:0:
448,192,37217,128,0,37379:0:0:0:0:
192,192,37379,128,0,37541:0:0:0:0:
320,192,37379,1,0,0:0:0:0:
64,192,37541,128,0,37703:0:0:0:0:
192,192,37703,1,0,0:0:0:0:
448,192,37703,128,0,37784:0:0:0:0:
64,192,37784,128,0,37865:0:0:0:0:
320,192,37865,128,0,37946:0:0:0:0:
192,192,37946,128,0,38027:0:0:0:0:
448,192,38027,1,0,0:0:0:0:
320,192,38027,128,0,38109:0:0:0:0:
64,192,38109,128,0,38190:0:0:0:0:
448,192,38190,1,0,0:0:0:0:
192,192,38190,128,0,38271:0:0:0:0:
320,192,38271,128,0,38352:0:0:0:0:
192,192,38352,128,0,38433:0:0:0:0:
64,192,38433,128,0,38514:0:0:0:0:
448,192,38514,128,0,38595:0:0:0:0:
320,192,38595,128,0,38676:0:0:0:0:
64,192,38676,1,0,0:0:0:0:
448,192,38676,128,0,38757:0:0:0:0:
192,192,38757,128,0,38838:0:0:0:0:
64,192,38838,1,0,0:0:0:0:
320,192,38838,128,0,38919:0:0:0:0:
448,192,38919,128,0,39000:0:0:0:0:
192,192,39000,1,0,0:0:0:0:
64,192,39000,128,0,39163:0:0:0:0:
320,192,39163,128,0,39325:0:0:0:0:
192,192,39325,128,0,39487:0:0:0:0:
64,192,39325,1,0,0:0:0:0:
448,192,39487,128,0,39649:0:0:0:0:
320,192,39487,1,0,0:0:0:0:
64,192,39649,128,0,39811:0:0:0:0:
192,192,39811,128,0,39973:0:0:0:0:
448,192,39973,128,0,40136:0:0:0:0:
64,192,39973,1,0,0:0:0:0:
320,192,40136,128,0,40298:0:0:0:0:
64,192,40298,128,0,40460:0:0:0:0:
448,192,40298,1,0,0:0:0:0:
320,192,40460,128,0,40622:0:0:0:0:
448,192,40460,1,0,0:0:0:0:
192,192,40622,128,0,40784:0:0:0:0:
64,192,40622,1,0,0:0:0:0:
448,192,40784,128,0,40946:0:0:0:0:
64,192,40784,128,0,40946:0:0:0:0:
320,192,40946,128,0,41027:0:0:0:0:
192,192,41027,128,0,41109:0:0:0:0:
320,192,41109,1,0,0:0:0:0:
448,192,41109,128,0,41190:0:0:0:0:
192,192,41190,1,0,0:0:0:0:
64,192,41190,128,0,41271:0:0:0:0:
448,192,41271,1,0,0:0:0:0:
320,192,41271,128,0,41352:0:0:0:0:
192,192,41352,128,0,41433:0:0:0:0:
64,192,41433,1,0,0:0:0:0:
448,192,41433,128,0,41514:0:0:0:0:
320,192,41514,128,0,41595:0:0:0:0:
192,192,41595,128,0,41757:0:0:0:0:
64,192,41595,128,0,41757:0:0:0:0:
320,192,41757,128,0,41919:0:0:0:0:
64,192,41919,128,0,42000:0:0:0:0:
192,192,41919,1,0,0:0:0:0:
448,192,42081,128,0,42325:0:0:0:0:
320,192,42081,128,0,42244:0:0:0:0:
192,192,42244,1,0,0:0:0:0:
64,192,42244,1,0,0:0:0:0:
320,192,42406,128,0,42568:0:0:0:0:
64,192,42568,128,0,42730:0:0:0:0:
448,192,42568,1,0,0:0:0:0:
320,192,42730,128,0,42892:0:0:0:0:
192,192,42892,128,0,42973:0:0:0:0:
64,192,42892,128,0,43054:0:0:0:0:
448,192,43054,128,0,43136:0:0:0:0:
320,192,43136,128,0,43217:0:0:0:0:
448,192,43217,128,0,43298:0:0:0:0:
192,192,43217,1,0,0:0:0:0:
320,192,43379,128,0,43460:0:0:0:0:
64,192,43379,128,0,43541:0:0:0:0:
192,192,43460,128,0,43541:0:0:0:0:
320,192,43541,128,0,43622:0:0:0:0:
448,192,43541,1,0,0:0:0:0:
192,192,43703,128,0,43784:0:0:0:0:
64,192,43784,128,0,43865:0:0:0:0:
192,192,43865,128,0,43946:0:0:0:0:
320,192,43865,1,0,0:0:0:0:
448,192,44027,1,0,0:0:0:0:
64,192,44027,128,0,44109:0:0:0:0:
192,192,44109,128,0,44190:0:0:0:0:
320,192,44190,128,0,44352:0:0:0:0:
448,192,44190,128,0,44352:0:0:0:0:
64,192,44352,128,0,44514:0:0:0:0:
192,192,44514,128,0,44676:0:0:0:0:
320,192,44514,1,0,0:0:0:0:
448,192,44676,128,0,44919:0:0:0:0:
64,192,44676,128,0,44838:0:0:0:0:
192,192,44838,1,0,0:0:0:0:
320,192,44838,1,0,0:0:0:0:
64,192,45000,128,0,45163:0:0:0:0:
192,192,45163,128,0,45325:0:0:0:0:
448,192,45163,1,0,0:0:0:0:
320,192,45325,128,0,45487:0:0:0:0:
64,192,45487,128,0,45568:0:0:0:0:
448,192,45487,128,0,45649:0:0:0:0:
320,192,45649,128,0,45730:0:0:0:0:
64,192,45649,128,0,45811:0:0:0:0:
448,192,45811,128,0,45892:0:0:0:0:
192,192,45811,128,0,45973:0:0:0:0:
448,192,45973,128,0,46460:0:0:0:0:
320,192,45973,128,0,46298:0:0:0:0:
192,192,46136,1,0,0:0:0:0:
64,192,46136,1,0,0:0:0:0:
192,192,46298,1,0,0:0:0:0:
320,192,46460,1,0,0:0:0:0:
64,192,46480,1,0,0:0:0:0:
320,192,46622,1,0,0:0:0:0:
192,192,46622,1,0,0:0:0:0:
448,192,46703,1,0,0:0:0:0:
192,192,46784,128,0,46946:0:0:0:0:
64,192,46784,128,0,47109:0:0:0:0:
448,192,46946,128,0,47109:0:0:0:0:
192,192,47109,128,0,47271:0:0:0:0:
320,192,47271,128,0,47433:0:0:0:0:
448,192,47271,128,0,47595:0:0:0:0:
64,192,47433,128,0,47595:0:0:0:0:
320,192,47595,128,0,47757:0:0:0:0:
64,192,47757,128,0,48081:0:0:0:0:
192,192,47757,128,0,47919:0:0:0:0:
448,192,47919,128,0,48081:0:0:0:0:
192,192,48081,128,0,48190:0:0:0:0:
64,192,48190,128,0,48298:0:0:0:0:
320,192,48244,1,0,0:0:0:0:
448,192,48244,128,0,48568:0:0:0:0:
192,192,48298,128,0,48406:0:0:0:0:
320,192,48406,128,0,48514:0:0:0:0:
64,192,48514,128,0,48622:0:0:0:0:
320,192,48622,128,0,48730:0:0:0:0:
192,192,48730,128,0,49054:0:0:0:0:
448,192,48730,128,0,48838:0:0:0:0:
64,192,48838,128,0,48946:0:0:0:0:
320,192,48892,1,0,0:0:0:0:
448,192,48946,128,0,49054:0:0:0:0:
320,192,49054,128,0,49379:0:0:0:0:
192,192,49163,128,0,49271:0:0:0:0:
64,192,49271,128,0,49379:0:0:0:0:
448,192,49379,1,0,0:0:0:0:
192,192,49379,128,0,49541:0:0:0:0:
448,192,49541,1,0,0:0:0:0:
320,192,49541,128,0,49703:0:0:0:0:
64,192,49703,1,0,0:0:0:0:
192,192,49703,128,0,49865:0:0:0:0:
64,192,49865,1,0,0:0:0:0:
448,192,49865,128,0,50190:0:0:0:0:
192,192,50027,1,0,0:0:0:0:
320,192,50027,1,0,0:0:0:0:
64,192,50190,1,0,0:0:0:0:
320,192,50190,128,0,50352:0:0:0:0:
448,192,50352,1,0,0:0:0:0:
192,192,50352,128,0,50514:0:0:0:0:
320,192,50514,1,0,0:0:0:0:
448,192,50514,128,0,50838:0:0:0:0:
64,192,50676,1,0,0:0:0:0:
192,192,50676,1,0,0:0:0:0:
320,192,50757,1,0,0:0:0:0:
192,192,50838,128,0,51000:0:0:0:0:
64,192,50919,1,0,0:0:0:0:
320,192,51000,128,0,51163:0:0:0:0:
448,192,51000,1,0,0:0:0:0:
192,192,51081,1,0,0:0:0:0:
64,192,51163,128,0,51487:0:0:0:0:
448,192,51244,1,0,0:0:0:0:
320,192,51325,1,0,0:0:0:0:
192,192,51325,1,0,0:0:0:0:
448,192,51487,1,0,0:0:0:0:
192,192,51568,1,0,0:0:0:0:
320,192,51649,1,0,0:0:0:0:
448,192,51649,1,0,0:0:0:0:
192,192,51730,1,0,0:0:0:0:
64,192,51730,1,0,0:0:0:0:
320,192,51811,1,0,0:0:0:0:
448,192,51811,1,0,0:0:0:0:
192,192,51892,1,0,0:0:0:0:
64,192,51892,1,0,0:0:0:0:
320,192,51973,1,0,0:0:0:0:
448,192,51973,1,0,0:0:0:0:
192,192,52136,1,0,0:0:0:0:
448,192,52136,128,0,52217:0:0:0:0:
320,192,52217,1,0,0:0:0:0:
192,192,52298,1,0,0:0:0:0:
64,192,52298,1,0,0:0:0:0:
64,192,52460,1,0,0:0:0:0:
448,192,52460,128,0,52541:0:0:0:0:
320,192,52622,1,0,0:0:0:0:
192,192,52622,1,0,0:0:0:0:
64,192,52703,1,0,0:0:0:0:
320,192,52784,1,0,0:0:0:0:
448,192,52784,128,0,52865:0:0:0:0:
64,192,52946,1,0,0:0:0:0:
192,192,52946,1,0,0:0:0:0:
320,192,53027,1,0,0:0:0:0:
448,192,53109,128,0,53190:0:0:0:0:
192,192,53109,1,0,0:0:0:0:
64,192,53190,1,0,0:0:0:0:
192,192,53271,1,0,0:0:0:0:
320,192,53271,1,0,0:0:0:0:
64,192,53433,1,0,0:0:0:0:
448,192,53433,128,0,53514:0:0:0:0:
192,192,53514,1,0,0:0:0:0:
64,192,53595,1,0,0:0:0:0:
320,192,53595,1,0,0:0:0:0:
448,192,53757,128,0,53838:0:0:0:0:
320,192,53757,1,0,0:0:0:0:
192,192,53919,1,0,0:0:0:0:
64,192,53919,1,0,0:0:0:0:
320,192,54081,1,0,0:0:0:0:
448,192,54081,128,0,54163:0:0:0:0:
192,192,54163,1,0,0:0:0:0:
64,192,54244,1,0,0:0:0:0:
320,192,54244,1,0,0:0:0:0:
64,192,54406,1,0,0:0:0:0:
448,192,54406,128,0,54487:0:0:0:0:
192,192,54568,128,0,54892:0:0:0:0:
320,192,54730,128,0,54892:0:0:0:0:
448,192,54730,128,0,54811:0:0:0:0:
64,192,54892,128,0,55217:0:0:0:0:
192,192,55054,128,0,55217:0:0:0:0:
448,192,55054,128,0,55136:0:0:0:0:
320,192,55217,128,0,55541:0:0:0:0:
192,192,55379,128,0,55541:0:0:0:0:
448,192,55379,128,0,55460:0:0:0:0:
64,192,55541,128,0,55865:0:0:0:0:
320,192,55703,128,0,55865:0:0:0:0:
448,192,55703,128,0,55784:0:0:0:0:
192,192,55865,128,0,56190:0:0:0:0:
320,192,56027,1,0,0:0:0:0:
448,192,56027,128,0,56109:0:0:0:0:
64,192,56109,1,0,0:0:0:0:
320,192,56190,128,0,56514:0:0:0:0:
448,192,56352,128,0,56433:0:0:0:0:
64,192,56352,1,0,0:0:0:0:
64,192,56514,128,0,56838:0:0:0:0:
192,192,56514,1,0,0:0:0:0:
320,192,56676,1,0,0:0:0:0:
448,192,56676,1,0,0:0:0:0:
448,192,56838,128,0,57000:0:0:0:0:
192,192,56919,1,0,0:0:0:0:
320,192,57000,1,0,0:0:0:0:
64,192,57000,1,0,0:0:0:0:
448,192,57163,5,0,0:0:0:0:
320,192,57163,1,0,0:0:0:0:
192,192,57325,1,0,0:0:0:0:
64,192,57325,128,0,57406:0:0:0:0:
320,192,57406,1,0,0:0:0:0:
192,192,57487,1,0,0:0:0:0:
448,192,57487,1,0,0:0:0:0:
448,192,57649,1,0,0:0:0:0:
64,192,57649,128,0,57730:0:0:0:0:
192,192,57811,1,0,0:0:0:0:
320,192,57811,1,0,0:0:0:0:
448,192,57892,1,0,0:0:0:0:
192,192,57973,1,0,0:0:0:0:
64,192,57973,128,0,58054:0:0:0:0:
448,192,58136,1,0,0:0:0:0:
320,192,58136,1,0,0:0:0:0:
192,192,58217,1,0,0:0:0:0:
64,192,58298,128,0,58379:0:0:0:0:
320,192,58298,1,0,0:0:0:0:
448,192,58379,1,0,0:0:0:0:
320,192,58460,1,0,0:0:0:0:
192,192,58460,1,0,0:0:0:0:
448,192,58622,1,0,0:0:0:0:
64,192,58622,128,0,58703:0:0:0:0:
320,192,58703,1,0,0:0:0:0:
448,192,58784,1,0,0:0:0:0:
192,192,58784,1,0,0:0:0:0:
64,192,58946,128,0,59027:0:0:0:0:
192,192,58946,1,0,0:0:0:0:
320,192,59109,1,0,0:0:0:0:
448,192,59109,1,0,0:0:0:0:
192,192,59271,1,0,0:0:0:0:
64,192,59271,128,0,59352:0:0:0:0:
320,192,59352,1,0,0:0:0:0:
448,192,59433,1,0,0:0:0:0:
192,192,59433,1,0,0:0:0:0:
448,192,59595,1,0,0:0:0:0:
64,192,59595,128,0,59676:0:0:0:0:
320,192,59757,128,0,60081:0:0:0:0:
192,192,59919,128,0,60081:0:0:0:0:
64,192,59919,128,0,60000:0:0:0:0:
448,192,60081,128,0,60406:0:0:0:0:
320,192,60244,128,0,60406:0:0:0:0:
64,192,60244,128,0,60325:0:0:0:0:
192,192,60406,128,0,60730:0:0:0:0:
320,192,60568,128,0,60730:0:0:0:0:
64,192,60568,128,0,60649:0:0:0:0:
448,192,60730,128,0,61054:0:0:0:0:
192,192,60892,128,0,61054:0:0:0:0:
64,192,60892,128,0,60973:0:0:0:0:
320,192,61054,1,0,0:0:0:0:
192,192,61115,1,0,0:0:0:0:
448,192,61176,1,0,0:0:0:0:
64,192,61217,128,0,61298:0:0:0:0:
320,192,61237,1,0,0:0:0:0:
192,192,61298,1,0,0:0:0:0:
448,192,61359,1,0,0:0:0:0:
192,192,61419,1,0,0:0:0:0:
320,192,61480,1,0,0:0:0:0:
64,192,61541,128,0,61622:0:0:0:0:
448,192,61541,1,0,0:0:0:0:
192,192,61622,1,0,0:0:0:0:
448,192,61703,128,0,62027:0:0:0:0:
64,192,61703,1,0,0:0:0:0:
192,192,61865,1,0,0:0:0:0:
320,192,61946,1,0,0:0:0:0:
192,192,62027,1,0,0:0:0:0:
64,192,62027,1,0,0:0:0:0:
320,192,62109,1,0,0:0:0:0:
448,192,62109,1,0,0:0:0:0:
64,192,62190,1,0,0:0:0:0:
192,192,62190,1,0,0:0:0:0:
320,192,62271,1,0,0:0:0:0:
448,192,62271,1,0,0:0:0:0:
64,192,62352,1,0,0:0:0:0:
192,192,62352,1,0,0:0:0:0:
320,192,62514,128,0,62595:0:0:0:0:
448,192,62514,1,0,0:0:0:0:
192,192,62595,1,0,0:0:0:0:
64,192,62676,1,0,0:0:0:0:
448,192,62676,1,0,0:0:0:0:
320,192,62838,128,0,62919:0:0:0:0:
64,192,62838,1,0,0:0:0:0:
192,192,63000,1,0,0:0:0:0:
448,192,63000,1,0,0:0:0:0:
64,192,63081,1,0,0:0:0:0:
320,192,63163,128,0,63244:0:0:0:0:
448,192,63163,1,0,0:0:0:0:
192,192,63325,1,0,0:0:0:0:
64,192,63325,1,0,0:0:0:0:
448,192,63406,1,0,0:0:0:0:
192,192,63487,1,0,0:0:0:0:
320,192,63487,128,0,63568:0:0:0:0:
64,192,63568,1,0,0:0:0:0:
448,192,63649,1,0,0:0:0:0:
192,192,63649,1,0,0:0:0:0:
320,192,63811,128,0,63892:0:0:0:0:
64,192,63811,1,0,0:0:0:0:
192,192,63892,1,0,0:0:0:0:
448,192,63973,1,0,0:0:0:0:
64,192,63973,1,0,0:0:0:0:
448,192,64136,1,0,0:0:0:0:
320,192,64136,128,0,64217:0:0:0:0:
64,192,64298,1,0,0:0:0:0:
192,192,64298,1,0,0:0:0:0:
320,192,64460,128,0,64541:0:0:0:0:
448,192,64460,1,0,0:0:0:0:
192,192,64541,1,0,0:0:0:0:
448,192,64622,1,0,0:0:0:0:
64,192,64622,1,0,0:0:0:0:
320,192,64784,128,0,64865:0:0:0:0:
64,192,64784,1,0,0:0:0:0:
192,192,64946,128,0,65271:0:0:0:0:
448,192,65027,1,0,0:0:0:0:
64,192,65109,1,0,0:0:0:0:
320,192,65109,128,0,65190:0:0:0:0:
448,192,65190,1,0,0:0:0:0:
64,192,65271,128,0,65595:0:0:0:0:
192,192,65352,1,0,0:0:0:0:
448,192,65433,1,0,0:0:0:0:
320,192,65433,128,0,65514:0:0:0:0:
192,192,65514,1,0,0:0:0:0:
448,192,65595,128,0,65919:0:0:0:0:
64,192,65676,1,0,0:0:0:0:
320,192,65757,128,0,65838:0:0:0:0:
192,192,65757,1,0,0:0:0:0:
64,192,65838,1,0,0:0:0:0:
192,192,65919,128,0,66244:0:0:0:0:
448,192,66000,1,0,0:0:0:0:
64,192,66081,1,0,0:0:0:0:
320,192,66081,128,0,66163:0:0:0:0:
448,192,66163,1,0,0:0:0:0:
64,192,66244,128,0,66568:0:0:0:0:
448,192,66406,1,0,0:0:0:0:
320,192,66406,128,0,66487:0:0:0:0:
192,192,66487,1,0,0:0:0:0:
448,192,66568,128,0,66892:0:0:0:0:
64,192,66730,1,0,0:0:0:0:
320,192,66730,128,0,66811:0:0:0:0:
192,192,66892,128,0,67217:0:0:0:0:
320,192,66892,1,0,0:0:0:0:
64,192,67054,1,0,0:0:0:0:
448,192,67054,1,0,0:0:0:0:
320,192,67217,128,0,67379:0:0:0:0:
448,192,67298,1,0,0:0:0:0:
192,192,67379,1,0,0:0:0:0:
64,192,67379,1,0,0:0:0:0:
448,192,67541,1,0,0:0:0:0:
64,192,67541,1,0,0:0:0:0:
192,192,67703,128,0,67784:0:0:0:0:
320,192,67703,1,0,0:0:0:0:
64,192,67784,1,0,0:0:0:0:
448,192,67865,1,0,0:0:0:0:
320,192,67865,1,0,0:0:0:0:
448,192,68027,1,0,0:0:0:0:
192,192,68027,128,0,68109:0:0:0:0:
64,192,68190,1,0,0:0:0:0:
320,192,68190,1,0,0:0:0:0:
448,192,68271,1,0,0:0:0:0:
64,192,68352,1,0,0:0:0:0:
192,192,68352,128,0,68433:0:0:0:0:
448,192,68514,1,0,0:0:0:0:
320,192,68514,1,0,0:0:0:0:
64,192,68595,1,0,0:0:0:0:
192,192,68676,128,0,68757:0:0:0:0:
320,192,68676,1,0,0:0:0:0:
448,192,68757,1,0,0:0:0:0:
320,192,68838,1,0,0:0:0:0:
64,192,68838,1,0,0:0:0:0:
448,192,69000,1,0,0:0:0:0:
192,192,69000,128,0,69081:0:0:0:0:
320,192,69081,1,0,0:0:0:0:
448,192,69163,1,0,0:0:0:0:
64,192,69163,1,0,0:0:0:0:
192,192,69325,128,0,69406:0:0:0:0:
64,192,69325,1,0,0:0:0:0:
320,192,69487,1,0,0:0:0:0:
448,192,69487,1,0,0:0:0:0:
64,192,69649,1,0,0:0:0:0:
192,192,69649,128,0,69730:0:0:0:0:
320,192,69730,1,0,0:0:0:0:
448,192,69811,1,0,0:0:0:0:
64,192,69811,1,0,0:0:0:0:
448,192,69973,1,0,0:0:0:0:
192,192,69973,128,0,70054:0:0:0:0:
320,192,70136,128,0,70460:0:0:0:0:
64,192,70298,128,0,70460:0:0:0:0:
192,192,70298,128,0,70379:0:0:0:0:
448,192,70460,128,0,70784:0:0:0:0:
320,192,70622,128,0,70784:0:0:0:0:
192,192,70622,128,0,70703:0:0:0:0:
64,192,70784,128,0,71109:0:0:0:0:
448,192,70946,128,0,71109:0:0:0:0:
192,192,70946,128,0,71027:0:0:0:0:
320,192,71109,128,0,71433:0:0:0:0:
448,192,71271,128,0,71433:0:0:0:0:
192,192,71271,128,0,71352:0:0:0:0:
64,192,71433,128,0,71595:0:0:0:0:
192,192,71494,1,0,0:0:0:0:
448,192,71554,1,0,0:0:0:0:
320,192,71615,1,0,0:0:0:0:
192,192,71676,1,0,0:0:0:0:
320,192,71737,1,0,0:0:0:0:
64,192,71798,1,0,0:0:0:0:
192,192,71859,1,0,0:0:0:0:
320,192,71919,1,0,0:0:0:0:
192,192,72000,1,0,0:0:0:0:
64,192,72081,128,0,72406:0:0:0:0:
448,192,72081,128,0,72244:0:0:0:0:
320,192,72244,1,0,0:0:0:0:
192,192,72325,1,0,0:0:0:0:
320,192,72406,1,0,0:0:0:0:
448,192,72406,1,0,0:0:0:0:
192,192,72487,1,0,0:0:0:0:
64,192,72487,1,0,0:0:0:0:
320,192,72568,1,0,0:0:0:0:
448,192,72568,1,0,0:0:0:0:
192,192,72649,1,0,0:0:0:0:
64,192,72649,1,0,0:0:0:0:
320,192,72730,128,0,72892:0:0:0:0:
448,192,72730,128,0,73054:0:0:0:0:
64,192,72892,128,0,73054:0:0:0:0:
192,192,73054,128,0,73136:0:0:0:0:
320,192,73054,1,0,0:0:0:0:
64,192,73217,1,0,0:0:0:0:
448,192,73217,128,0,73460:0:0:0:0:
192,192,73379,1,0,0:0:0:0:
320,192,73541,128,0,73703:0:0:0:0:
64,192,73703,128,0,73865:0:0:0:0:
192,192,73703,1,0,0:0:0:0:
448,192,73865,128,0,74027:0:0:0:0:
192,192,74027,128,0,74109:0:0:0:0:
64,192,74027,1,0,0:0:0:0:
448,192,74190,128,0,74271:0:0:0:0:
320,192,74271,128,0,74352:0:0:0:0:
448,192,74352,128,0,74433:0:0:0:0:
192,192,74352,1,0,0:0:0:0:
320,192,74514,128,0,74595:0:0:0:0:
64,192,74514,1,0,0:0:0:0:
192,192,74595,128,0,74676:0:0:0:0:
320,192,74676,128,0,74757:0:0:0:0:
192,192,74838,128,0,74919:0:0:0:0:
64,192,74919,128,0,75000:0:0:0:0:
192,192,75000,128,0,75081:0:0:0:0:
320,192,75000,1,0,0:0:0:0:
448,192,75163,1,0,0:0:0:0:
64,192,75163,128,0,75244:0:0:0:0:
192,192,75244,128,0,75325:0:0:0:0:
448,192,75325,1,0,0:0:0:0:
320,192,75325,128,0,75487:0:0:0:0:
64,192,75487,128,0,75649:0:0:0:0:
192,192,75649,128,0,75730:0:0:0:0:
320,192,75649,1,0,0:0:0:0:
448,192,75811,128,0,76054:0:0:0:0:
64,192,75811,1,0,0:0:0:0:
192,192,75973,1,0,0:0:0:0:
320,192,76136,128,0,76298:0:0:0:0:
192,192,76298,128,0,76460:0:0:0:0:
448,192,76298,1,0,0:0:0:0:
64,192,76460,128,0,76622:0:0:0:0:
320,192,76622,128,0,76784:0:0:0:0:
448,192,76622,1,0,0:0:0:0:
192,192,76784,128,0,76865:0:0:0:0:
64,192,76865,1,0,0:0:0:0:
448,192,76946,1,0,0:0:0:0:
320,192,76946,128,0,77027:0:0:0:0:
64,192,77109,128,0,77271:0:0:0:0:
192,192,77109,1,0,0:0:0:0:
320,192,77271,128,0,77352:0:0:0:0:
192,192,77352,128,0,77433:0:0:0:0:
448,192,77433,1,0,0:0:0:0:
320,192,77433,128,0,77514:0:0:0:0:
64,192,77514,128,0,77595:0:0:0:0:
448,192,77595,1,0,0:0:0:0:
192,192,77595,128,0,77676:0:0:0:0:
320,192,77676,128,0,77757:0:0:0:0:
64,192,77757,1,0,0:0:0:0:
192,192,77757,128,0,77838:0:0:0:0:
448,192,77838,128,0,77919:0:0:0:0:
64,192,77919,1,0,0:0:0:0:
320,192,77919,128,0,78081:0:0:0:0:
64,192,78081,128,0,78244:0:0:0:0:
192,192,78244,128,0,78325:0:0:0:0:
448,192,78244,1,0,0:0:0:0:
320,192,78406,128,0,78649:0:0:0:0:
64,192,78406,1,0,0:0:0:0:
192,192,78568,1,0,0:0:0:0:
448,192,78730,128,0,78892:0:0:0:0:
192,192,78892,128,0,79054:0:0:0:0:
320,192,78892,1,0,0:0:0:0:
64,192,79054,128,0,79217:0:0:0:0:
448,192,79217,128,0,79298:0:0:0:0:
192,192,79217,1,0,0:0:0:0:
64,192,79298,128,0,79379:0:0:0:0:
320,192,79379,128,0,79460:0:0:0:0:
192,192,79460,128,0,79541:0:0:0:0:
320,192,79541,128,0,79622:0:0:0:0:
448,192,79541,1,0,0:0:0:0:
64,192,79622,128,0,79703:0:0:0:0:
192,192,79703,128,0,79784:0:0:0:0:
448,192,79703,1,0,0:0:0:0:
320,192,79784,128,0,79865:0:0:0:0:
192,192,79865,128,0,79946:0:0:0:0:
64,192,79946,128,0,80027:0:0:0:0:
448,192,80027,128,0,80109:0:0:0:0:
320,192,80109,128,0,80190:0:0:0:0:
448,192,80190,128,0,80271:0:0:0:0:
64,192,80190,1,0,0:0:0:0:
192,192,80271,128,0,80352:0:0:0:0:
320,192,80352,128,0,80433:0:0:0:0:
64,192,80352,1,0,0:0:0:0:
448,192,80433,128,0,80514:0:0:0:0:
64,192,80514,128,0,80676:0:0:0:0:
192,192,80514,1,0,0:0:0:0:
320,192,80676,128,0,80838:0:0:0:0:
192,192,80838,128,0,81000:0:0:0:0:
64,192,80838,1,0,0:0:0:0:
448,192,81000,128,0,81163:0:0:0:0:
320,192,81000,1,0,0:0:0:0:
64,192,81163,128,0,81325:0:0:0:0:
192,192,81325,128,0,81487:0:0:0:0:
448,192,81487,128,0,81649:0:0:0:0:
64,192,81487,1,0,0:0:0:0:
320,192,81649,128,0,81811:0:0:0:0:
64,192,81811,128,0,81973:0:0:0:0:
448,192,81811,1,0,0:0:0:0:
320,192,81973,128,0,82136:0:0:0:0:
448,192,81973,1,0,0:0:0:0:
192,192,82136,128,0,82298:0:0:0:0:
64,192,82136,1,0,0:0:0:0:
448,192,82298,128,0,82460:0:0:0:0:
64,192,82298,128,0,82460:0:0:0:0:
320,192,82460,128,0,82541:0:0:0:0:
192,192,82541,128,0,82622:0:0:0:0:
320,192,82622,1,0,0:0:0:0:
448,192,82622,128,0,82703:0:0:0:0:
192,192,82703,1,0,0:0:0:0:
64,192,82703,128,0,82784:0:0:0:0:
448,192,82784,1,0,0:0:0:0:
320,192,82784,128,0,82865:0:0:0:0:
192,192,82865,128,0,82946:0:0:0:0:
64,192,82946,1,0,0:0:0:0:
448,192,82946,128,0,83027:0:0:0:0:
320,192,83027,128,0,83109:0:0:0:0:
192,192,83109,128,0,83271:0:0:0:0:
64,192,83109,128,0,83271:0:0:0:0:
320,192,83271,128,0,83433:0:0:0:0:
64,192,83433,128,0,83514:0:0:0:0:
192,192,83433,1,0,0:0:0:0:
448,192,83595,128,0,83838:0:0:0:0:
320,192,83595,128,0,83757:0:0:0:0:
192,192,83757,1,0,0:0:0:0:
64,192,83757,1,0,0:0:0:0:
320,192,83919,128,0,84081:0:0:0:0:
64,192,84081,128,0,84244:0:0:0:0:
448,192,84081,1,0,0:0:0:0:
320,192,84244,128,0,84406:0:0:0:0:
192,192,84406,128,0,84487:0:0:0:0:
64,192,84406,128,0,84568:0:0:0:0:
448,192,84568,128,0,84649:0:0:0:0:
320,192,84649,128,0,84730:0:0:0:0:
448,192,84730,128,0,84811:0:0:0:0:
192,192,84730,1,0,0:0:0:0:
320,192,84892,128,0,84973:0:0:0:0:
64,192,84892,128,0,85054:0:0:0:0:
192,192,84973,128,0,85054:0:0:0:0:
320,192,85054,128,0,85136:0:0:0:0:
448,192,85054,1,0,0:0:0:0:
192,192,85217,128,0,85298:0:0:0:0:
64,192,85298,128,0,85379:0:0:0:0:
192,192,85379,128,0,85460:0:0:0:0:
320,192,85379,1,0,0:0:0:0:
448,192,85541,1,0,0:0:0:0:
64,192,85541,128,0,85622:0:0:0:0:
192,192,85622,128,0,85703:0:0:0:0:
320,192,85703,128,0,85865:0:0:0:0:
448,192,85703,128,0,85865:0:0:0:0:
64,192,85865,128,0,86027:0:0:0:0:
192,192,86027,128,0,86190:0:0:0:0:
320,192,86027,1,0,0:0:0:0:
448,192,86190,128,0,86433:0:0:0:0:
64,192,86190,128,0,86352:0:0:0:0:
192,192,86352,1,0,0:0:0:0:
320,192,86352,1,0,0:0:0:0:
64,192,86514,128,0,86676:0:0:0:0:
192,192,86676,128,0,86838:0:0:0:0:
448,192,86676,1,0,0:0:0:0:
320,192,86838,128,0,87000:0:0:0:0:
64,192,87000,128,0,87081:0:0:0:0:
448,192,87000,128,0,87163:0:0:0:0:
320,192,87163,128,0,87244:0:0:0:0:
64,192,87163,128,0,87325:0:0:0:0:
448,192,87325,128,0,87406:0:0:0:0:
192,192,87325,128,0,87487:0:0:0:0:
448,192,87487,128,0,87973:0:0:0:0:
320,192,87487,128,0,87811:0:0:0:0:
192,192,87649,1,0,0:0:0:0:
64,192,87649,1,0,0:0:0:0:
192,192,87811,1,0,0:0:0:0:
320,192,87973,1,0,0:0:0:0:
64,192,87994,1,0,0:0:0:0:
320,192,88136,1,0,0:0:0:0:
192,192,88136,1,0,0:0:0:0:
448,192,88217,1,0,0:0:0:0:
192,192,88298,128,0,88460:0:0:0:0:
64,192,88298,128,0,88622:0:0:0:0:
448,192,88460,128,0,88622:0:0:0:0:
192,192,88622,128,0,88784:0:0:0:0:
320,192,88784,128,0,88946:0:0:0:0:
448,192,88784,128,0,89109:0:0:0:0:
64,192,88946,128,0,89109:0:0:0:0:
320,192,89109,128,0,89271:0:0:0:0:
64,192,89271,128,0,89595:0:0:0:0:
192,192,89271,128,0,89433:0:0:0:0:
448,192,89433,128,0,89595:0:0:0:0:
192,192,89595,128,0,89703:0:0:0:0:
64,192,89703,128,0,89811:0:0:0:0:
320,192,89757,1,0,0:0:0:0:
448,192,89757,128,0,90081:0:0:0:0:
192,192,89811,128,0,89919:0:0:0:0:
320,192,89919,128,0,90027:0:0:0:0:
64,192,90027,128,0,90136:0:0:0:0:
320,192,90136,128,0,90244:0:0:0:0:
192,192,90244,128,0,90568:0:0:0:0:
448,192,90244,128,0,90352:0:0:0:0:
64,192,90352,128,0,90460:0:0:0:0:
320,192,90406,1,0,0:0:0:0:
448,192,90460,128,0,90568:0:0:0:0:
320,192,90568,128,0,90892:0:0:0:0:
192,192,90676,128,0,90784:0:0:0:0:
64,192,90784,128,0,90892:0:0:0:0:
448,192,90892,1,0,0:0:0:0:
192,192,90892,128,0,91054:0:0:0:0:
448,192,91054,1,0,0:0:0:0:
320,192,91054,128,0,91217:0:0:0:0:
64,192,91217,1,0,0:0:0:0:
192,192,91217,128,0,91379:0:0:0:0:
64,192,91379,1,0,0:0:0:0:
448,192,91379,128,0,91703:0:0:0:0:
192,192,91541,1,0,0:0:0:0:
320,192,91541,1,0,0:0:0:0:
64,192,91703,1,0,0:0:0:0:
320,192,91703,128,0,91865:0:0:0:0:
448,192,91865,1,0,0:0:0:0:
192,192,91865,128,0,92027:0:0:0:0:
320,192,92027,1,0,0:0:0:0:
448,192,92027,128,0,92352:0:0:0:0:
64,192,92190,1,0,0:0:0:0:
192,192,92190,1,0,0:0:0:0:
320,192,92271,1,0,0:0:0:0:
192,192,92352,128,0,92514:0:0:0:0:
64,192,92433,1,0,0:0:0:0:
320,192,92514,128,0,92676:0:0:0:0:
448,192,92514,1,0,0:0:0:0:
192,192,92595,1,0,0:0:0:0:
64,192,92676,128,0,93000:0:0:0:0:
448,192,92757,1,0,0:0:0:0:
320,192,92838,1,0,0:0:0:0:
192,192,92838,1,0,0:0:0:0:
448,192,93000,1,0,0:0:0:0:
192,192,93081,1,0,0:0:0:0:
320,192,93163,1,0,0:0:0:0:
448,192,93163,1,0,0:0:0:0:
192,192,93244,1,0,0:0:0:0:
64,192,93244,1,0,0:0:0:0:
320,192,93325,1,0,0:0:0:0:
448,192,93325,1,0,0:0:0:0:
192,192,93406,1,0,0:0:0:0:
64,192,93406,1,0,0:0:0:0:
448,192,93487,5,0,0:0:0:0:
320,192,93649,1,0,0:0:0:0:
192,192,93730,1,0,0:0:0:0:
320,192,93811,1,0,0:0:0:0:
64,192,93973,1,0,0:0:0:0:
192,192,94136,1,0,0:0:0:0:
320,192,94217,1,0,0:0:0:0:
192,192,94298,1,0,0:0:0:0:
64,192,94460,1,0,0:0:0:0:
192,192,94541,1,0,0:0:0:0:
320,192,94622,1,0,0:0:0:0:
448,192,94703,1,0,0:0:0:0:
64,192,94784,1,0,0:0:0:0:
448,192,94946,1,0,0:0:0:0:
192,192,95027,1,0,0:0:0:0:
448,192,95109,1,0,0:0:0:0:
320,192,95271,1,0,0:0:0:0:
192,192,95433,1,0,0:0:0:0:
64,192,95595,1,0,0:0:0:0:
320,192,95676,1,0,0:0:0:0:
64,192,95757,1,0,0:0:0:0:
192,192,95919,1,0,0:0:0:0:
320,192,96081,128,0,96406:0:0:0:0:
192,192,96163,1,0,0:0:0:0:
64,192,96244,1,0,0:0:0:0:
192,192,96325,1,0,0:0:0:0:
448,192,96406,128,0,96730:0:0:0:0:
64,192,96487,1,0,0:0:0:0:
192,192,96568,1,0,0:0:0:0:
320,192,96649,1,0,0:0:0:0:
192,192,96730,128,0,97054:0:0:0:0:
448,192,96811,1,0,0:0:0:0:
320,192,96892,1,0,0:0:0:0:
64,192,96973,1,0,0:0:0:0:
448,192,97054,128,0,97379:0:0:0:0:
320,192,97136,1,0,0:0:0:0:
192,192,97217,1,0,0:0:0:0:
320,192,97298,1,0,0:0:0:0:
64,192,97379,128,0,97703:0:0:0:0:
192,192,97541,1,0,0:0:0:0:
448,192,97622,1,0,0:0:0:0:
320,192,97703,128,0,98027:0:0:0:0:
192,192,97865,1,0,0:0:0:0:
448,192,98027,1,0,0:0:0:0:
64,192,98190,1,0,0:0:0:0:
192,192,98352,1,0,0:0:0:0:
320,192,98514,1,0,0:0:0:0:
448,192,98676,1,0,0:0:0:0:
320,192,98838,1,0,0:0:0:0:
192,192,98919,1,0,0:0:0:0:
320,192,99000,1,0,0:0:0:0:
64,192,99163,1,0,0:0:0:0:
192,192,99325,1,0,0:0:0:0:
320,192,99406,1,0,0:0:0:0:
192,192,99487,1,0,0:0:0:0:
64,192,99649,1,0,0:0:0:0:
192,192,99730,1,0,0:0:0:0:
320,192,99811,1,0,0:0:0:0:
448,192,99892,1,0,0:0:0:0:
64,192,99973,1,0,0:0:0:0:
448,192,100136,1,0,0:0:0:0:
192,192,100217,1,0,0:0:0:0:
448,192,100298,1,0,0:0:0:0:
320,192,100460,1,0,0:0:0:0:
192,192,100622,1,0,0:0:0:0:
64,192,100784,1,0,0:0:0:0:
320,192,100865,1,0,0:0:0:0:
64,192,100946,1,0,0:0:0:0:
192,192,101109,1,0,0:0:0:0:
320,192,101269,128,0,101621:0:0:0:0:
448,192,101445,128,0,101621:0:0:0:0:
192,192,101621,128,0,101974:0:0:0:0:
320,192,101798,128,0,101974:0:0:0:0:
64,192,101974,128,0,102337:0:0:0:0:
192,192,102155,128,0,102337:0:0:0:0:
448,192,102337,128,0,102725:0:0:0:0:
320,192,102525,128,0,102725:0:0:0:0:
64,192,102725,1,0,0:0:0:0:
192,192,102805,1,0,0:0:0:0:
320,192,102886,1,0,0:0:0:0:
448,192,102969,1,0,0:0:0:0:
64,192,103057,1,0,0:0:0:0:
192,192,103145,1,0,0:0:0:0:
320,192,103242,1,0,0:0:0:0:
448,192,103344,1,0,0:0:0:0:
192,192,103446,1,0,0:0:0:0:
320,192,103622,1,0,0:0:0:0:
320,192,103798,128,0,104548:0:0:0:0:
