osu file format v14

[General]
AudioFilename: audio.mp3
AudioLeadIn: 0
PreviewTime: 82
Countdown: 0
SampleSet: Soft
StackLeniency: 0.7
Mode: 3
LetterboxInBreaks: 0
SpecialStyle: 0
WidescreenStoryboard: 0

[Editor]
Bookmarks: 10460,20838,31216,41594,51973,62351,72729,83107,93485
DistanceSpacing: 0.8
BeatDivisor: 4
GridSize: 8
TimelineZoom: 1.8

[Metadata]
Title:UP UP MT. CAKE
TitleUnicode:UP UP MT. CAKE
Artist:OISHII
ArtistUnicode:OISHII
Creator:Carpihat
Version:YUM YUM CAIJI. HARD
Source:
Tags:featured artist fa chiptune creamcore instrumental electronic happy kirby nes adventure hype nintendo video game mount cai_ji_ccc
BeatmapID:4334025
BeatmapSetID:2069976

[Difficulty]
HPDrainRate:7.5
CircleSize:4
OverallDifficulty:7.5
ApproachRate:5
SliderMultiplier:1.4
SliderTickRate:1

[Events]
//Background and Video events
0,0,"bg.jpg",0,0
//Break Periods
//Storyboard Layer 0 (Background)
//Storyboard Layer 1 (Fail)
//Storyboard Layer 2 (Pass)
//Storyboard Layer 3 (Foreground)
//Storyboard Layer 4 (Overlay)
//Storyboard Sound Samples

[TimingPoints]
82,324.324324324324,4,2,1,35,1,0
41595,-100,4,2,1,50,0,1
72730,-100,4,2,1,35,0,0
83109,-100,4,2,1,50,0,1
93487,-100,4,2,1,35,0,0
101269,352.941176470588,4,2,1,33,1,0
101269,-91.743119266055,4,2,1,33,0,0
101974,363.636363636364,4,2,1,31,1,0
101974,-89.2857142857143,4,2,1,31,0,0
102337,377.358490566038,4,2,1,29,1,0
102337,-86.2068965517241,4,2,1,29,0,0
102525,400,4,2,1,27,1,0
102525,-81.3008130081301,4,2,1,27,0,0
102725,431.654676258993,4,2,1,25,1,0
102725,-75.187969924812,4,2,1,25,0,0
102940,468.75,4,2,1,23,1,0
102940,-68.9655172413793,4,2,1,23,0,0
103174,545.454545454546,4,2,1,21,1,0
103174,-59.5238095238095,4,2,1,21,0,0
103446,705.882352941176,4,2,1,19,1,0
103446,-45.8715596330275,4,2,1,19,0,0
103798,750,4,2,1,17,1,0
103798,-43.2900432900433,4,2,1,17,0,0

[HitObjects]
448,192,82,5,0,0:0:0:0:
64,192,244,1,0,0:0:0:0:
192,192,325,1,0,0:0:0:0:
320,192,406,1,0,0:0:0:0:
64,192,568,1,0,0:0:0:0:
448,192,730,1,0,0:0:0:0:
320,192,811,1,0,0:0:0:0:
192,192,892,1,0,0:0:0:0:
448,192,1054,1,0,0:0:0:0:
320,192,1136,1,0,0:0:0:0:
64,192,1217,1,0,0:0:0:0:
192,192,1298,1,0,0:0:0:0:
448,192,1379,1,0,0:0:0:0:
320,192,1541,1,0,0:0:0:0:
192,192,1622,1,0,0:0:0:0:
64,192,1703,1,0,0:0:0:0:
448,192,1865,1,0,0:0:0:0:
320,192,2027,1,0,0:0:0:0:
64,192,2190,1,0,0:0:0:0:
192,192,2271,1,0,0:0:0:0:
448,192,2352,1,0,0:0:0:0:
320,192,2514,1,0,0:0:0:0:
64,192,2676,128,0,3325:0:0:0:0:
448,192,2676,128,0,3000:0:0:0:0:
192,192,3000,128,0,3325:0:0:0:0:
320,192,3325,128,0,3649:0:0:0:0:
448,192,3325,128,0,3973:0:0:0:0:
64,192,3649,128,0,3973:0:0:0:0:
320,192,3973,128,0,4622:0:0:0:0:
192,192,3973,128,0,4298:0:0:0:0:
448,192,4298,128,0,4622:0:0:0:0:
64,192,4622,1,0,0:0:0:0:
192,192,4784,1,0,0:0:0:0:
448,192,4946,1,0,0:0:0:0:
320,192,5109,1,0,0:0:0:0:
64,192,5271,1,0,0:0:0:0:
448,192,5433,1,0,0:0:0:0:
320,192,5514,1,0,0:0:0:0:
192,192,5595,1,0,0:0:0:0:
448,192,5757,1,0,0:0:0:0:
64,192,5919,1,0,0:0:0:0:
192,192,6000,1,0,0:0:0:0:
320,192,6081,1,0,0:0:0:0:
64,192,6244,1,0,0:0:0:0:
192,192,6325,1,0,0:0:0:0:
448,192,6406,1,0,0:0:0:0:
320,192,6487,1,0,0:0:0:0:
192,192,6568,1,0,0:0:0:0:
64,192,6730,1,0,0:0:0:0:
192,192,6811,1,0,0:0:0:0:
448,192,6892,1,0,0:0:0:0:
320,192,7054,1,0,0:0:0:0:
192,192,7217,1,0,0:0:0:0:
448,192,7379,1,0,0:0:0:0:
320,192,7460,1,0,0:0:0:0:
64,192,7541,1,0,0:0:0:0:
192,192,7703,1,0,0:0:0:0:
448,192,7865,128,0,8027:0:0:0:0:
192,192,8027,128,0,8190:0:0:0:0:
320,192,8190,128,0,8352:0:0:0:0:
64,192,8352,128,0,8514:0:0:0:0:
448,192,8514,128,0,8676:0:0:0:0:
192,192,8676,128,0,8838:0:0:0:0:
320,192,8838,128,0,9000:0:0:0:0:
64,192,9000,128,0,9163:0:0:0:0:
448,192,9163,128,0,9811:0:0:0:0:
192,192,9163,128,0,9325:0:0:0:0:
64,192,9325,128,0,9487:0:0:0:0:
320,192,9487,128,0,9649:0:0:0:0:
192,192,9649,128,0,9811:0:0:0:0:
64,192,9811,128,0,10136:0:0:0:0:
320,192,9811,1,0,0:0:0:0:
320,192,10136,128,0,10298:0:0:0:0:
64,192,10460,1,0,0:0:0:0:
448,192,10460,1,0,0:0:0:0:
192,192,10622,1,0,0:0:0:0:
320,192,10703,1,0,0:0:0:0:
64,192,10784,1,0,0:0:0:0:
192,192,10946,1,0,0:0:0:0:
448,192,10946,1,0,0:0:0:0:
320,192,11109,1,0,0:0:0:0:
192,192,11190,1,0,0:0:0:0:
64,192,11271,1,0,0:0:0:0:
320,192,11433,1,0,0:0:0:0:
192,192,11514,1,0,0:0:0:0:
448,192,11595,1,0,0:0:0:0:
320,192,11676,1,0,0:0:0:0:
64,192,11757,1,0,0:0:0:0:
192,192,11919,1,0,0:0:0:0:
320,192,12000,1,0,0:0:0:0:
448,192,12081,1,0,0:0:0:0:
192,192,12244,1,0,0:0:0:0:
64,192,12244,1,0,0:0:0:0:
320,192,12406,1,0,0:0:0:0:
448,192,12406,1,0,0:0:0:0:
192,192,12568,1,0,0:0:0:0:
64,192,12649,1,0,0:0:0:0:
320,192,12730,1,0,0:0:0:0:
192,192,12892,1,0,0:0:0:0:
64,192,12892,1,0,0:0:0:0:
448,192,13054,128,0,13379:0:0:0:0:
320,192,13054,1,0,0:0:0:0:
64,192,13217,1,0,0:0:0:0:
320,192,13379,1,0,0:0:0:0:
192,192,13379,128,0,13703:0:0:0:0:
448,192,13541,1,0,0:0:0:0:
320,192,13703,128,0,14027:0:0:0:0:
64,192,13703,1,0,0:0:0:0:
192,192,13865,1,0,0:0:0:0:
64,192,14027,128,0,14352:0:0:0:0:
448,192,14027,1,0,0:0:0:0:
320,192,14190,1,0,0:0:0:0:
192,192,14352,1,0,0:0:0:0:
448,192,14352,128,0,14676:0:0:0:0:
320,192,14514,1,0,0:0:0:0:
192,192,14676,128,0,15000:0:0:0:0:
64,192,14676,1,0,0:0:0:0:
320,192,14838,1,0,0:0:0:0:
448,192,15000,1,0,0:0:0:0:
64,192,15000,1,0,0:0:0:0:
192,192,15163,1,0,0:0:0:0:
320,192,15163,1,0,0:0:0:0:
448,192,15325,1,0,0:0:0:0:
320,192,15406,1,0,0:0:0:0:
64,192,15487,1,0,0:0:0:0:
192,192,15487,1,0,0:0:0:0:
448,192,15649,1,0,0:0:0:0:
64,192,15649,1,0,0:0:0:0:
320,192,15811,1,0,0:0:0:0:
192,192,15892,1,0,0:0:0:0:
64,192,15973,1,0,0:0:0:0:
320,192,16136,1,0,0:0:0:0:
448,192,16136,1,0,0:0:0:0:
192,192,16298,1,0,0:0:0:0:
448,192,16379,1,0,0:0:0:0:
320,192,16460,1,0,0:0:0:0:
64,192,16622,1,0,0:0:0:0:
192,192,16703,1,0,0:0:0:0:
320,192,16784,1,0,0:0:0:0:
64,192,16865,1,0,0:0:0:0:
192,192,16946,1,0,0:0:0:0:
448,192,17109,1,0,0:0:0:0:
64,192,17190,1,0,0:0:0:0:
320,192,17271,1,0,0:0:0:0:
64,192,17433,1,0,0:0:0:0:
192,192,17433,1,0,0:0:0:0:
448,192,17595,1,0,0:0:0:0:
320,192,17595,1,0,0:0:0:0:
64,192,17757,1,0,0:0:0:0:
448,192,17838,1,0,0:0:0:0:
192,192,17919,1,0,0:0:0:0:
320,192,18081,1,0,0:0:0:0:
448,192,18081,1,0,0:0:0:0:
64,192,18244,128,0,18568:0:0:0:0:
192,192,18244,1,0,0:0:0:0:
448,192,18406,1,0,0:0:0:0:
320,192,18568,128,0,18892:0:0:0:0:
192,192,18568,1,0,0:0:0:0:
64,192,18730,1,0,0:0:0:0:
192,192,18892,128,0,19217:0:0:0:0:
448,192,18892,1,0,0:0:0:0:
320,192,19054,1,0,0:0:0:0:
448,192,19217,128,0,19541:0:0:0:0:
64,192,19217,1,0,0:0:0:0:
320,192,19379,1,0,0:0:0:0:
64,192,19541,128,0,20190:0:0:0:0:
192,192,19541,1,0,0:0:0:0:
320,192,19703,1,0,0:0:0:0:
448,192,19703,1,0,0:0:0:0:
192,192,19865,1,0,0:0:0:0:
320,192,20027,1,0,0:0:0:0:
448,192,20027,1,0,0:0:0:0:
192,192,20190,1,0,0:0:0:0:
448,192,20190,1,0,0:0:0:0:
320,192,20352,1,0,0:0:0:0:
192,192,20433,1,0,0:0:0:0:
448,192,20514,1,0,0:0:0:0:
320,192,20514,1,0,0:0:0:0:
64,192,20595,1,0,0:0:0:0:
448,192,20676,1,0,0:0:0:0:
64,192,20757,1,0,0:0:0:0:
448,192,20838,1,0,0:0:0:0:
320,192,20838,1,0,0:0:0:0:
192,192,21000,1,0,0:0:0:0:
448,192,21081,1,0,0:0:0:0:
320,192,21163,1,0,0:0:0:0:
192,192,21325,1,0,0:0:0:0:
64,192,21325,1,0,0:0:0:0:
320,192,21487,1,0,0:0:0:0:
64,192,21568,1,0,0:0:0:0:
192,192,21649,1,0,0:0:0:0:
448,192,21811,1,0,0:0:0:0:
320,192,21892,1,0,0:0:0:0:
192,192,21973,1,0,0:0:0:0:
64,192,22054,1,0,0:0:0:0:
448,192,22136,1,0,0:0:0:0:
192,192,22298,1,0,0:0:0:0:
320,192,22379,1,0,0:0:0:0:
64,192,22460,1,0,0:0:0:0:
320,192,22622,1,0,0:0:0:0:
448,192,22622,1,0,0:0:0:0:
192,192,22784,1,0,0:0:0:0:
64,192,22784,1,0,0:0:0:0:
320,192,22946,1,0,0:0:0:0:
192,192,23027,1,0,0:0:0:0:
448,192,23109,1,0,0:0:0:0:
192,192,23271,1,0,0:0:0:0:
64,192,23271,1,0,0:0:0:0:
448,192,23433,128,0,23757:0:0:0:0:
320,192,23433,1,0,0:0:0:0:
64,192,23595,1,0,0:0:0:0:
320,192,23757,1,0,0:0:0:0:
192,192,23757,128,0,24081:0:0:0:0:
448,192,23919,1,0,0:0:0:0:
320,192,24081,128,0,24406:0:0:0:0:
64,192,24081,1,0,0:0:0:0:
192,192,24244,1,0,0:0:0:0:
64,192,24406,128,0,24730:0:0:0:0:
448,192,24406,1,0,0:0:0:0:
320,192,24568,1,0,0:0:0:0:
192,192,24730,1,0,0:0:0:0:
448,192,24730,128,0,25054:0:0:0:0:
320,192,24892,1,0,0:0:0:0:
192,192,25054,128,0,25379:0:0:0:0:
64,192,25054,1,0,0:0:0:0:
320,192,25217,1,0,0:0:0:0:
448,192,25379,1,0,0:0:0:0:
64,192,25379,1,0,0:0:0:0:
192,192,25541,1,0,0:0:0:0:
320,192,25541,1,0,0:0:0:0:
64,192,25703,1,0,0:0:0:0:
192,192,25784,1,0,0:0:0:0:
320,192,25865,1,0,0:0:0:0:
448,192,25865,1,0,0:0:0:0:
448,192,26027,1,0,0:0:0:0:
64,192,26027,1,0,0:0:0:0:
192,192,26190,1,0,0:0:0:0:
320,192,26271,1,0,0:0:0:0:
64,192,26352,1,0,0:0:0:0:
192,192,26514,1,0,0:0:0:0:
448,192,26514,1,0,0:0:0:0:
320,192,26676,1,0,0:0:0:0:
192,192,26757,1,0,0:0:0:0:
64,192,26838,1,0,0:0:0:0:
320,192,27000,1,0,0:0:0:0:
192,192,27081,1,0,0:0:0:0:
448,192,27163,1,0,0:0:0:0:
320,192,27244,1,0,0:0:0:0:
64,192,27325,1,0,0:0:0:0:
192,192,27487,1,0,0:0:0:0:
320,192,27568,1,0,0:0:0:0:
448,192,27649,1,0,0:0:0:0:
192,192,27811,1,0,0:0:0:0:
64,192,27811,1,0,0:0:0:0:
320,192,27973,1,0,0:0:0:0:
448,192,27973,1,0,0:0:0:0:
192,192,28136,1,0,0:0:0:0:
64,192,28217,1,0,0:0:0:0:
320,192,28298,1,0,0:0:0:0:
192,192,28460,1,0,0:0:0:0:
64,192,28460,1,0,0:0:0:0:
448,192,28622,128,0,28946:0:0:0:0:
320,192,28622,1,0,0:0:0:0:
64,192,28784,1,0,0:0:0:0:
192,192,28946,128,0,29271:0:0:0:0:
320,192,28946,1,0,0:0:0:0:
448,192,29109,1,0,0:0:0:0:
320,192,29271,128,0,29595:0:0:0:0:
64,192,29271,1,0,0:0:0:0:
192,192,29433,1,0,0:0:0:0:
64,192,29595,128,0,29919:0:0:0:0:
448,192,29595,1,0,0:0:0:0:
192,192,29757,1,0,0:0:0:0:
448,192,29919,128,0,30568:0:0:0:0:
320,192,29919,1,0,0:0:0:0:
192,192,30081,1,0,0:0:0:0:
64,192,30081,1,0,0:0:0:0:
320,192,30244,1,0,0:0:0:0:
192,192,30406,1,0,0:0:0:0:
64,192,30406,1,0,0:0:0:0:
64,192,30568,1,0,0:0:0:0:
320,192,30568,128,0,30811:0:0:0:0:
192,192,30811,1,0,0:0:0:0:
320,192,30892,1,0,0:0:0:0:
448,192,30892,1,0,0:0:0:0:
64,192,30973,1,0,0:0:0:0:
448,192,31054,1,0,0:0:0:0:
64,192,31136,1,0,0:0:0:0:
320,192,31217,1,0,0:0:0:0:
448,192,31217,1,0,0:0:0:0:
192,192,31379,1,0,0:0:0:0:
320,192,31541,1,0,0:0:0:0:
448,192,31541,1,0,0:0:0:0:
192,192,31703,1,0,0:0:0:0:
64,192,31703,128,0,32027:0:0:0:0:
448,192,32027,1,0,0:0:0:0:
64,192,32190,1,0,0:0:0:0:
320,192,32190,1,0,0:0:0:0:
192,192,32352,1,0,0:0:0:0:
320,192,32514,1,0,0:0:0:0:
448,192,32514,1,0,0:0:0:0:
192,192,32676,1,0,0:0:0:0:
64,192,32757,1,0,0:0:0:0:
320,192,32838,1,0,0:0:0:0:
192,192,33000,1,0,0:0:0:0:
448,192,33081,1,0,0:0:0:0:
320,192,33163,1,0,0:0:0:0:
64,192,33325,1,0,0:0:0:0:
192,192,33406,1,0,0:0:0:0:
448,192,33487,1,0,0:0:0:0:
320,192,33649,1,0,0:0:0:0:
192,192,33730,1,0,0:0:0:0:
448,192,33811,1,0,0:0:0:0:
64,192,33811,1,0,0:0:0:0:
320,192,33973,1,0,0:0:0:0:
192,192,34136,1,0,0:0:0:0:
64,192,34136,1,0,0:0:0:0:
448,192,34298,128,0,34622:0:0:0:0:
320,192,34298,1,0,0:0:0:0:
192,192,34622,1,0,0:0:0:0:
64,192,34784,1,0,0:0:0:0:
448,192,34784,1,0,0:0:0:0:
320,192,34946,1,0,0:0:0:0:
192,192,35109,1,0,0:0:0:0:
64,192,35109,128,0,35271:0:0:0:0:
448,192,35271,128,0,35433:0:0:0:0:
64,192,35433,1,0,0:0:0:0:
192,192,35433,128,0,35595:0:0:0:0:
448,192,35595,1,0,0:0:0:0:
320,192,35595,128,0,35757:0:0:0:0:
64,192,35757,1,0,0:0:0:0:
192,192,35838,1,0,0:0:0:0:
448,192,35919,1,0,0:0:0:0:
320,192,36000,1,0,0:0:0:0:
64,192,36081,1,0,0:0:0:0:
192,192,36081,1,0,0:0:0:0:
448,192,36163,1,0,0:0:0:0:
320,192,36244,1,0,0:0:0:0:
192,192,36325,1,0,0:0:0:0:
64,192,36406,1,0,0:0:0:0:
448,192,36406,1,0,0:0:0:0:
320,192,36568,1,0,0:0:0:0:
192,192,36730,1,0,0:0:0:0:
64,192,36730,1,0,0:0:0:0:
448,192,36892,128,0,37217:0:0:0:0:
320,192,36892,1,0,0:0:0:0:
64,192,37217,1,0,0:0:0:0:
192,192,37379,1,0,0:0:0:0:
448,192,37379,1,0,0:0:0:0:
320,192,37541,1,0,0:0:0:0:
64,192,37703,1,0,0:0:0:0:
448,192,37784,1,0,0:0:0:0:
192,192,37865,1,0,0:0:0:0:
320,192,37946,1,0,0:0:0:0:
64,192,38027,1,0,0:0:0:0:
192,192,38109,1,0,0:0:0:0:
448,192,38190,1,0,0:0:0:0:
320,192,38271,1,0,0:0:0:0:
192,192,38352,1,0,0:0:0:0:
448,192,38433,1,0,0:0:0:0:
64,192,38514,1,0,0:0:0:0:
320,192,38595,1,0,0:0:0:0:
192,192,38676,1,0,0:0:0:0:
448,192,38757,1,0,0:0:0:0:
320,192,38838,1,0,0:0:0:0:
192,192,38919,1,0,0:0:0:0:
64,192,39000,1,0,0:0:0:0:
448,192,39000,1,0,0:0:0:0:
192,192,39163,1,0,0:0:0:0:
320,192,39325,1,0,0:0:0:0:
448,192,39325,1,0,0:0:0:0:
192,192,39487,1,0,0:0:0:0:
64,192,39487,1,0,0:0:0:0:
448,192,39649,1,0,0:0:0:0:
320,192,39811,1,0,0:0:0:0:
192,192,39973,1,0,0:0:0:0:
64,192,39973,1,0,0:0:0:0:
320,192,40136,1,0,0:0:0:0:
64,192,40298,1,0,0:0:0:0:
448,192,40298,1,0,0:0:0:0:
192,192,40460,1,0,0:0:0:0:
320,192,40460,1,0,0:0:0:0:
192,192,40622,1,0,0:0:0:0:
64,192,40622,1,0,0:0:0:0:
320,192,40784,1,0,0:0:0:0:
448,192,40784,1,0,0:0:0:0:
192,192,40946,1,0,0:0:0:0:
64,192,41027,1,0,0:0:0:0:
320,192,41109,1,0,0:0:0:0:
192,192,41190,1,0,0:0:0:0:
448,192,41271,1,0,0:0:0:0:
320,192,41352,1,0,0:0:0:0:
64,192,41433,1,0,0:0:0:0:
192,192,41514,1,0,0:0:0:0:
320,192,41595,1,0,0:0:0:0:
448,192,41595,1,0,0:0:0:0:
64,192,41757,1,0,0:0:0:0:
192,192,41919,1,0,0:0:0:0:
320,192,41919,1,0,0:0:0:0:
448,192,42081,128,0,42406:0:0:0:0:
64,192,42081,128,0,42406:0:0:0:0:
320,192,42406,1,0,0:0:0:0:
192,192,42568,1,0,0:0:0:0:
64,192,42568,1,0,0:0:0:0:
448,192,42730,1,0,0:0:0:0:
320,192,42892,1,0,0:0:0:0:
64,192,42892,1,0,0:0:0:0:
192,192,43054,1,0,0:0:0:0:
320,192,43136,1,0,0:0:0:0:
448,192,43217,1,0,0:0:0:0:
64,192,43379,1,0,0:0:0:0:
192,192,43460,1,0,0:0:0:0:
320,192,43541,1,0,0:0:0:0:
192,192,43703,1,0,0:0:0:0:
64,192,43784,1,0,0:0:0:0:
448,192,43865,1,0,0:0:0:0:
320,192,44027,1,0,0:0:0:0:
192,192,44109,1,0,0:0:0:0:
448,192,44190,1,0,0:0:0:0:
64,192,44190,1,0,0:0:0:0:
320,192,44352,1,0,0:0:0:0:
192,192,44514,1,0,0:0:0:0:
64,192,44514,1,0,0:0:0:0:
320,192,44676,1,0,0:0:0:0:
448,192,44676,1,0,0:0:0:0:
192,192,45000,1,0,0:0:0:0:
320,192,45163,1,0,0:0:0:0:
448,192,45163,1,0,0:0:0:0:
192,192,45325,1,0,0:0:0:0:
448,192,45487,1,0,0:0:0:0:
64,192,45487,1,0,0:0:0:0:
192,192,45649,1,0,0:0:0:0:
320,192,45649,1,0,0:0:0:0:
64,192,45811,1,0,0:0:0:0:
192,192,45811,1,0,0:0:0:0:
448,192,45973,128,0,46298:0:0:0:0:
320,192,45973,1,0,0:0:0:0:
64,192,46136,128,0,46460:0:0:0:0:
192,192,46136,1,0,0:0:0:0:
320,192,46298,1,0,0:0:0:0:
448,192,46460,1,0,0:0:0:0:
192,192,46460,1,0,0:0:0:0:
320,192,46622,1,0,0:0:0:0:
192,192,46703,1,0,0:0:0:0:
64,192,46784,1,0,0:0:0:0:
448,192,46784,128,0,47109:0:0:0:0:
320,192,46946,1,0,0:0:0:0:
192,192,47109,1,0,0:0:0:0:
320,192,47271,1,0,0:0:0:0:
64,192,47271,128,0,47595:0:0:0:0:
448,192,47433,1,0,0:0:0:0:
192,192,47595,1,0,0:0:0:0:
448,192,47757,128,0,48081:0:0:0:0:
64,192,47757,1,0,0:0:0:0:
320,192,47919,1,0,0:0:0:0:
192,192,48081,1,0,0:0:0:0:
64,192,48244,1,0,0:0:0:0:
320,192,48244,1,0,0:0:0:0:
448,192,48406,1,0,0:0:0:0:
192,192,48514,1,0,0:0:0:0:
320,192,48622,1,0,0:0:0:0:
64,192,48730,1,0,0:0:0:0:
448,192,48730,1,0,0:0:0:0:
192,192,48838,1,0,0:0:0:0:
320,192,48946,1,0,0:0:0:0:
64,192,49054,1,0,0:0:0:0:
192,192,49163,1,0,0:0:0:0:
448,192,49271,1,0,0:0:0:0:
64,192,49379,1,0,0:0:0:0:
320,192,49379,1,0,0:0:0:0:
192,192,49541,1,0,0:0:0:0:
320,192,49703,1,0,0:0:0:0:
448,192,49703,1,0,0:0:0:0:
192,192,49865,1,0,0:0:0:0:
64,192,49865,128,0,50190:0:0:0:0:
448,192,50027,1,0,0:0:0:0:
320,192,50190,1,0,0:0:0:0:
192,192,50352,1,0,0:0:0:0:
64,192,50352,1,0,0:0:0:0:
320,192,50514,1,0,0:0:0:0:
448,192,50514,128,0,50838:0:0:0:0:
64,192,50676,1,0,0:0:0:0:
192,192,50676,128,0,50838:0:0:0:0:
320,192,50838,128,0,51000:0:0:0:0:
64,192,51000,128,0,51325:0:0:0:0:
448,192,51000,128,0,51163:0:0:0:0:
192,192,51163,128,0,51487:0:0:0:0:
448,192,51325,1,0,0:0:0:0:
320,192,51325,128,0,51487:0:0:0:0:
64,192,51487,1,0,0:0:0:0:
448,192,51649,1,0,0:0:0:0:
320,192,51649,1,0,0:0:0:0:
64,192,51730,1,0,0:0:0:0:
448,192,51811,1,0,0:0:0:0:
64,192,51892,1,0,0:0:0:0:
320,192,51973,1,0,0:0:0:0:
448,192,51973,1,0,0:0:0:0:
192,192,52136,1,0,0:0:0:0:
64,192,52217,1,0,0:0:0:0:
448,192,52298,1,0,0:0:0:0:
320,192,52460,1,0,0:0:0:0:
64,192,52460,1,0,0:0:0:0:
192,192,52622,1,0,0:0:0:0:
320,192,52703,1,0,0:0:0:0:
448,192,52784,1,0,0:0:0:0:
192,192,52946,1,0,0:0:0:0:
320,192,53027,1,0,0:0:0:0:
64,192,53109,1,0,0:0:0:0:
192,192,53190,1,0,0:0:0:0:
448,192,53271,1,0,0:0:0:0:
320,192,53433,1,0,0:0:0:0:
192,192,53514,1,0,0:0:0:0:
64,192,53595,1,0,0:0:0:0:
320,192,53757,1,0,0:0:0:0:
448,192,53757,1,0,0:0:0:0:
192,192,53919,1,0,0:0:0:0:
64,192,53919,1,0,0:0:0:0:
320,192,54081,1,0,0:0:0:0:
448,192,54163,1,0,0:0:0:0:
192,192,54244,1,0,0:0:0:0:
320,192,54406,1,0,0:0:0:0:
448,192,54406,1,0,0:0:0:0:
64,192,54568,128,0,54892:0:0:0:0:
192,192,54568,1,0,0:0:0:0:
448,192,54730,1,0,0:0:0:0:
192,192,54892,1,0,0:0:0:0:
320,192,54892,128,0,55217:0:0:0:0:
64,192,55054,1,0,0:0:0:0:
192,192,55217,128,0,55541:0:0:0:0:
448,192,55217,1,0,0:0:0:0:
320,192,55379,1,0,0:0:0:0:
448,192,55541,128,0,55865:0:0:0:0:
64,192,55541,1,0,0:0:0:0:
192,192,55703,1,0,0:0:0:0:
320,192,55865,1,0,0:0:0:0:
64,192,55865,128,0,56190:0:0:0:0:
192,192,56027,1,0,0:0:0:0:
320,192,56190,128,0,56514:0:0:0:0:
448,192,56190,1,0,0:0:0:0:
192,192,56352,1,0,0:0:0:0:
64,192,56514,1,0,0:0:0:0:
448,192,56514,1,0,0:0:0:0:
320,192,56676,1,0,0:0:0:0:
192,192,56676,1,0,0:0:0:0:
64,192,56838,1,0,0:0:0:0:
192,192,56919,1,0,0:0:0:0:
448,192,57000,1,0,0:0:0:0:
320,192,57000,1,0,0:0:0:0:
64,192,57163,1,0,0:0:0:0:
448,192,57163,1,0,0:0:0:0:
192,192,57325,1,0,0:0:0:0:
320,192,57406,1,0,0:0:0:0:
448,192,57487,1,0,0:0:0:0:
192,192,57649,1,0,0:0:0:0:
64,192,57649,1,0,0:0:0:0:
320,192,57811,1,0,0:0:0:0:
64,192,57892,1,0,0:0:0:0:
192,192,57973,1,0,0:0:0:0:
448,192,58136,1,0,0:0:0:0:
320,192,58217,1,0,0:0:0:0:
192,192,58298,1,0,0:0:0:0:
448,192,58379,1,0,0:0:0:0:
320,192,58460,1,0,0:0:0:0:
64,192,58622,1,0,0:0:0:0:
448,192,58703,1,0,0:0:0:0:
192,192,58784,1,0,0:0:0:0:
448,192,58946,1,0,0:0:0:0:
320,192,58946,1,0,0:0:0:0:
64,192,59109,1,0,0:0:0:0:
192,192,59109,1,0,0:0:0:0:
448,192,59271,1,0,0:0:0:0:
64,192,59352,1,0,0:0:0:0:
320,192,59433,1,0,0:0:0:0:
192,192,59595,1,0,0:0:0:0:
64,192,59595,1,0,0:0:0:0:
448,192,59757,128,0,60081:0:0:0:0:
320,192,59757,1,0,0:0:0:0:
64,192,59919,1,0,0:0:0:0:
192,192,60081,128,0,60406:0:0:0:0:
320,192,60081,1,0,0:0:0:0:
448,192,60244,1,0,0:0:0:0:
320,192,60406,128,0,60730:0:0:0:0:
64,192,60406,1,0,0:0:0:0:
192,192,60568,1,0,0:0:0:0:
64,192,60730,128,0,61054:0:0:0:0:
448,192,60730,1,0,0:0:0:0:
192,192,60892,1,0,0:0:0:0:
448,192,61054,128,0,61703:0:0:0:0:
320,192,61054,1,0,0:0:0:0:
192,192,61217,1,0,0:0:0:0:
64,192,61217,1,0,0:0:0:0:
320,192,61379,1,0,0:0:0:0:
192,192,61541,1,0,0:0:0:0:
64,192,61541,1,0,0:0:0:0:
320,192,61703,1,0,0:0:0:0:
64,192,61703,1,0,0:0:0:0:
192,192,61865,1,0,0:0:0:0:
320,192,61946,1,0,0:0:0:0:
64,192,62027,1,0,0:0:0:0:
192,192,62027,1,0,0:0:0:0:
448,192,62109,1,0,0:0:0:0:
64,192,62190,1,0,0:0:0:0:
448,192,62271,1,0,0:0:0:0:
64,192,62352,1,0,0:0:0:0:
192,192,62352,1,0,0:0:0:0:
320,192,62514,1,0,0:0:0:0:
64,192,62595,1,0,0:0:0:0:
192,192,62676,1,0,0:0:0:0:
320,192,62838,1,0,0:0:0:0:
448,192,62838,1,0,0:0:0:0:
192,192,63000,1,0,0:0:0:0:
448,192,63081,1,0,0:0:0:0:
320,192,63163,1,0,0:0:0:0:
64,192,63325,1,0,0:0:0:0:
192,192,63406,1,0,0:0:0:0:
320,192,63487,1,0,0:0:0:0:
448,192,63568,1,0,0:0:0:0:
64,192,63649,1,0,0:0:0:0:
320,192,63811,1,0,0:0:0:0:
192,192,63892,1,0,0:0:0:0:
448,192,63973,1,0,0:0:0:0:
192,192,64136,1,0,0:0:0:0:
64,192,64136,1,0,0:0:0:0:
320,192,64298,1,0,0:0:0:0:
448,192,64298,1,0,0:0:0:0:
192,192,64460,1,0,0:0:0:0:
320,192,64541,1,0,0:0:0:0:
64,192,64622,1,0,0:0:0:0:
320,192,64784,1,0,0:0:0:0:
448,192,64784,1,0,0:0:0:0:
64,192,64946,128,0,65271:0:0:0:0:
192,192,64946,1,0,0:0:0:0:
448,192,65109,1,0,0:0:0:0:
192,192,65271,1,0,0:0:0:0:
320,192,65271,128,0,65595:0:0:0:0:
64,192,65433,1,0,0:0:0:0:
192,192,65595,128,0,65919:0:0:0:0:
448,192,65595,1,0,0:0:0:0:
320,192,65757,1,0,0:0:0:0:
448,192,65919,128,0,66244:0:0:0:0:
64,192,65919,1,0,0:0:0:0:
192,192,66081,1,0,0:0:0:0:
320,192,66244,1,0,0:0:0:0:
64,192,66244,128,0,66568:0:0:0:0:
192,192,66406,1,0,0:0:0:0:
320,192,66568,128,0,66892:0:0:0:0:
448,192,66568,1,0,0:0:0:0:
192,192,66730,1,0,0:0:0:0:
64,192,66892,1,0,0:0:0:0:
448,192,66892,1,0,0:0:0:0:
320,192,67054,1,0,0:0:0:0:
192,192,67054,1,0,0:0:0:0:
448,192,67217,1,0,0:0:0:0:
320,192,67298,1,0,0:0:0:0:
192,192,67379,1,0,0:0:0:0:
64,192,67379,1,0,0:0:0:0:
64,192,67541,1,0,0:0:0:0:
448,192,67541,1,0,0:0:0:0:
320,192,67703,1,0,0:0:0:0:
192,192,67784,1,0,0:0:0:0:
448,192,67865,1,0,0:0:0:0:
320,192,68027,1,0,0:0:0:0:
64,192,68027,1,0,0:0:0:0:
192,192,68190,1,0,0:0:0:0:
320,192,68271,1,0,0:0:0:0:
448,192,68352,1,0,0:0:0:0:
192,192,68514,1,0,0:0:0:0:
320,192,68595,1,0,0:0:0:0:
64,192,68676,1,0,0:0:0:0:
192,192,68757,1,0,0:0:0:0:
448,192,68838,1,0,0:0:0:0:
320,192,69000,1,0,0:0:0:0:
192,192,69081,1,0,0:0:0:0:
64,192,69163,1,0,0:0:0:0:
320,192,69325,1,0,0:0:0:0:
448,192,69325,1,0,0:0:0:0:
192,192,69487,1,0,0:0:0:0:
64,192,69487,1,0,0:0:0:0:
320,192,69649,1,0,0:0:0:0:
448,192,69730,1,0,0:0:0:0:
192,192,69811,1,0,0:0:0:0:
320,192,69973,1,0,0:0:0:0:
448,192,69973,1,0,0:0:0:0:
64,192,70136,128,0,70460:0:0:0:0:
192,192,70136,1,0,0:0:0:0:
448,192,70298,1,0,0:0:0:0:
320,192,70460,128,0,70784:0:0:0:0:
192,192,70460,1,0,0:0:0:0:
64,192,70622,1,0,0:0:0:0:
192,192,70784,128,0,71109:0:0:0:0:
448,192,70784,1,0,0:0:0:0:
320,192,70946,1,0,0:0:0:0:
448,192,71109,128,0,71433:0:0:0:0:
64,192,71109,1,0,0:0:0:0:
320,192,71271,1,0,0:0:0:0:
64,192,71433,128,0,72081:0:0:0:0:
192,192,71433,1,0,0:0:0:0:
320,192,71595,5,0,0:0:0:0:
448,192,71595,1,0,0:0:0:0:
192,192,71757,5,0,0:0:0:0:
320,192,71919,1,0,0:0:0:0:
448,192,71919,1,0,0:0:0:0:
448,192,72081,1,0,0:0:0:0:
192,192,72081,128,0,72325:0:0:0:0:
320,192,72325,1,0,0:0:0:0:
448,192,72406,1,0,0:0:0:0:
64,192,72406,1,0,0:0:0:0:
192,192,72487,1,0,0:0:0:0:
448,192,72568,1,0,0:0:0:0:
192,192,72649,1,0,0:0:0:0:
64,192,72730,5,0,0:0:0:0:
448,192,72730,1,0,0:0:0:0:
320,192,72892,1,0,0:0:0:0:
192,192,73054,1,0,0:0:0:0:
64,192,73054,1,0,0:0:0:0:
320,192,73217,1,0,0:0:0:0:
448,192,73217,128,0,73541:0:0:0:0:
64,192,73541,1,0,0:0:0:0:
448,192,73703,1,0,0:0:0:0:
192,192,73703,1,0,0:0:0:0:
320,192,73865,1,0,0:0:0:0:
192,192,74027,1,0,0:0:0:0:
64,192,74027,1,0,0:0:0:0:
320,192,74190,1,0,0:0:0:0:
448,192,74271,1,0,0:0:0:0:
192,192,74352,1,0,0:0:0:0:
320,192,74514,1,0,0:0:0:0:
64,192,74595,1,0,0:0:0:0:
192,192,74676,1,0,0:0:0:0:
448,192,74838,1,0,0:0:0:0:
320,192,74919,1,0,0:0:0:0:
64,192,75000,1,0,0:0:0:0:
192,192,75163,1,0,0:0:0:0:
320,192,75244,1,0,0:0:0:0:
64,192,75325,1,0,0:0:0:0:
448,192,75325,1,0,0:0:0:0:
192,192,75487,1,0,0:0:0:0:
320,192,75649,1,0,0:0:0:0:
448,192,75649,1,0,0:0:0:0:
64,192,75811,128,0,76136:0:0:0:0:
192,192,75811,1,0,0:0:0:0:
320,192,76136,1,0,0:0:0:0:
448,192,76298,1,0,0:0:0:0:
64,192,76298,1,0,0:0:0:0:
192,192,76460,1,0,0:0:0:0:
320,192,76622,1,0,0:0:0:0:
448,192,76622,128,0,76784:0:0:0:0:
64,192,76784,128,0,76946:0:0:0:0:
448,192,76946,1,0,0:0:0:0:
320,192,76946,128,0,77109:0:0:0:0:
64,192,77109,1,0,0:0:0:0:
192,192,77109,128,0,77271:0:0:0:0:
448,192,77271,1,0,0:0:0:0:
320,192,77352,1,0,0:0:0:0:
64,192,77433,1,0,0:0:0:0:
192,192,77514,1,0,0:0:0:0:
448,192,77595,1,0,0:0:0:0:
320,192,77595,1,0,0:0:0:0:
64,192,77676,1,0,0:0:0:0:
192,192,77757,1,0,0:0:0:0:
320,192,77838,1,0,0:0:0:0:
448,192,77919,1,0,0:0:0:0:
64,192,77919,1,0,0:0:0:0:
192,192,78081,1,0,0:0:0:0:
320,192,78244,1,0,0:0:0:0:
448,192,78244,1,0,0:0:0:0:
64,192,78406,128,0,78730:0:0:0:0:
192,192,78406,1,0,0:0:0:0:
448,192,78730,1,0,0:0:0:0:
320,192,78892,1,0,0:0:0:0:
64,192,78892,1,0,0:0:0:0:
192,192,79054,1,0,0:0:0:0:
448,192,79217,1,0,0:0:0:0:
64,192,79298,1,0,0:0:0:0:
320,192,79379,1,0,0:0:0:0:
192,192,79460,1,0,0:0:0:0:
448,192,79541,1,0,0:0:0:0:
320,192,79622,1,0,0:0:0:0:
64,192,79703,1,0,0:0:0:0:
192,192,79784,1,0,0:0:0:0:
320,192,79865,1,0,0:0:0:0:
64,192,79946,1,0,0:0:0:0:
448,192,80027,1,0,0:0:0:0:
192,192,80109,1,0,0:0:0:0:
320,192,80190,1,0,0:0:0:0:
64,192,80271,1,0,0:0:0:0:
192,192,80352,1,0,0:0:0:0:
320,192,80433,1,0,0:0:0:0:
448,192,80514,1,0,0:0:0:0:
64,192,80514,1,0,0:0:0:0:
320,192,80676,1,0,0:0:0:0:
192,192,80838,1,0,0:0:0:0:
64,192,80838,1,0,0:0:0:0:
320,192,81000,1,0,0:0:0:0:
448,192,81000,1,0,0:0:0:0:
64,192,81163,1,0,0:0:0:0:
192,192,81325,1,0,0:0:0:0:
320,192,81487,1,0,0:0:0:0:
448,192,81487,1,0,0:0:0:0:
192,192,81649,1,0,0:0:0:0:
448,192,81811,1,0,0:0:0:0:
64,192,81811,1,0,0:0:0:0:
320,192,81973,1,0,0:0:0:0:
192,192,81973,1,0,0:0:0:0:
320,192,82136,1,0,0:0:0:0:
448,192,82136,1,0,0:0:0:0:
192,192,82298,1,0,0:0:0:0:
64,192,82298,1,0,0:0:0:0:
320,192,82460,1,0,0:0:0:0:
448,192,82541,1,0,0:0:0:0:
192,192,82622,1,0,0:0:0:0:
320,192,82703,1,0,0:0:0:0:
64,192,82784,1,0,0:0:0:0:
192,192,82865,1,0,0:0:0:0:
448,192,82946,1,0,0:0:0:0:
320,192,83027,1,0,0:0:0:0:
192,192,83109,1,0,0:0:0:0:
64,192,83109,1,0,0:0:0:0:
448,192,83271,1,0,0:0:0:0:
320,192,83433,1,0,0:0:0:0:
192,192,83433,1,0,0:0:0:0:
64,192,83595,128,0,83919:0:0:0:0:
448,192,83595,128,0,83919:0:0:0:0:
192,192,83919,1,0,0:0:0:0:
320,192,84081,1,0,0:0:0:0:
448,192,84081,1,0,0:0:0:0:
64,192,84244,1,0,0:0:0:0:
192,192,84406,1,0,0:0:0:0:
448,192,84406,1,0,0:0:0:0:
320,192,84568,1,0,0:0:0:0:
192,192,84649,1,0,0:0:0:0:
64,192,84730,1,0,0:0:0:0:
448,192,84892,1,0,0:0:0:0:
320,192,84973,1,0,0:0:0:0:
192,192,85054,1,0,0:0:0:0:
320,192,85217,1,0,0:0:0:0:
448,192,85298,1,0,0:0:0:0:
64,192,85379,1,0,0:0:0:0:
192,192,85541,1,0,0:0:0:0:
320,192,85622,1,0,0:0:0:0:
64,192,85703,1,0,0:0:0:0:
448,192,85703,1,0,0:0:0:0:
192,192,85865,1,0,0:0:0:0:
320,192,86027,1,0,0:0:0:0:
448,192,86027,1,0,0:0:0:0:
192,192,86190,1,0,0:0:0:0:
64,192,86190,1,0,0:0:0:0:
320,192,86514,1,0,0:0:0:0:
192,192,86676,1,0,0:0:0:0:
64,192,86676,1,0,0:0:0:0:
320,192,86838,1,0,0:0:0:0:
64,192,87000,1,0,0:0:0:0:
448,192,87000,1,0,0:0:0:0:
320,192,87163,1,0,0:0:0:0:
192,192,87163,1,0,0:0:0:0:
448,192,87325,1,0,0:0:0:0:
320,192,87325,1,0,0:0:0:0:
64,192,87487,128,0,87811:0:0:0:0:
192,192,87487,1,0,0:0:0:0:
448,192,87649,128,0,87973:0:0:0:0:
320,192,87649,1,0,0:0:0:0:
192,192,87811,1,0,0:0:0:0:
64,192,87973,1,0,0:0:0:0:
320,192,87973,1,0,0:0:0:0:
192,192,88136,1,0,0:0:0:0:
320,192,88217,1,0,0:0:0:0:
448,192,88298,1,0,0:0:0:0:
64,192,88298,128,0,88622:0:0:0:0:
192,192,88460,1,0,0:0:0:0:
320,192,88622,1,0,0:0:0:0:
192,192,88784,1,0,0:0:0:0:
448,192,88784,128,0,89109:0:0:0:0:
64,192,88946,1,0,0:0:0:0:
320,192,89109,1,0,0:0:0:0:
64,192,89271,128,0,89595:0:0:0:0:
448,192,89271,1,0,0:0:0:0:
192,192,89433,1,0,0:0:0:0:
320,192,89595,1,0,0:0:0:0:
448,192,89757,1,0,0:0:0:0:
192,192,89757,1,0,0:0:0:0:
64,192,89919,1,0,0:0:0:0:
320,192,90027,1,0,0:0:0:0:
192,192,90136,1,0,0:0:0:0:
448,192,90244,1,0,0:0:0:0:
64,192,90244,1,0,0:0:0:0:
320,192,90352,1,0,0:0:0:0:
192,192,90460,1,0,0:0:0:0:
448,192,90568,1,0,0:0:0:0:
320,192,90676,1,0,0:0:0:0:
64,192,90784,1,0,0:0:0:0:
448,192,90892,1,0,0:0:0:0:
192,192,90892,1,0,0:0:0:0:
320,192,91054,1,0,0:0:0:0:
192,192,91217,1,0,0:0:0:0:
64,192,91217,1,0,0:0:0:0:
320,192,91379,1,0,0:0:0:0:
448,192,91379,128,0,91703:0:0:0:0:
64,192,91541,1,0,0:0:0:0:
192,192,91703,1,0,0:0:0:0:
320,192,91865,1,0,0:0:0:0:
448,192,91865,1,0,0:0:0:0:
192,192,92027,1,0,0:0:0:0:
64,192,92027,128,0,92352:0:0:0:0:
448,192,92190,1,0,0:0:0:0:
320,192,92190,128,0,92352:0:0:0:0:
192,192,92352,128,0,92514:0:0:0:0:
448,192,92514,128,0,92838:0:0:0:0:
64,192,92514,128,0,92676:0:0:0:0:
320,192,92676,128,0,93000:0:0:0:0:
64,192,92838,1,0,0:0:0:0:
192,192,92838,128,0,93000:0:0:0:0:
448,192,93000,1,0,0:0:0:0:
64,192,93163,1,0,0:0:0:0:
192,192,93163,1,0,0:0:0:0:
320,192,93244,1,0,0:0:0:0:
64,192,93325,1,0,0:0:0:0:
320,192,93406,1,0,0:0:0:0:
64,192,93487,1,0,0:0:0:0:
448,192,93649,1,0,0:0:0:0:
320,192,93730,1,0,0:0:0:0:
192,192,93811,1,0,0:0:0:0:
448,192,93973,1,0,0:0:0:0:
64,192,94136,1,0,0:0:0:0:
192,192,94217,1,0,0:0:0:0:
320,192,94298,1,0,0:0:0:0:
64,192,94460,1,0,0:0:0:0:
192,192,94541,1,0,0:0:0:0:
448,192,94622,1,0,0:0:0:0:
320,192,94703,1,0,0:0:0:0:
64,192,94784,1,0,0:0:0:0:
192,192,94946,1,0,0:0:0:0:
320,192,95027,1,0,0:0:0:0:
448,192,95109,1,0,0:0:0:0:
64,192,95271,1,0,0:0:0:0:
192,192,95433,1,0,0:0:0:0:
448,192,95595,1,0,0:0:0:0:
320,192,95676,1,0,0:0:0:0:
64,192,95757,1,0,0:0:0:0:
192,192,95919,1,0,0:0:0:0:
448,192,96081,128,0,96730:0:0:0:0:
64,192,96081,128,0,96406:0:0:0:0:
320,192,96406,128,0,96730:0:0:0:0:
192,192,96730,128,0,97054:0:0:0:0:
64,192,96730,128,0,97379:0:0:0:0:
448,192,97054,128,0,97379:0:0:0:0:
192,192,97379,128,0,98027:0:0:0:0:
320,192,97379,128,0,97703:0:0:0:0:
64,192,97703,128,0,98027:0:0:0:0:
448,192,98027,1,0,0:0:0:0:
320,192,98190,1,0,0:0:0:0:
64,192,98352,1,0,0:0:0:0:
192,192,98514,1,0,0:0:0:0:
448,192,98676,1,0,0:0:0:0:
64,192,98838,1,0,0:0:0:0:
192,192,98919,1,0,0:0:0:0:
320,192,99000,1,0,0:0:0:0:
64,192,99163,1,0,0:0:0:0:
448,192,99325,1,0,0:0:0:0:
320,192,99406,1,0,0:0:0:0:
192,192,99487,1,0,0:0:0:0:
448,192,99649,1,0,0:0:0:0:
320,192,99730,1,0,0:0:0:0:
64,192,99811,1,0,0:0:0:0:
192,192,99892,1,0,0:0:0:0:
320,192,99973,1,0,0:0:0:0:
448,192,100136,1,0,0:0:0:0:
320,192,100217,1,0,0:0:0:0:
64,192,100298,1,0,0:0:0:0:
192,192,100460,1,0,0:0:0:0:
320,192,100622,1,0,0:0:0:0:
64,192,100784,1,0,0:0:0:0:
192,192,100865,1,0,0:0:0:0:
448,192,100946,1,0,0:0:0:0:
320,192,101109,1,0,0:0:0:0:
64,192,101269,128,0,101445:0:0:0:0:
320,192,101445,128,0,101621:0:0:0:0:
192,192,101621,128,0,101798:0:0:0:0:
448,192,101798,128,0,101974:0:0:0:0:
64,192,101974,128,0,102155:0:0:0:0:
320,192,102155,128,0,102337:0:0:0:0:
192,192,102337,128,0,102525:0:0:0:0:
448,192,102525,128,0,102725:0:0:0:0:
64,192,102725,1,0,0:0:0:0:
192,192,102805,1,0,0:0:0:0:
320,192,102886,1,0,0:0:0:0:
448,192,102969,1,0,0:0:0:0:
64,192,103057,1,0,0:0:0:0:
192,192,103145,1,0,0:0:0:0:
320,192,103242,1,0,0:0:0:0:
448,192,103344,1,0,0:0:0:0:
64,192,103446,1,0,0:0:0:0:
192,192,103622,1,0,0:0:0:0:
320,192,103798,128,0,104548:0:0:0:0:
