osu file format v14

[General]
AudioFilename: audio.mp3
AudioLeadIn: 0
PreviewTime: -1
Countdown: 1
SampleSet: None
StackLeniency: 0.7
Mode: 0
LetterboxInBreaks: 0
WidescreenStoryboard: 0

[Editor]
Bookmarks: 2676,3973,9162
DistanceSpacing: 2.6
BeatDivisor: 4
GridSize: 8
TimelineZoom: 2.6

[Metadata]
Title:UP UP MT CAKE
TitleUnicode:UP UP MT CAKE
Artist:OISHII
ArtistUnicode:OISHII
Creator:Oxia
Version:ugh ugh
Source:
Tags:
BeatmapID:1981606
BeatmapSetID:797725

[Difficulty]
HPDrainRate:8
CircleSize:4
OverallDifficulty:8
ApproachRate:10
SliderMultiplier:1.4
SliderTickRate:1

[Events]
//Background and Video events
//Break Periods
//Storyboard Layer 0 (Background)
//Storyboard Layer 1 (Fail)
//Storyboard Layer 2 (Pass)
//Storyboard Layer 3 (Foreground)
//Storyboard Sound Samples

[TimingPoints]
82,324.319065096242,4,2,0,100,1,0
62513,-83.3333333333333,4,2,0,100,0,0
67053,-100,4,2,0,100,0,0
72405,-166.666666666667,4,2,0,100,0,0
72729,-100,4,2,0,100,0,0
101269,352.941176470588,4,2,0,100,1,0
101974,363.636363636364,4,2,0,100,1,0
102337,377.358490566038,4,2,0,100,1,0
102525,400,4,2,0,100,1,0
102725,431.654676258993,4,2,0,100,1,0
102940,468.75,4,2,0,100,1,0
103174,545.454545454546,4,2,0,100,1,0
103446,705.882352941176,4,2,0,100,1,0
103798,750,4,2,0,100,1,0

[HitObjects]
147,167,82,5,0,0:0:0:0:
297,80,244,1,0,0:0:0:0:
297,80,325,1,0,0:0:0:0:
297,80,406,1,0,0:0:0:0:
389,239,568,1,0,0:0:0:0:
201,291,730,1,0,0:0:0:0:
201,291,811,1,0,0:0:0:0:
201,291,892,1,0,0:0:0:0:
66,164,1054,2,0,L|95:139,3,35
246,49,1379,1,0,0:0:0:0:
331,185,1541,5,0,0:0:0:0:
377,250,1622,1,0,0:0:0:0:
425,313,1703,1,0,0:0:0:0:
197,302,1865,1,0,0:0:0:0:
255,140,2028,1,0,0:0:0:0:
79,192,2190,2,0,L|84:147,2,35
246,36,2514,5,0,0:0:0:0:
413,146,2676,1,0,0:0:0:0:
358,204,2757,1,0,0:0:0:0:
301,263,2838,1,0,0:0:0:0:
211,263,2919,1,0,0:0:0:0:
156,205,3000,1,0,0:0:0:0:
99,146,3081,1,0,0:0:0:0:
168,71,3163,1,0,0:0:0:0:
247,68,3244,1,0,0:0:0:0:
329,67,3325,1,0,0:0:0:0:
378,135,3406,1,0,0:0:0:0:
403,209,3487,1,0,0:0:0:0:
431,286,3568,1,0,0:0:0:0:
352,309,3649,1,0,0:0:0:0:
270,310,3730,1,0,0:0:0:0:
191,313,3811,1,0,0:0:0:0:
140,255,3892,1,0,0:0:0:0:
56,141,3973,6,0,B|63:99|95:79,1,70
185,21,4217,1,0,0:0:0:0:
222,89,4298,1,0,0:0:0:0:
207,246,4460,1,0,0:0:0:0:
236,68,4622,5,0,0:0:0:0:
378,177,4784,1,0,0:0:0:0:
208,232,4946,1,0,0:0:0:0:
92,130,5108,1,0,0:0:0:0:
27,277,5271,1,0,0:0:0:0:
208,232,5433,6,0,L|219:185,2,35
249,64,5757,1,0,0:0:0:0:
436,149,5919,2,0,L|424:186,2,35
387,325,6244,2,0,L|351:298,4,35
235,218,6730,1,0,0:0:0:0:
165,165,6811,1,0,0:0:0:0:
99,113,6892,1,0,0:0:0:0:
330,32,7054,5,0,0:0:0:0:
458,162,7217,1,0,0:0:0:0:
288,174,7379,2,0,L|271:211,2,35
200,328,7703,1,0,0:0:0:0:
128,145,7865,6,0,B|176:130|212:134|239:156|262:175,1,140
389,287,8352,1,0,0:0:0:0:
470,127,8514,1,0,0:0:0:0:
311,47,8676,1,0,0:0:0:0:
326,182,8838,1,0,0:0:0:0:
176,272,9000,1,0,0:0:0:0:
169,185,9162,5,0,0:0:0:0:
180,155,9243,1,0,0:0:0:0:
204,134,9324,1,0,0:0:0:0:
235,127,9405,1,0,0:0:0:0:
266,136,9486,1,0,0:0:0:0:
289,158,9567,1,0,0:0:0:0:
301,188,9648,1,0,0:0:0:0:
83,313,9811,6,0,L|113:332,2,35
338,352,10135,2,0,P|379:333|365:303,1,70
111,267,10460,5,0,0:0:0:0:
336,323,10622,2,0,L|356:284,2,35
408,126,10946,1,0,0:0:0:0:
160,91,11108,2,0,L|186:118,2,35
133,262,11433,2,0,L|175:252,4,35
385,197,11919,1,0,0:0:0:0:
385,197,12000,1,0,0:0:0:0:
385,197,12081,1,0,0:0:0:0:
251,92,12243,1,0,0:0:0:0:
240,260,12406,1,0,0:0:0:0:
98,186,12568,2,0,L|72:164,2,35
136,32,12892,1,0,0:0:0:0:
336,166,13054,5,0,0:0:0:0:
205,275,13216,1,0,0:0:0:0:
173,172,13379,2,0,P|189:133|221:115,1,70
382,38,13703,5,0,0:0:0:0:
481,150,13865,1,0,0:0:0:0:
332,154,14027,2,0,P|299:173|284:204,1,70
417,295,14352,5,0,0:0:0:0:
253,354,14514,1,0,0:0:0:0:
279,234,14676,2,0,P|261:205|230:191,1,70
95,246,15000,5,0,0:0:0:0:
327,149,15162,1,0,0:0:0:0:
149,73,15324,1,0,0:0:0:0:
333,15,15487,1,0,0:0:0:0:
467,133,15649,6,0,P|485:169|473:200,2,70
322,305,16135,1,0,0:0:0:0:
178,208,16297,2,0,L|211:184,2,35
307,39,16622,1,0,0:0:0:0:
336,48,16703,1,0,0:0:0:0:
360,69,16784,1,0,0:0:0:0:
373,97,16865,1,0,0:0:0:0:
378,128,16946,1,0,0:0:0:0:
343,270,17108,6,0,L|311:292,2,35
171,358,17433,1,0,0:0:0:0:
195,198,17595,1,0,0:0:0:0:
320,69,17757,6,0,L|347:95,2,35
435,202,18081,1,0,0:0:0:0:
330,331,18243,6,0,B|310:343|285:348|254:331,1,70
162,257,18568,2,0,B|141:242|135:217|137:194,1,70
257,91,18892,2,0,B|282:89|302:105|314:125,1,70
314,258,19216,2,0,B|302:278|282:294|257:293,1,70
168,163,19541,6,0,L|195:134,3,35
344,163,19865,2,0,L|317:134,3,35
271,331,20189,1,0,0:0:0:0:
111,291,20351,1,0,0:0:0:0:
243,179,20514,1,0,0:0:0:0:
91,146,20676,1,0,0:0:0:0:
233,33,20838,5,0,0:0:0:0:
438,98,21000,2,0,L|407:127,2,35
291,203,21324,1,0,0:0:0:0:
134,71,21487,2,0,L|104:106,2,35
33,251,21811,5,0,0:0:0:0:
53,279,21892,1,0,0:0:0:0:
83,297,21973,1,0,0:0:0:0:
116,306,22054,1,0,0:0:0:0:
151,310,22135,1,0,0:0:0:0:
336,296,22297,6,0,L|317:263,2,35
239,125,22622,1,0,0:0:0:0:
437,172,22784,1,0,0:0:0:0:
387,8,22946,2,0,L|367:38,2,35
270,172,23270,1,0,0:0:0:0:
32,218,23432,5,0,0:0:0:0:
98,368,23595,1,0,0:0:0:0:
178,268,23757,1,0,0:0:0:0:
368,223,23919,5,0,0:0:0:0:
317,350,24081,1,0,0:0:0:0:
476,303,24243,1,0,0:0:0:0:
464,107,24405,5,0,0:0:0:0:
297,34,24568,1,0,0:0:0:0:
321,183,24730,1,0,0:0:0:0:
132,110,24892,2,0,L|164:132,2,35
307,208,25216,1,0,0:0:0:0:
152,281,25378,1,0,0:0:0:0:
185,105,25541,1,0,0:0:0:0:
185,105,25622,1,0,0:0:0:0:
185,105,25703,1,0,0:0:0:0:
185,105,25784,1,0,0:0:0:0:
185,105,25865,1,0,0:0:0:0:
357,203,26027,5,0,0:0:0:0:
456,110,26189,2,0,L|428:86,2,35
333,15,26514,1,0,0:0:0:0:
251,147,26676,2,0,L|255:185,2,35
306,232,27000,2,0,L|264:243,4,35
109,294,27486,6,0,L|117:258,2,35
155,91,27811,1,0,0:0:0:0:
272,212,27973,1,0,0:0:0:0:
336,92,28135,2,0,L|298:106,2,35
159,139,28459,1,0,0:0:0:0:
225,308,28622,5,0,0:0:0:0:
379,354,28784,1,0,0:0:0:0:
367,213,28946,1,0,0:0:0:0:
191,176,29108,5,0,0:0:0:0:
63,109,29270,1,0,0:0:0:0:
206,41,29432,1,0,0:0:0:0:
316,122,29595,5,0,0:0:0:0:
396,268,29757,1,0,0:0:0:0:
191,303,29919,6,0,L|153:323,3,35
34,216,30243,1,0,0:0:0:0:
34,181,30324,1,0,0:0:0:0:
44,147,30405,1,0,0:0:0:0:
64,119,30486,1,0,0:0:0:0:
91,96,30567,1,0,0:0:0:0:
255,31,30730,1,0,0:0:0:0:
406,101,30892,5,0,0:0:0:0:
433,118,30973,1,0,0:0:0:0:
455,142,31054,1,0,0:0:0:0:
466,172,31135,1,0,0:0:0:0:
469,205,31216,2,0,P|463:245|446:270,1,70
307,353,31540,1,0,0:0:0:0:
153,306,31703,2,0,B|115:290|87:261|72:232|70:198,1,140
96,58,32189,1,0,0:0:0:0:
269,39,32513,6,0,B|281:78|276:118|264:148|239:172,1,140
95,287,33000,2,0,B|105:315|127:339|166:343|212:334,1,140
370,315,33486,1,0,0:0:0:0:
247,198,33649,1,0,0:0:0:0:
411,137,33811,6,0,B|420:101|398:75|367:57|342:48|318:43,1,140
186,44,34297,2,0,B|170:48|145:57|114:75|92:101|101:137,1,140
142,335,34784,1,0,0:0:0:0:
322,323,35108,5,0,0:0:0:0:
176,190,35270,1,0,0:0:0:0:
388,188,35432,1,0,0:0:0:0:
302,30,35594,1,0,0:0:0:0:
136,68,35757,5,0,0:0:0:0:
112,94,35838,1,0,0:0:0:0:
98,125,35919,1,0,0:0:0:0:
92,160,36000,1,0,0:0:0:0:
89,200,36081,1,0,0:0:0:0:
116,248,36162,1,0,0:0:0:0:
181,288,36243,1,0,0:0:0:0:
260,323,36324,1,0,0:0:0:0:
363,313,36405,6,0,P|396:261|410:183,1,140
319,49,36892,2,0,B|264:32|221:30|179:42,1,140
63,148,37378,1,0,0:0:0:0:
228,186,37540,1,0,0:0:0:0:
345,60,37703,6,0,B|386:93|402:142|400:185,1,140
385,326,38189,2,0,P|307:333|245:327,1,140
108,278,38675,1,0,0:0:0:0:
261,182,38838,1,0,0:0:0:0:
135,115,39000,6,0,B|176:72|233:61|264:54,1,140
441,110,39486,2,0,B|422:129|384:173|340:206,1,140
192,281,39973,1,0,0:0:0:0:
93,154,40297,6,0,P|131:116|214:91,1,140
460,128,40784,1,0,0:0:0:0:
264,177,40946,1,0,0:0:0:0:
83,243,41108,1,0,0:0:0:0:
96,267,41189,1,0,0:0:0:0:
119,285,41270,1,0,0:0:0:0:
145,296,41351,1,0,0:0:0:0:
173,303,41432,1,0,0:0:0:0:
367,338,41594,2,0,B|400:314|416:280|424:247,1,105
426,89,41919,1,0,0:0:0:0:
256,26,42081,2,0,B|209:65|193:107|190:149,1,140
241,329,42567,5,0,0:0:0:0:
435,172,42892,2,0,P|419:121|350:66,1,140
121,36,43378,1,0,0:0:0:0:
38,194,43540,2,0,P|54:245|123:300,1,140
297,335,44027,5,0,0:0:0:0:
407,194,44189,2,0,P|403:142|336:88,2,140
291,324,45000,1,0,0:0:0:0:
122,178,45162,1,0,0:0:0:0:
270,48,45324,1,0,0:0:0:0:
246,304,45486,5,0,0:0:0:0:
386,197,45648,1,0,0:0:0:0:
227,48,45810,1,0,0:0:0:0:
57,187,45973,2,0,B|71:226|100:258|133:271|167:278,1,140
363,313,46459,1,0,0:0:0:0:
201,160,46621,5,0,0:0:0:0:
399,66,46783,1,0,0:0:0:0:
410,275,46946,1,0,0:0:0:0:
333,180,47108,1,0,0:0:0:0:
177,170,47270,5,0,0:0:0:0:
37,308,47432,1,0,0:0:0:0:
25,49,47594,1,0,0:0:0:0:
78,190,47756,1,0,0:0:0:0:
256,31,47919,5,0,0:0:0:0:
141,154,48081,1,0,0:0:0:0:
377,160,48243,1,0,0:0:0:0:
256,290,48405,1,0,0:0:0:0:
42,279,48567,1,0,0:0:0:0:
68,111,48729,1,0,0:0:0:0:
221,33,48892,1,0,0:0:0:0:
255,37,48973,1,0,0:0:0:0:
289,44,49054,1,0,0:0:0:0:
322,57,49135,1,0,0:0:0:0:
352,75,49216,1,0,0:0:0:0:
377,99,49297,1,0,0:0:0:0:
396,128,49378,1,0,0:0:0:0:
408,161,49459,1,0,0:0:0:0:
411,196,49540,1,0,0:0:0:0:
410,231,49621,1,0,0:0:0:0:
404,265,49702,1,0,0:0:0:0:
233,187,49864,5,0,0:0:0:0:
167,340,50027,2,0,L|117:290,1,70
71,57,50351,2,0,L|147:55,1,70
332,170,50675,5,0,0:0:0:0:
177,48,50837,1,0,0:0:0:0:
146,65,50918,1,0,0:0:0:0:
122,90,50999,1,0,0:0:0:0:
107,122,51080,1,0,0:0:0:0:
101,156,51161,1,0,0:0:0:0:
106,212,51243,2,0,L|114:252,2,35
126,286,51486,1,0,0:0:0:0:
151,309,51567,1,0,0:0:0:0:
184,321,51648,1,0,0:0:0:0:
218,329,51729,1,0,0:0:0:0:
252,334,51810,1,0,0:0:0:0:
287,338,51891,1,0,0:0:0:0:
322,341,51972,1,0,0:0:0:0:
388,161,52135,6,0,L|352:163,2,35
180,174,52459,1,0,0:0:0:0:
254,37,52621,2,0,L|300:22,2,35
406,94,52946,2,0,L|416:133,4,35
438,298,53432,2,0,L|400:280,2,35
266,202,53756,1,0,0:0:0:0:
278,372,53918,1,0,0:0:0:0:
136,312,54081,6,0,L|125:274,2,35
96,145,54405,1,0,0:0:0:0:
279,206,54567,5,0,0:0:0:0:
408,127,54729,1,0,0:0:0:0:
436,271,54891,1,0,0:0:0:0:
259,340,55054,5,0,0:0:0:0:
279,206,55216,1,0,0:0:0:0:
101,260,55378,1,0,0:0:0:0:
156,140,55540,5,0,0:0:0:0:
57,27,55702,1,0,0:0:0:0:
246,7,55864,1,0,0:0:0:0:
343,113,56027,5,0,0:0:0:0:
489,207,56189,1,0,0:0:0:0:
322,295,56351,1,0,0:0:0:0:
198,197,56513,5,0,0:0:0:0:
60,284,56675,1,0,0:0:0:0:
198,197,56837,1,0,0:0:0:0:
198,197,56918,1,0,0:0:0:0:
198,197,56999,1,0,0:0:0:0:
240,27,57162,5,0,0:0:0:0:
420,93,57324,1,0,0:0:0:0:
454,171,57405,1,0,0:0:0:0:
422,250,57486,1,0,0:0:0:0:
264,174,57648,1,0,0:0:0:0:
216,335,57810,2,0,L|249:358,2,35
51,237,58135,5,0,0:0:0:0:
45,202,58216,1,0,0:0:0:0:
50,168,58297,1,0,0:0:0:0:
67,138,58378,1,0,0:0:0:0:
92,112,58459,1,0,0:0:0:0:
271,37,58621,2,0,L|298:66,2,35
421,179,58945,1,0,0:0:0:0:
223,247,59108,1,0,0:0:0:0:
40,126,59270,5,0,0:0:0:0:
62,178,59351,1,0,0:0:0:0:
91,227,59432,1,0,0:0:0:0:
218,349,59594,1,0,0:0:0:0:
435,258,59756,6,0,P|395:262|365:240,1,70
335,127,60081,2,0,P|325:88|297:75,1,70
107,71,60405,2,0,P|94:114|103:145,1,70
110,340,60729,2,0,P|146:349|169:329,1,70
262,222,61053,6,0,L|286:247,8,35
320,55,61864,1,0,0:0:0:0:
476,161,62026,1,0,0:0:0:0:
469,195,62107,1,0,0:0:0:0:
452,225,62188,1,0,0:0:0:0:
426,249,62269,1,0,0:0:0:0:
395,266,62350,1,0,0:0:0:0:
90,129,62513,6,0,L|90:212,1,83.9999974365235
216,130,62837,2,0,L|216:215,1,83.9999974365235
337,129,63162,2,0,L|336:213,1,83.9999974365235
90,254,63486,2,0,L|90:171,1,83.9999974365235
216,254,63810,2,0,L|215:170,1,83.9999974365235
338,255,64135,2,0,L|336:169,1,83.9999974365235
29,292,64459,2,0,L|112:292,1,83.9999974365235
30,165,64783,2,0,L|113:164,1,83.9999974365235
29,43,65108,2,0,L|113:42,1,83.9999974365235
483,292,65432,6,0,L|398:291,1,83.9999974365235
482,165,65756,2,0,L|396:163,1,83.9999974365235
483,43,66081,2,0,L|399:42,1,83.9999974365235
212,154,66405,2,0,L|165:225,1,83.9999974365235
103,87,66729,2,0,L|55:155,1,83.9999974365235
51,308,67053,2,0,L|126:308,1,70
191,311,67297,1,0,0:0:0:0:
246,312,67378,1,0,0:0:0:0:
296,82,67702,6,0,L|296:161,1,70
405,109,68026,2,0,L|361:170,1,70
435,236,68351,2,0,L|357:236,1,70
293,317,68675,2,0,L|293:241,1,70
212,244,68999,6,0,L|212:314,1,70
140,233,69323,2,0,L|70:233,1,70
140,162,69648,2,0,L|99:105,1,70
209,149,69972,2,0,L|209:79,1,70
296,82,70297,6,0,L|296:161,1,70
405,109,70621,2,0,L|361:170,1,70
435,236,70946,2,0,L|357:236,1,70
293,317,71270,2,0,L|292:269,1,35
88,155,71432,5,0,0:0:0:0:
105,128,71513,1,0,0:0:0:0:
128,107,71594,1,0,0:0:0:0:
156,92,71675,1,0,0:0:0:0:
186,83,71756,1,0,0:0:0:0:
217,78,71837,1,0,0:0:0:0:
249,79,71918,1,0,0:0:0:0:
280,84,71999,1,0,0:0:0:0:
309,96,72080,1,0,0:0:0:0:
412,252,72324,5,0,0:0:0:0:
399,261,72405,1,0,0:0:0:0:
384,267,72486,1,0,0:0:0:0:
369,271,72567,1,0,0:0:0:0:
353,272,72648,1,0,0:0:0:0:
233,222,72729,2,0,B|194:205|174:181|153:152|141:117,1,140
280,52,73215,5,0,0:0:0:0:
454,112,73378,1,0,0:0:0:0:
313,196,73540,1,0,0:0:0:0:
146,252,73702,2,0,P|114:212|111:186,1,70
273,46,74026,1,0,0:0:0:0:
82,192,74188,6,0,L|122:192,2,35
430,192,74513,2,0,L|390:192,2,35
256,18,74837,2,0,L|255:58,2,35
254,177,75161,1,0,0:0:0:0:
254,253,75242,1,0,0:0:0:0:
251,329,75324,2,0,P|211:331|181:314,1,70
59,217,75648,1,0,0:0:0:0:
113,59,75810,2,0,B|180:27|228:33|258:40,1,140
425,113,76296,5,0,0:0:0:0:
259,149,76459,1,0,0:0:0:0:
413,281,76621,2,0,B|380:305|318:313|277:308,1,140
121,283,77107,2,0,B|91:245|86:215,1,70
80,177,77351,5,0,0:0:0:0:
89,143,77432,1,0,0:0:0:0:
109,114,77513,1,0,0:0:0:0:
137,93,77594,1,0,0:0:0:0:
168,79,77675,1,0,0:0:0:0:
202,70,77756,1,0,0:0:0:0:
237,65,77837,1,0,0:0:0:0:
272,67,77918,2,0,P|310:75|337:99,1,70
448,205,78242,1,0,0:0:0:0:
325,306,78405,2,0,B|265:305|222:287|201:253,1,140
98,119,78891,5,0,0:0:0:0:
257,184,79053,1,0,0:0:0:0:
372,62,79215,2,0,L|394:93,4,35
372,332,79702,2,0,L|350:298,2,35
244,101,80188,5,0,0:0:0:0:
63,186,80350,1,0,0:0:0:0:
206,317,80513,2,0,B|275:315|315:298|335:269,1,140
333,112,80999,2,0,B|315:86|275:69|206:67,1,140
34,82,81486,1,0,0:0:0:0:
151,253,81810,5,0,0:0:0:0:
312,200,81972,1,0,0:0:0:0:
173,103,82134,1,0,0:0:0:0:
318,30,82296,2,0,P|359:56|373:81,1,70
458,198,82621,1,0,0:0:0:0:
439,228,82702,1,0,0:0:0:0:
411,248,82783,1,0,0:0:0:0:
264,325,82945,1,0,0:0:0:0:
122,229,83107,6,0,B|198:217|233:195|243:162,1,140
117,34,83594,2,0,B|193:46|228:68|238:101,1,140
309,243,84080,1,0,0:0:0:0:
139,192,84242,1,0,0:0:0:0:
228,37,84404,2,0,B|264:40|300:54|334:77|350:106,1,140
461,267,84891,2,0,L|420:261,2,35
318,281,85215,2,0,L|340:308,2,35
121,327,85540,2,0,L|143:293,1,35
176,205,85702,2,0,B|130:183|109:163|105:134|113:94,1,140
241,32,86188,2,0,B|305:51|339:78|372:109|384:140|386:175,1,210
227,54,86999,5,0,0:0:0:0:
362,159,87161,1,0,0:0:0:0:
250,318,87323,1,0,0:0:0:0:
25,258,87485,1,0,0:0:0:0:
211,179,87648,1,0,0:0:0:0:
335,56,87810,2,0,P|377:60|389:83,1,70
414,268,88134,1,0,0:0:0:0:
116,179,88296,5,0,0:0:0:0:
250,66,88458,2,0,L|321:94,1,70
477,159,88783,1,0,0:0:0:0:
383,287,88945,2,0,L|319:255,1,70
128,163,89269,1,0,0:0:0:0:
322,75,89431,2,0,L|309:147,1,70
279,314,89756,1,0,0:0:0:0:
106,236,89918,2,0,P|83:206|97:173,1,70
242,100,90242,2,0,P|276:103|293:132,1,70
293,251,90567,2,0,P|276:280|242:283,1,70
142,284,90891,2,0,P|108:280|91:251,1,70
166,69,91215,5,0,0:0:0:0:
306,190,91377,1,0,0:0:0:0:
429,51,91539,2,0,P|465:86|471:113,1,70
430,283,91864,1,0,0:0:0:0:
192,308,92026,1,0,0:0:0:0:
189,183,92188,2,0,P|234:198|255:177,1,70
222,35,92512,1,0,0:0:0:0:
390,54,92675,1,0,0:0:0:0:
390,239,92837,1,0,0:0:0:0:
208,298,92999,1,0,0:0:0:0:
175,286,93080,1,0,0:0:0:0:
145,267,93161,1,0,0:0:0:0:
121,242,93242,1,0,0:0:0:0:
105,211,93323,1,0,0:0:0:0:
92,178,93404,1,0,0:0:0:0:
86,144,93485,1,0,0:0:0:0:
290,46,93648,6,0,L|315:71,2,35
424,161,93972,1,0,0:0:0:0:
336,327,94134,2,0,L|296:302,2,35
131,224,94458,5,0,0:0:0:0:
83,167,94539,1,0,0:0:0:0:
61,94,94621,1,0,0:0:0:0:
109,33,94702,1,0,0:0:0:0:
185,20,94783,1,0,0:0:0:0:
395,67,94945,6,0,L|369:93,2,35
389,276,95269,1,0,0:0:0:0:
241,172,95431,1,0,0:0:0:0:
226,290,95593,2,0,L|189:280,2,35
47,206,95918,1,0,0:0:0:0:
160,57,96080,6,0,L|243:57,1,70
366,62,96404,2,0,L|366:144,1,70
366,322,96729,2,0,L|287:322,1,70
127,321,97053,2,0,L|127:251,1,70
139,62,97377,5,0,0:0:0:0:
355,65,97539,1,0,0:0:0:0:
355,65,97620,1,0,0:0:0:0:
456,178,97702,1,0,0:0:0:0:
274,189,97864,1,0,0:0:0:0:
396,312,98026,1,0,0:0:0:0:
274,189,98188,1,0,0:0:0:0:
297,295,98350,5,0,0:0:0:0:
412,181,98512,1,0,0:0:0:0:
275,58,98674,1,0,0:0:0:0:
151,187,98837,2,0,L|116:168,2,35
319,211,99161,1,0,0:0:0:0:
331,73,99323,2,0,L|296:109,2,35
451,151,99647,1,0,0:0:0:0:
401,319,99810,6,0,L|378:286,2,35
289,176,100134,2,0,L|305:142,2,35
216,302,100458,1,0,0:0:0:0:
103,219,100620,1,0,0:0:0:0:
148,84,100783,2,0,L|111:63,2,35
267,172,101107,1,0,0:0:0:0:
355,41,101269,6,0,P|397:43|427:62,1,70
378,157,101621,2,0,P|367:196|336:214,1,70
231,208,101974,2,0,P|198:190|195:155,1,70
200,48,102337,2,0,P|159:33|129:44,1,70
14,178,102725,5,0,0:0:0:0:
12,187,102832,1,0,0:0:0:0:
13,198,102940,1,0,0:0:0:0:
15,207,103048,1,0,0:0:0:0:
20,216,103156,1,0,0:0:0:0:
27,223,103264,1,0,0:0:0:0:
36,229,103372,1,0,0:0:0:0:
138,288,103446,1,0,0:0:0:0:
276,324,103622,1,0,0:0:0:0:
280,187,103798,1,0,0:0:0:0:
256,192,103985,12,0,105642,0:0:0:0:
