osu file format v14

[General]
AudioFilename: audio.mp3
AudioLeadIn: 0
PreviewTime: 51891
Countdown: 0
SampleSet: None
StackLeniency: 0.7
Mode: 1
LetterboxInBreaks: 0
WidescreenStoryboard: 1

[Editor]
DistanceSpacing: 0.8
BeatDivisor: 4
GridSize: 8
TimelineZoom: 3.399999

[Metadata]
Title:UP UP MT CAKE
TitleUnicode:UP UP MT CAKE
Artist:OISHII
ArtistUnicode:OISHII
Creator:Hanjamon
Version:Kantan
Source:
Tags:kirby featured artist
BeatmapID:1443348
BeatmapSetID:682508

[Difficulty]
HPDrainRate:6.5
CircleSize:5
OverallDifficulty:3.5
ApproachRate:5
SliderMultiplier:1.4
SliderTickRate:1

[Events]
//Background and Video events
0,0,"KirbyBG.jpg",0,-80
//Break Periods
//Storyboard Layer 0 (Background)
//Storyboard Layer 1 (Fail)
//Storyboard Layer 2 (Pass)
//Storyboard Layer 3 (Foreground)
//Storyboard Sound Samples

[TimingPoints]
82,324.319065096242,4,1,0,60,1,0
82,-111.111111111111,4,1,0,60,0,0
10460,-100,4,1,0,100,0,0
51973,-100,4,1,0,100,0,1
72729,-100,4,1,0,85,0,0
93161,-106.382978723404,4,1,0,85,0,0
93485,-111.111111111111,4,1,0,65,0,0
101269,352.941176470588,4,1,0,65,1,0
101269,-102.040816326531,4,1,0,65,0,0
101974,363.636363636364,4,1,0,65,1,8
101974,-98.0392156862745,4,1,0,65,0,0
102337,377.358490566038,4,1,0,65,1,8
102337,-96.1538461538461,4,1,0,65,0,0
102525,400,4,1,0,65,1,8
102525,-90.9090909090909,4,1,0,65,0,0
102725,431.654676258993,4,1,0,65,1,0
102725,-84.7457627118644,4,1,0,65,0,0
102940,468.75,4,1,0,65,1,8
102940,-78.125,4,1,0,65,0,0
103174,545.454545454546,4,1,0,65,1,8
103174,-67.5675675675676,4,1,0,65,0,0
103446,705.882352941176,4,1,0,65,1,8
103446,-53.1914893617021,4,1,0,65,0,0
103798,750,4,1,0,65,1,0
103798,-51.8134715025907,4,1,0,65,0,0

[HitObjects]
280,200,82,5,8,0:0:0:0:
368,160,1054,1,0,0:0:0:0:
368,160,1379,1,8,0:0:0:0:
368,160,1703,1,0,0:0:0:0:
368,160,2676,1,0,0:0:0:0:
368,160,3325,1,8,0:0:0:0:
368,160,3973,1,0,0:0:0:0:
456,200,4298,1,0,0:0:0:0:
456,200,4622,1,8,0:0:0:0:
456,200,5271,1,8,0:0:0:0:
392,216,6244,1,0,0:0:0:0:
392,216,6568,1,8,0:0:0:0:
392,216,6892,1,0,0:0:0:0:
392,208,7865,1,0,0:0:0:0:
392,208,9162,1,0,0:0:0:0:
432,72,9811,1,12,0:0:0:0:
448,256,10460,1,4,0:0:0:0:
376,160,11108,1,8,0:0:0:0:
376,160,11757,1,0,0:0:0:0:
288,104,12406,1,0,0:0:0:0:
288,104,12730,1,0,0:0:0:0:
288,104,13054,1,0,0:0:0:0:
352,192,13703,1,0,0:0:0:0:
352,192,14027,1,8,0:0:0:0:
368,200,14352,1,0,0:0:0:0:
416,216,15000,1,8,0:0:0:0:
416,216,15649,1,4,0:0:0:0:
376,224,16297,1,8,0:0:0:0:
376,224,16946,1,0,0:0:0:0:
376,224,17595,1,0,0:0:0:0:
352,136,17919,1,0,0:0:0:0:
344,160,18243,1,0,0:0:0:0:
344,160,18892,1,8,0:0:0:0:
344,160,19541,1,0,0:0:0:0:
432,176,20838,1,4,0:0:0:0:
400,248,21487,1,8,0:0:0:0:
400,248,22135,1,0,0:0:0:0:
400,248,22784,1,0,0:0:0:0:
400,248,23108,1,0,0:0:0:0:
392,248,23432,1,0,0:0:0:0:
392,248,24081,1,8,0:0:0:0:
392,248,24405,1,0,0:0:0:0:
392,248,24730,1,0,0:0:0:0:
448,272,25378,1,8,0:0:0:0:
488,312,26027,1,4,0:0:0:0:
320,176,26676,1,8,0:0:0:0:
320,176,27324,1,0,0:0:0:0:
320,176,27973,1,0,0:0:0:0:
320,176,28297,1,0,0:0:0:0:
320,176,28622,1,0,0:0:0:0:
320,176,29270,1,8,0:0:0:0:
256,136,29919,1,0,0:0:0:0:
336,160,31216,1,0,0:0:0:0:
256,120,31865,1,8,0:0:0:0:
256,120,32513,1,0,0:0:0:0:
256,120,32838,1,8,0:0:0:0:
256,120,33162,1,8,0:0:0:0:
288,128,33486,1,8,0:0:0:0:
288,128,33811,1,0,0:0:0:0:
288,128,34459,1,8,0:0:0:0:
304,136,35108,1,8,0:0:0:0:
304,136,35432,1,8,0:0:0:0:
312,136,36405,1,8,0:0:0:0:
416,232,37054,1,8,0:0:0:0:
416,232,37703,1,0,0:0:0:0:
440,288,38027,1,0,0:0:0:0:
440,288,38351,1,8,0:0:0:0:
440,288,38675,1,8,0:0:0:0:
296,176,39000,1,0,0:0:0:0:
432,248,39648,1,8,0:0:0:0:
392,160,40297,1,12,0:0:0:0:
392,160,40621,1,12,0:0:0:0:
392,160,41594,1,0,0:0:0:0:
352,152,42243,1,8,0:0:0:0:
288,136,42892,1,0,0:0:0:0:
288,136,43216,1,8,0:0:0:0:
288,136,43540,1,8,0:0:0:0:
288,136,43865,1,8,0:0:0:0:
288,136,44189,1,0,0:0:0:0:
288,136,44838,1,8,0:0:0:0:
288,136,45486,1,4,0:0:0:0:
288,136,45810,1,12,0:0:0:0:
320,136,46783,1,12,0:0:0:0:
320,136,47756,1,12,0:0:0:0:
288,176,48081,5,0,0:0:0:0:
288,176,48729,1,8,0:0:0:0:
288,176,49378,1,8,0:0:0:0:
272,192,49702,1,0,0:0:0:0:
272,192,50351,1,0,0:0:0:0:
256,160,51000,1,8,0:0:0:0:
264,160,51648,1,8,0:0:0:0:
264,160,51973,1,4,0:0:0:0:
384,160,52621,1,8,0:0:0:0:
376,160,53270,1,0,0:0:0:0:
288,104,53918,1,0,0:0:0:0:
288,104,54243,1,0,0:0:0:0:
288,104,54567,1,0,0:0:0:0:
352,192,55216,1,0,0:0:0:0:
352,192,55540,1,8,0:0:0:0:
368,200,55864,1,0,0:0:0:0:
416,216,56513,1,8,0:0:0:0:
416,216,56837,1,8,0:0:0:0:
416,216,57162,1,4,0:0:0:0:
376,224,57810,1,8,0:0:0:0:
376,224,58459,1,0,0:0:0:0:
376,224,59108,1,0,0:0:0:0:
352,136,59432,1,0,0:0:0:0:
344,160,59756,1,0,0:0:0:0:
344,160,60405,1,8,0:0:0:0:
344,160,61053,1,0,0:0:0:0:
432,176,62351,1,4,0:0:0:0:
400,248,62999,1,8,0:0:0:0:
400,248,63648,1,0,0:0:0:0:
400,248,64297,1,0,0:0:0:0:
400,248,64621,1,0,0:0:0:0:
392,248,64945,1,0,0:0:0:0:
392,248,65594,1,8,0:0:0:0:
392,248,65918,1,0,0:0:0:0:
392,248,66243,1,0,0:0:0:0:
448,272,66891,1,8,0:0:0:0:
416,296,67216,1,8,0:0:0:0:
488,312,67540,1,4,0:0:0:0:
320,176,68189,1,8,0:0:0:0:
320,176,68837,1,0,0:0:0:0:
320,176,69486,1,0,0:0:0:0:
320,176,69810,1,0,0:0:0:0:
320,176,70134,1,0,0:0:0:0:
320,176,70783,1,8,0:0:0:0:
256,136,71432,1,0,0:0:0:0:
336,160,72729,1,0,0:0:0:0:
256,120,73378,1,8,0:0:0:0:
256,120,74026,1,0,0:0:0:0:
256,120,74351,1,8,0:0:0:0:
256,120,74675,1,8,0:0:0:0:
288,128,74999,1,8,0:0:0:0:
288,128,75324,1,0,0:0:0:0:
288,128,75972,1,8,0:0:0:0:
304,136,76621,1,8,0:0:0:0:
304,136,76945,1,8,0:0:0:0:
312,136,77918,1,8,0:0:0:0:
416,232,78567,1,8,0:0:0:0:
416,232,79215,1,0,0:0:0:0:
440,288,79540,1,0,0:0:0:0:
440,288,79864,1,8,0:0:0:0:
440,288,80188,1,8,0:0:0:0:
296,176,80513,1,0,0:0:0:0:
432,248,81161,1,8,0:0:0:0:
392,160,81810,1,12,0:0:0:0:
392,160,82134,1,12,0:0:0:0:
392,160,83107,1,0,0:0:0:0:
352,152,83756,1,8,0:0:0:0:
288,136,84404,1,0,0:0:0:0:
288,136,84729,1,8,0:0:0:0:
288,136,85053,1,8,0:0:0:0:
288,136,85377,1,8,0:0:0:0:
288,136,85702,1,0,0:0:0:0:
288,136,86350,1,8,0:0:0:0:
288,136,86999,1,4,0:0:0:0:
288,136,87323,1,12,0:0:0:0:
320,136,88296,1,12,0:0:0:0:
320,136,89269,1,12,0:0:0:0:
288,176,89594,5,0,0:0:0:0:
288,176,90242,1,8,0:0:0:0:
288,176,90891,1,8,0:0:0:0:
272,192,91215,1,0,0:0:0:0:
272,192,91864,1,0,0:0:0:0:
256,160,92512,5,8,0:0:0:0:
264,160,93161,1,8,0:0:0:0:
280,200,93485,5,8,0:0:0:0:
368,160,94458,1,0,0:0:0:0:
368,160,94783,1,8,0:0:0:0:
368,160,95107,1,0,0:0:0:0:
368,160,96080,1,0,0:0:0:0:
368,160,96729,1,8,0:0:0:0:
368,160,97377,1,0,0:0:0:0:
456,200,97702,1,0,0:0:0:0:
456,200,98026,1,8,0:0:0:0:
456,200,98674,1,8,0:0:0:0:
392,216,99647,1,0,0:0:0:0:
392,216,99972,1,8,0:0:0:0:
392,216,100296,1,0,0:0:0:0:
392,208,101269,5,0,0:0:0:0:
312,168,102725,5,0,0:0:0:0:
352,96,103798,5,12,0:0:0:0:
