osu file format v14

[General]
AudioFilename: audio.mp3
AudioLeadIn: 0
PreviewTime: 51891
Countdown: 0
SampleSet: Normal
StackLeniency: 0.7
Mode: 1
LetterboxInBreaks: 0
WidescreenStoryboard: 0

[Editor]
DistanceSpacing: 0.8
BeatDivisor: 4
GridSize: 8
TimelineZoom: 3.399999

[Metadata]
Title:UP UP MT CAKE
TitleUnicode:UP UP MT CAKE
Artist:OISHII
ArtistUnicode:OISHII
Creator:Hanjamon
Version:Inner Oni
Source:
Tags:kirby featured artist
BeatmapID:1443347
BeatmapSetID:682508

[Difficulty]
HPDrainRate:5.5
CircleSize:5
OverallDifficulty:6.5
ApproachRate:5
SliderMultiplier:1.4
SliderTickRate:1

[Events]
//Background and Video events
0,0,"KirbyBG.jpg",0,-80
//Break Periods
//Storyboard Layer 0 (Background)
//Storyboard Layer 1 (Fail)
//Storyboard Layer 2 (Pass)
//Storyboard Layer 3 (Foreground)
//Storyboard Sound Samples

[TimingPoints]
82,324.319065096242,4,1,0,60,1,0
82,-111.111111111111,4,1,0,60,0,0
10460,-100,4,1,0,100,0,0
13054,-99.009900990099,4,1,0,100,0,0
13135,-98.0392156862745,4,1,0,100,0,0
13216,-97.0873786407767,4,1,0,100,0,0
13298,-96.1538461538461,4,1,0,100,0,0
13379,-95.2380952380952,4,1,0,100,0,0
13541,-93.4579439252336,4,1,0,100,0,0
13703,-91.743119266055,4,1,0,100,0,0
13784,-90.9090909090909,4,1,0,100,0,0
13865,-90.0900900900901,4,1,0,100,0,0
13946,-89.2857142857143,4,1,0,100,0,0
14027,-88.4955752212389,4,1,0,100,0,0
14189,-86.9565217391304,4,1,0,100,0,0
14352,-85.4700854700855,4,1,0,100,0,0
14433,-86.2068965517241,4,1,0,100,0,0
14514,-86.9565217391304,4,1,0,100,0,0
14595,-87.719298245614,4,1,0,100,0,0
14676,-88.4955752212389,4,1,0,100,0,0
14838,-90.0900900900901,4,1,0,100,0,0
15000,-91.743119266055,4,1,0,100,0,0
15081,-92.5925925925926,4,1,0,100,0,0
15162,-93.4579439252336,4,1,0,100,0,0
15324,-95.2380952380952,4,1,0,100,0,0
15406,-96.1538461538461,4,1,0,100,0,0
15487,-97.0873786407767,4,1,0,100,0,0
15649,-100,4,1,0,100,0,0
18243,-99.009900990099,4,1,0,100,0,0
18406,-97.0873786407767,4,1,0,100,0,0
18568,-95.2380952380952,4,1,0,100,0,0
18730,-93.4579439252336,4,1,0,100,0,0
18892,-91.743119266055,4,1,0,100,0,0
19054,-90.0900900900901,4,1,0,100,0,0
19216,-88.4955752212389,4,1,0,100,0,0
19378,-86.9565217391304,4,1,0,100,0,0
19541,-85.4700854700855,4,1,0,100,0,0
20433,-95.2380952380952,4,1,0,100,0,0
20514,-96.1538461538461,4,1,0,100,0,0
20595,-97.0873786407767,4,1,0,100,0,0
20676,-98.0392156862745,4,1,0,100,0,0
20757,-99.009900990099,4,1,0,100,0,0
20838,-100,4,1,0,100,0,0
23432,-99.009900990099,4,1,0,100,0,0
23514,-98.0392156862745,4,1,0,100,0,0
23595,-97.0873786407767,4,1,0,100,0,0
23676,-96.1538461538461,4,1,0,100,0,0
23757,-95.2380952380952,4,1,0,100,0,0
23838,-94.3396226415094,4,1,0,100,0,0
23919,-93.4579439252336,4,1,0,100,0,0
24000,-92.5925925925926,4,1,0,100,0,0
24081,-91.743119266055,4,1,0,100,0,0
24162,-90.9090909090909,4,1,0,100,0,0
24243,-90.0900900900901,4,1,0,100,0,0
24324,-89.2857142857143,4,1,0,100,0,0
24405,-88.4955752212389,4,1,0,100,0,0
24487,-87.719298245614,4,1,0,100,0,0
24568,-86.9565217391304,4,1,0,100,0,0
24649,-86.2068965517241,4,1,0,100,0,0
24730,-85.4700854700855,4,1,0,100,0,0
24892,-86.9565217391304,4,1,0,100,0,0
24973,-87.719298245614,4,1,0,100,0,0
25054,-88.4955752212389,4,1,0,100,0,0
25216,-90.0900900900901,4,1,0,100,0,0
25378,-91.743119266055,4,1,0,100,0,0
25459,-92.5925925925926,4,1,0,100,0,0
25541,-93.4579439252336,4,1,0,100,0,0
25703,-95.2380952380952,4,1,0,100,0,0
25784,-96.1538461538461,4,1,0,100,0,0
25865,-97.0873786407767,4,1,0,100,0,0
26027,-100,4,1,0,100,0,0
28622,-99.009900990099,4,1,0,100,0,0
28784,-97.0873786407767,4,1,0,100,0,0
28946,-95.2380952380952,4,1,0,100,0,0
29108,-93.4579439252336,4,1,0,100,0,0
29270,-91.743119266055,4,1,0,100,0,0
29432,-90.0900900900901,4,1,0,100,0,0
29595,-88.4955752212389,4,1,0,100,0,0
29757,-86.9565217391304,4,1,0,100,0,0
29919,-85.4700854700855,4,1,0,100,0,0
30811,-95.2380952380952,4,1,0,100,0,0
30892,-96.1538461538461,4,1,0,100,0,0
30973,-97.0873786407767,4,1,0,100,0,0
31054,-98.0392156862745,4,1,0,100,0,0
31135,-99.009900990099,4,1,0,100,0,0
31216,-100,4,1,0,85,0,0
51648,-99.009900990099,4,1,0,85,0,0
51729,-98.0392156862745,4,1,0,85,0,0
51810,-97.0873786407767,4,1,0,85,0,0
51891,-96.1538461538461,4,1,0,85,0,0
51973,-95.2380952380952,4,1,0,100,0,1
54567,-94.3396226415094,4,1,0,100,0,1
54648,-93.4579439252336,4,1,0,100,0,1
54729,-92.5925925925926,4,1,0,100,0,1
54810,-91.743119266055,4,1,0,100,0,1
54891,-90.9090909090909,4,1,0,100,0,1
55054,-89.2857142857143,4,1,0,100,0,1
55216,-87.719298245614,4,1,0,100,0,1
55297,-86.9565217391304,4,1,0,100,0,1
55378,-86.2068965517241,4,1,0,100,0,1
55459,-85.4700854700855,4,1,0,100,0,1
55540,-84.7457627118644,4,1,0,100,0,1
55702,-83.3333333333333,4,1,0,100,0,1
55864,-81.9672131147541,4,1,0,100,0,1
55945,-82.6446280991736,4,1,0,100,0,1
56027,-83.3333333333333,4,1,0,100,0,1
56108,-84.0336134453781,4,1,0,100,0,1
56189,-84.7457627118644,4,1,0,100,0,1
56351,-86.2068965517241,4,1,0,100,0,1
56513,-87.719298245614,4,1,0,100,0,1
56594,-88.4955752212389,4,1,0,100,0,1
56675,-89.2857142857143,4,1,0,100,0,1
56756,-90.0900900900901,4,1,0,100,0,1
56837,-90.9090909090909,4,1,0,100,0,1
56918,-91.743119266055,4,1,0,100,0,1
56999,-92.5925925925926,4,1,0,100,0,1
57162,-95.2380952380952,4,1,0,100,0,1
59756,-94.3396226415094,4,1,0,100,0,1
59918,-92.5925925925926,4,1,0,100,0,1
60081,-90.9090909090909,4,1,0,100,0,1
60243,-89.2857142857143,4,1,0,100,0,1
60405,-87.719298245614,4,1,0,100,0,1
60567,-86.2068965517241,4,1,0,100,0,1
60729,-84.7457627118644,4,1,0,100,0,1
60891,-83.3333333333333,4,1,0,100,0,1
61053,-81.9672131147541,4,1,0,100,0,1
61945,-90.9090909090909,4,1,0,100,0,1
62026,-91.743119266055,4,1,0,100,0,1
62108,-92.5925925925926,4,1,0,100,0,1
62189,-93.4579439252336,4,1,0,100,0,1
62270,-94.3396226415094,4,1,0,100,0,1
62351,-95.2380952380952,4,1,0,100,0,1
64945,-94.3396226415094,4,1,0,100,0,1
65026,-93.4579439252336,4,1,0,100,0,1
65107,-92.5925925925926,4,1,0,100,0,1
65189,-91.743119266055,4,1,0,100,0,1
65270,-90.9090909090909,4,1,0,100,0,1
65351,-90.0900900900901,4,1,0,100,0,1
65432,-89.2857142857143,4,1,0,100,0,1
65513,-88.4955752212389,4,1,0,100,0,1
65594,-87.719298245614,4,1,0,100,0,1
65675,-86.9565217391304,4,1,0,100,0,1
65756,-86.2068965517241,4,1,0,100,0,1
65837,-85.4700854700855,4,1,0,100,0,1
65918,-84.7457627118644,4,1,0,100,0,1
65999,-84.0336134453781,4,1,0,100,0,1
66080,-83.3333333333333,4,1,0,100,0,1
66162,-82.6446280991736,4,1,0,100,0,1
66243,-81.9672131147541,4,1,0,100,0,1
66405,-83.3333333333333,4,1,0,100,0,1
66486,-84.0336134453781,4,1,0,100,0,1
66567,-84.7457627118644,4,1,0,100,0,1
66729,-86.2068965517241,4,1,0,100,0,1
66891,-87.719298245614,4,1,0,100,0,1
66972,-88.4955752212389,4,1,0,100,0,1
67053,-89.2857142857143,4,1,0,100,0,1
67134,-90.0900900900901,4,1,0,100,0,1
67216,-90.9090909090909,4,1,0,100,0,1
67297,-91.743119266055,4,1,0,100,0,1
67378,-92.5925925925926,4,1,0,100,0,1
67540,-95.2380952380952,4,1,0,100,0,1
70134,-94.3396226415094,4,1,0,100,0,1
70297,-92.5925925925926,4,1,0,100,0,1
70459,-90.9090909090909,4,1,0,100,0,1
70621,-89.2857142857143,4,1,0,100,0,1
70783,-87.719298245614,4,1,0,100,0,1
70945,-86.2068965517241,4,1,0,100,0,1
71107,-84.7457627118644,4,1,0,100,0,1
71270,-83.3333333333333,4,1,0,100,0,1
71432,-81.9672131147541,4,1,0,100,0,1
72324,-95.2380952380952,4,1,0,100,0,1
72405,-96.1538461538461,4,1,0,100,0,1
72486,-97.0873786407767,4,1,0,100,0,1
72567,-98.0392156862745,4,1,0,100,0,1
72648,-99.009900990099,4,1,0,100,0,1
72729,-100,4,1,0,85,0,0
92756,-101.010101010101,4,1,0,85,0,0
92837,-102.040816326531,4,1,0,85,0,0
92999,-104.166666666667,4,1,0,85,0,0
93080,-105.263157894737,4,1,0,85,0,0
93161,-106.382978723404,4,1,0,85,0,0
93242,-107.52688172043,4,1,0,85,0,0
93323,-108.695652173913,4,1,0,85,0,0
93404,-109.89010989011,4,1,0,85,0,0
93485,-111.111111111111,4,1,0,65,0,0
101269,352.941176470588,4,1,0,65,1,0
101269,-102.040816326531,4,1,0,65,0,0
101974,363.636363636364,4,1,0,65,1,0
101974,-98.0392156862745,4,1,0,65,0,0
102337,377.358490566038,4,1,0,65,1,0
102337,-96.1538461538461,4,1,0,65,0,0
102525,400,4,1,0,65,1,0
102525,-90.9090909090909,4,1,0,65,0,0
102725,431.654676258993,4,1,0,65,1,0
102725,-84.7457627118644,4,1,0,65,0,0
102940,468.75,4,1,0,65,1,0
102940,-78.125,4,1,0,65,0,0
103174,545.454545454546,4,1,0,65,1,0
103174,-67.5675675675676,4,1,0,65,0,0
103446,705.882352941176,4,1,0,65,1,0
103446,-53.1914893617021,4,1,0,65,0,0
103798,750,4,1,0,65,1,0
103798,-51.8134715025907,4,1,0,65,0,0

[HitObjects]
280,200,82,5,8,0:0:0:0:
288,200,244,1,0,0:0:0:0:
288,200,325,1,0,0:0:0:0:
288,200,406,1,8,0:0:0:0:
376,160,568,1,0,0:0:0:0:
376,160,730,1,0,0:0:0:0:
376,160,811,1,0,0:0:0:0:
376,160,892,1,8,0:0:0:0:
368,160,1054,1,0,0:0:0:0:
368,160,1136,1,0,0:0:0:0:
368,160,1217,1,8,0:0:0:0:
368,160,1298,1,8,0:0:0:0:
368,160,1379,1,8,0:0:0:0:
368,160,1541,1,0,0:0:0:0:
368,160,1622,1,0,0:0:0:0:
368,160,1703,1,8,0:0:0:0:
368,160,1865,1,0,0:0:0:0:
368,160,2027,1,0,0:0:0:0:
368,160,2190,1,0,0:0:0:0:
368,160,2271,1,0,0:0:0:0:
368,160,2352,1,8,0:0:0:0:
368,160,2514,1,0,0:0:0:0:
368,160,2676,1,0,0:0:0:0:
368,160,2757,1,0,0:0:0:0:
368,160,2838,1,8,0:0:0:0:
368,160,2919,1,8,0:0:0:0:
368,160,3000,1,0,0:0:0:0:
368,160,3081,1,0,0:0:0:0:
368,160,3163,1,8,0:0:0:0:
368,160,3244,1,8,0:0:0:0:
368,160,3325,1,0,0:0:0:0:
368,160,3406,1,0,0:0:0:0:
368,160,3487,1,8,0:0:0:0:
368,160,3568,1,0,0:0:0:0:
368,160,3649,1,8,0:0:0:0:
368,160,3730,1,8,0:0:0:0:
368,160,3811,1,8,0:0:0:0:
368,160,3892,1,8,0:0:0:0:
368,160,3973,1,0,0:0:0:0:
456,200,4135,1,0,0:0:0:0:
456,200,4217,1,0,0:0:0:0:
456,200,4298,1,8,0:0:0:0:
456,200,4460,1,0,0:0:0:0:
456,200,4622,1,8,0:0:0:0:
456,200,4784,1,0,0:0:0:0:
456,200,4946,1,8,0:0:0:0:
456,200,5108,1,8,0:0:0:0:
456,200,5271,1,8,0:0:0:0:
392,216,5433,1,0,0:0:0:0:
392,216,5514,1,0,0:0:0:0:
392,216,5595,1,8,0:0:0:0:
392,216,5757,1,0,0:0:0:0:
392,216,5919,1,0,0:0:0:0:
392,216,6000,1,0,0:0:0:0:
392,216,6081,1,8,0:0:0:0:
392,216,6244,1,0,0:0:0:0:
392,216,6325,1,0,0:0:0:0:
392,216,6406,1,8,0:0:0:0:
392,216,6487,1,8,0:0:0:0:
392,216,6568,1,8,0:0:0:0:
392,216,6730,1,0,0:0:0:0:
392,216,6811,1,0,0:0:0:0:
392,216,6892,1,8,0:0:0:0:
392,216,7054,1,0,0:0:0:0:
392,216,7217,1,0,0:0:0:0:
392,216,7379,1,0,0:0:0:0:
392,216,7460,1,0,0:0:0:0:
392,216,7541,1,8,0:0:0:0:
392,216,7703,1,0,0:0:0:0:
392,208,7865,1,0,0:0:0:0:
392,208,8027,1,12,0:0:0:0:
392,208,8189,1,0,0:0:0:0:
392,208,8352,1,12,0:0:0:0:
392,208,8514,1,0,0:0:0:0:
392,208,8676,1,12,0:0:0:0:
392,208,8838,1,8,0:0:0:0:
392,208,9000,1,0,0:0:0:0:
392,208,9162,1,0,0:0:0:0:
392,144,9325,1,8,0:0:0:0:
392,144,9487,1,0,0:0:0:0:
392,144,9649,1,8,0:0:0:0:
432,72,9811,1,12,0:0:0:0:
448,256,10460,1,4,0:0:0:0:
384,160,10622,1,8,0:0:0:0:
384,160,10703,1,8,0:0:0:0:
384,160,10784,1,0,0:0:0:0:
384,160,10946,1,8,0:0:0:0:
384,160,11108,1,0,0:0:0:0:
376,160,11189,1,0,0:0:0:0:
384,160,11271,1,8,0:0:0:0:
376,160,11433,1,0,0:0:0:0:
376,160,11514,1,0,0:0:0:0:
376,160,11595,1,8,0:0:0:0:
376,160,11676,1,8,0:0:0:0:
376,160,11757,1,0,0:0:0:0:
288,104,11919,1,8,0:0:0:0:
288,104,12000,1,8,0:0:0:0:
288,104,12081,1,0,0:0:0:0:
288,104,12243,1,8,0:0:0:0:
288,104,12406,1,0,0:0:0:0:
288,104,12568,1,8,0:0:0:0:
288,104,12649,1,0,0:0:0:0:
288,104,12730,1,0,0:0:0:0:
288,104,12892,1,8,0:0:0:0:
288,104,13054,1,0,0:0:0:0:
288,104,13135,1,0,0:0:0:0:
288,104,13216,1,8,0:0:0:0:
312,168,13298,1,8,0:0:0:0:
352,192,13379,1,0,0:0:0:0:
352,192,13541,1,8,0:0:0:0:
352,192,13703,1,0,0:0:0:0:
352,192,13784,1,0,0:0:0:0:
352,192,13865,1,8,0:0:0:0:
304,160,13946,1,0,0:0:0:0:
352,192,14027,1,0,0:0:0:0:
352,192,14189,1,8,0:0:0:0:
368,200,14352,1,0,0:0:0:0:
288,200,14433,1,0,0:0:0:0:
416,216,14514,1,8,0:0:0:0:
416,216,14595,1,8,0:0:0:0:
416,216,14676,1,0,0:0:0:0:
416,216,14838,1,8,0:0:0:0:
416,216,15000,1,0,0:0:0:0:
416,216,15081,1,0,0:0:0:0:
416,216,15162,1,8,0:0:0:0:
416,216,15324,1,0,0:0:0:0:
416,216,15406,1,8,0:0:0:0:
416,216,15487,1,8,0:0:0:0:
416,216,15649,1,4,0:0:0:0:
376,224,15811,1,8,0:0:0:0:
304,192,15892,1,8,0:0:0:0:
376,224,15973,1,0,0:0:0:0:
376,224,16135,1,8,0:0:0:0:
376,224,16297,1,0,0:0:0:0:
376,224,16379,1,0,0:0:0:0:
376,224,16460,1,8,0:0:0:0:
376,224,16622,1,0,0:0:0:0:
376,224,16703,1,0,0:0:0:0:
376,224,16784,1,8,0:0:0:0:
376,224,16865,1,8,0:0:0:0:
376,224,16946,1,0,0:0:0:0:
376,224,17108,1,8,0:0:0:0:
376,224,17189,1,8,0:0:0:0:
376,224,17270,1,0,0:0:0:0:
376,224,17433,1,8,0:0:0:0:
376,224,17595,1,0,0:0:0:0:
352,136,17757,1,8,0:0:0:0:
352,136,17838,1,0,0:0:0:0:
352,136,17919,1,0,0:0:0:0:
360,152,18081,1,8,0:0:0:0:
344,160,18243,1,0,0:0:0:0:
344,160,18406,1,12,0:0:0:0:
344,160,18568,1,0,0:0:0:0:
344,160,18730,1,12,0:0:0:0:
344,160,18892,1,0,0:0:0:0:
344,160,19054,1,12,0:0:0:0:
344,160,19216,1,0,0:0:0:0:
344,160,19378,1,8,0:0:0:0:
344,160,19541,1,0,0:0:0:0:
352,104,19595,1,0,0:0:0:0:
352,104,19649,1,0,0:0:0:0:
352,104,19703,1,8,0:0:0:0:
344,112,19784,1,8,0:0:0:0:
352,104,19865,1,0,0:0:0:0:
352,104,19919,1,0,0:0:0:0:
352,104,19973,1,0,0:0:0:0:
352,104,20027,1,8,0:0:0:0:
344,112,20108,1,8,0:0:0:0:
352,104,20189,1,0,0:0:0:0:
432,176,20433,1,0,0:0:0:0:
392,224,20514,1,8,0:0:0:0:
432,176,20595,1,8,0:0:0:0:
432,176,20676,1,8,0:0:0:0:
432,176,20757,1,8,0:0:0:0:
432,176,20838,1,0,0:0:0:0:
400,248,21000,1,8,0:0:0:0:
400,248,21081,1,8,0:0:0:0:
400,248,21162,1,0,0:0:0:0:
400,248,21324,1,8,0:0:0:0:
400,248,21487,1,0,0:0:0:0:
400,248,21568,1,0,0:0:0:0:
400,248,21649,1,8,0:0:0:0:
400,248,21811,1,0,0:0:0:0:
400,248,21892,1,0,0:0:0:0:
400,248,21973,1,8,0:0:0:0:
400,248,22054,1,8,0:0:0:0:
400,248,22135,1,0,0:0:0:0:
400,248,22297,1,8,0:0:0:0:
400,248,22378,1,8,0:0:0:0:
400,248,22460,1,0,0:0:0:0:
400,248,22622,1,8,0:0:0:0:
400,248,22784,1,0,0:0:0:0:
400,248,22946,1,8,0:0:0:0:
400,248,23027,1,0,0:0:0:0:
400,248,23108,1,0,0:0:0:0:
400,248,23270,1,8,0:0:0:0:
392,248,23432,1,0,0:0:0:0:
392,248,23514,1,0,0:0:0:0:
392,248,23595,1,8,0:0:0:0:
392,248,23676,1,0,0:0:0:0:
392,248,23757,1,8,0:0:0:0:
392,248,23838,1,8,0:0:0:0:
392,248,23919,1,0,0:0:0:0:
392,248,24000,1,0,0:0:0:0:
392,248,24081,1,8,0:0:0:0:
392,248,24162,1,0,0:0:0:0:
392,248,24243,1,8,0:0:0:0:
392,248,24324,1,8,0:0:0:0:
392,248,24405,1,0,0:0:0:0:
392,248,24487,1,8,0:0:0:0:
392,248,24568,1,8,0:0:0:0:
392,248,24649,1,8,0:0:0:0:
392,248,24730,1,0,0:0:0:0:
432,272,24892,1,8,0:0:0:0:
432,272,24973,1,8,0:0:0:0:
432,272,25054,1,0,0:0:0:0:
432,272,25216,1,8,0:0:0:0:
448,272,25378,1,0,0:0:0:0:
448,272,25459,1,0,0:0:0:0:
448,272,25541,1,8,0:0:0:0:
416,296,25703,1,0,0:0:0:0:
448,272,25784,1,8,0:0:0:0:
448,272,25865,1,8,0:0:0:0:
488,312,26027,1,4,0:0:0:0:
320,176,26189,1,8,0:0:0:0:
320,176,26270,1,8,0:0:0:0:
320,176,26351,1,0,0:0:0:0:
320,176,26514,1,8,0:0:0:0:
320,176,26676,1,0,0:0:0:0:
320,176,26757,1,0,0:0:0:0:
320,176,26838,1,8,0:0:0:0:
320,176,27000,1,0,0:0:0:0:
320,176,27081,1,0,0:0:0:0:
320,176,27162,1,8,0:0:0:0:
320,176,27243,1,8,0:0:0:0:
320,176,27324,1,0,0:0:0:0:
320,176,27486,1,8,0:0:0:0:
320,176,27568,1,8,0:0:0:0:
320,176,27649,1,0,0:0:0:0:
320,176,27811,1,8,0:0:0:0:
320,176,27973,1,0,0:0:0:0:
320,176,28135,1,8,0:0:0:0:
320,176,28216,1,0,0:0:0:0:
320,176,28297,1,0,0:0:0:0:
320,176,28459,1,8,0:0:0:0:
320,176,28622,1,0,0:0:0:0:
320,176,28784,1,12,0:0:0:0:
320,176,28946,1,0,0:0:0:0:
320,176,29108,1,12,0:0:0:0:
320,176,29270,1,0,0:0:0:0:
320,176,29432,1,12,0:0:0:0:
320,176,29595,1,0,0:0:0:0:
320,176,29757,1,8,0:0:0:0:
256,136,29919,1,0,0:0:0:0:
256,136,29973,1,0,0:0:0:0:
264,136,30027,1,0,0:0:0:0:
256,136,30081,1,8,0:0:0:0:
272,104,30162,1,8,0:0:0:0:
256,136,30243,1,0,0:0:0:0:
256,136,30297,1,0,0:0:0:0:
256,136,30351,1,0,0:0:0:0:
256,136,30405,1,8,0:0:0:0:
272,104,30486,1,8,0:0:0:0:
272,104,30567,1,0,0:0:0:0:
336,160,30811,1,0,0:0:0:0:
336,160,30892,1,8,0:0:0:0:
336,160,30973,1,8,0:0:0:0:
336,160,31054,1,8,0:0:0:0:
336,160,31135,1,8,0:0:0:0:
336,160,31216,1,0,0:0:0:0:
256,120,31378,1,0,0:0:0:0:
256,120,31540,1,8,0:0:0:0:
256,120,31703,1,8,0:0:0:0:
256,120,32027,1,8,0:0:0:0:
256,120,32189,1,8,0:0:0:0:
256,120,32351,1,0,0:0:0:0:
256,120,32513,1,8,0:0:0:0:
256,120,32676,1,8,0:0:0:0:
256,120,32757,1,0,0:0:0:0:
256,120,32838,1,8,0:0:0:0:
256,120,33000,1,0,0:0:0:0:
256,120,33081,1,0,0:0:0:0:
256,120,33162,1,8,0:0:0:0:
288,128,33324,1,8,0:0:0:0:
288,128,33405,1,0,0:0:0:0:
288,128,33486,1,8,0:0:0:0:
288,128,33649,1,0,0:0:0:0:
288,128,33730,1,8,0:0:0:0:
288,128,33811,1,0,0:0:0:0:
288,128,33973,1,0,0:0:0:0:
288,128,34135,1,8,0:0:0:0:
288,128,34297,1,8,0:0:0:0:
248,144,34621,1,8,0:0:0:0:
296,136,34784,1,8,0:0:0:0:
304,136,34946,1,0,0:0:0:0:
304,136,35108,1,4,0:0:0:0:
304,136,35270,1,12,0:0:0:0:
304,136,35432,1,12,0:0:0:0:
304,136,35594,1,4,0:0:0:0:
304,136,35757,1,0,0:0:0:0:
304,136,35838,1,0,0:0:0:0:
304,136,35919,1,8,0:0:0:0:
304,136,36000,1,0,0:0:0:0:
304,136,36081,1,8,0:0:0:0:
304,136,36162,1,8,0:0:0:0:
304,136,36243,1,0,0:0:0:0:
304,136,36324,1,0,0:0:0:0:
312,136,36405,1,8,0:0:0:0:
416,232,36567,1,0,0:0:0:0:
416,232,36730,1,8,0:0:0:0:
416,232,36892,1,8,0:0:0:0:
416,232,37216,1,8,0:0:0:0:
416,232,37378,1,8,0:0:0:0:
416,232,37540,1,0,0:0:0:0:
416,232,37703,1,8,0:0:0:0:
344,208,37784,1,0,0:0:0:0:
440,288,37865,1,8,0:0:0:0:
440,288,37946,1,0,0:0:0:0:
440,288,38027,1,8,0:0:0:0:
304,184,38108,1,8,0:0:0:0:
440,288,38189,1,0,0:0:0:0:
440,288,38270,1,0,0:0:0:0:
440,288,38351,1,8,0:0:0:0:
296,176,38432,1,0,0:0:0:0:
440,288,38513,1,8,0:0:0:0:
440,288,38594,1,0,0:0:0:0:
440,288,38675,1,8,0:0:0:0:
296,176,38757,1,8,0:0:0:0:
296,176,38838,1,0,0:0:0:0:
296,176,38919,1,8,0:0:0:0:
296,176,39000,1,0,0:0:0:0:
432,248,39162,1,8,0:0:0:0:
432,248,39324,1,8,0:0:0:0:
432,248,39486,1,0,0:0:0:0:
432,248,39648,1,8,0:0:0:0:
208,136,39730,1,8,0:0:0:0:
432,248,39811,1,0,0:0:0:0:
208,136,39892,1,0,0:0:0:0:
432,248,39973,1,8,0:0:0:0:
432,248,40135,1,0,0:0:0:0:
392,160,40297,1,4,0:0:0:0:
392,160,40459,1,12,0:0:0:0:
392,160,40621,1,4,0:0:0:0:
392,160,40784,1,12,0:0:0:0:
392,160,40946,1,0,0:0:0:0:
392,160,41027,1,0,0:0:0:0:
392,160,41108,1,8,0:0:0:0:
392,160,41189,1,8,0:0:0:0:
392,160,41270,1,8,0:0:0:0:
392,160,41351,1,0,0:0:0:0:
392,160,41432,1,8,0:0:0:0:
392,160,41513,1,8,0:0:0:0:
392,160,41594,1,0,0:0:0:0:
352,152,41756,1,0,0:0:0:0:
352,152,41919,1,8,0:0:0:0:
352,152,42081,1,8,0:0:0:0:
288,136,42405,1,8,0:0:0:0:
288,136,42567,1,8,0:0:0:0:
288,136,42729,1,0,0:0:0:0:
288,136,42892,1,8,0:0:0:0:
288,136,43054,1,8,0:0:0:0:
288,136,43135,1,0,0:0:0:0:
288,136,43216,1,8,0:0:0:0:
288,136,43378,1,0,0:0:0:0:
288,136,43459,1,0,0:0:0:0:
288,136,43540,1,8,0:0:0:0:
288,136,43702,1,8,0:0:0:0:
288,136,43783,1,0,0:0:0:0:
288,136,43865,1,8,0:0:0:0:
288,136,44027,1,0,0:0:0:0:
288,136,44108,1,8,0:0:0:0:
288,136,44189,1,0,0:0:0:0:
288,136,44351,1,8,0:0:0:0:
288,136,44513,1,8,0:0:0:0:
288,136,44675,1,0,0:0:0:0:
288,136,45000,1,0,0:0:0:0:
288,136,45162,1,8,0:0:0:0:
64,168,45243,1,8,0:0:0:0:
288,136,45324,1,8,0:0:0:0:
288,136,45486,1,4,0:0:0:0:
288,136,45648,1,12,0:0:0:0:
288,136,45810,1,12,0:0:0:0:
288,136,45973,1,4,0:0:0:0:
288,136,46135,1,8,0:0:0:0:
360,144,46297,1,0,0:0:0:0:
360,144,46351,1,0,0:0:0:0:
360,144,46405,1,0,0:0:0:0:
360,144,46459,1,8,0:0:0:0:
320,136,46621,1,0,0:0:0:0:
320,136,46702,1,0,0:0:0:0:
320,136,46783,1,8,0:0:0:0:
320,136,46946,5,0,0:0:0:0:
320,136,47108,1,0,0:0:0:0:
320,136,47270,1,12,0:0:0:0:
320,136,47432,1,0,0:0:0:0:
320,136,47594,1,0,0:0:0:0:
320,136,47756,1,12,0:0:0:0:
320,136,47919,1,0,0:0:0:0:
288,176,48081,5,8,0:0:0:0:
288,176,48189,1,0,0:0:0:0:
288,176,48297,1,0,0:0:0:0:
288,176,48405,1,8,0:0:0:0:
288,176,48513,1,0,0:0:0:0:
288,176,48621,1,0,0:0:0:0:
288,176,48729,1,8,0:0:0:0:
288,176,48837,1,8,0:0:0:0:
288,176,48946,1,0,0:0:0:0:
288,176,49054,1,8,0:0:0:0:
288,176,49162,1,0,0:0:0:0:
288,176,49270,1,0,0:0:0:0:
288,176,49378,1,8,0:0:0:0:
272,192,49540,1,0,0:0:0:0:
272,192,49702,1,8,0:0:0:0:
272,192,49864,1,0,0:0:0:0:
272,192,49946,1,0,0:0:0:0:
272,192,50027,1,0,0:0:0:0:
272,192,50189,1,0,0:0:0:0:
272,192,50351,1,8,0:0:0:0:
272,192,50513,1,0,0:0:0:0:
224,168,50675,1,8,0:0:0:0:
256,160,50756,1,8,0:0:0:0:
256,160,50837,1,0,0:0:0:0:
256,160,50919,1,0,0:0:0:0:
256,160,51000,1,8,0:0:0:0:
256,160,51081,1,0,0:0:0:0:
256,160,51162,1,8,0:0:0:0:
256,160,51243,1,8,0:0:0:0:
256,160,51324,1,0,0:0:0:0:
264,160,51486,1,0,0:0:0:0:
264,160,51567,1,0,0:0:0:0:
264,160,51648,1,8,0:0:0:0:
264,160,51729,1,0,0:0:0:0:
264,160,51810,1,8,0:0:0:0:
264,160,51891,1,8,0:0:0:0:
264,160,51973,1,0,0:0:0:0:
384,160,52135,1,8,0:0:0:0:
384,160,52216,1,8,0:0:0:0:
384,160,52297,1,0,0:0:0:0:
384,160,52459,1,8,0:0:0:0:
384,160,52621,1,0,0:0:0:0:
376,160,52702,1,0,0:0:0:0:
384,160,52783,1,8,0:0:0:0:
376,160,52946,1,0,0:0:0:0:
376,160,53027,1,0,0:0:0:0:
376,160,53108,1,8,0:0:0:0:
376,160,53189,1,8,0:0:0:0:
376,160,53270,1,0,0:0:0:0:
288,104,53432,1,8,0:0:0:0:
288,104,53513,1,8,0:0:0:0:
288,104,53594,1,0,0:0:0:0:
288,104,53756,1,8,0:0:0:0:
288,104,53918,1,0,0:0:0:0:
288,104,54081,1,8,0:0:0:0:
288,104,54162,1,0,0:0:0:0:
288,104,54243,1,0,0:0:0:0:
144,168,54324,1,0,0:0:0:0:
288,104,54405,1,8,0:0:0:0:
288,104,54567,1,0,0:0:0:0:
288,104,54648,1,0,0:0:0:0:
288,104,54729,1,8,0:0:0:0:
312,168,54810,1,8,0:0:0:0:
352,192,54891,1,0,0:0:0:0:
352,192,55054,1,8,0:0:0:0:
352,192,55216,1,0,0:0:0:0:
352,192,55297,1,0,0:0:0:0:
352,192,55378,1,8,0:0:0:0:
304,160,55459,1,0,0:0:0:0:
352,192,55540,1,0,0:0:0:0:
352,192,55702,1,8,0:0:0:0:
368,200,55864,1,0,0:0:0:0:
288,200,55945,1,0,0:0:0:0:
416,216,56027,1,8,0:0:0:0:
416,216,56108,1,8,0:0:0:0:
416,216,56189,1,0,0:0:0:0:
416,216,56351,1,8,0:0:0:0:
416,216,56513,1,0,0:0:0:0:
416,216,56594,1,0,0:0:0:0:
416,216,56675,1,8,0:0:0:0:
232,152,56756,1,8,0:0:0:0:
416,216,56837,1,0,0:0:0:0:
416,216,56918,1,8,0:0:0:0:
416,216,56999,1,8,0:0:0:0:
416,216,57162,1,4,0:0:0:0:
376,224,57324,1,8,0:0:0:0:
304,192,57405,1,8,0:0:0:0:
376,224,57486,1,0,0:0:0:0:
376,224,57648,1,8,0:0:0:0:
376,224,57810,1,0,0:0:0:0:
376,224,57891,1,0,0:0:0:0:
376,224,57972,1,8,0:0:0:0:
376,224,58135,1,0,0:0:0:0:
376,224,58216,1,0,0:0:0:0:
376,224,58297,1,8,0:0:0:0:
376,224,58378,1,8,0:0:0:0:
376,224,58459,1,0,0:0:0:0:
376,224,58621,1,8,0:0:0:0:
376,224,58702,1,8,0:0:0:0:
376,224,58783,1,0,0:0:0:0:
376,224,58945,1,8,0:0:0:0:
376,224,59108,1,0,0:0:0:0:
352,136,59270,1,8,0:0:0:0:
352,136,59351,1,0,0:0:0:0:
352,136,59432,1,0,0:0:0:0:
280,104,59513,1,0,0:0:0:0:
360,152,59594,1,8,0:0:0:0:
344,160,59756,1,0,0:0:0:0:
344,160,59918,1,12,0:0:0:0:
344,160,60081,1,0,0:0:0:0:
344,160,60243,1,12,0:0:0:0:
344,160,60405,1,0,0:0:0:0:
344,160,60567,1,12,0:0:0:0:
344,160,60729,1,0,0:0:0:0:
344,160,60891,1,8,0:0:0:0:
344,160,61053,1,0,0:0:0:0:
352,104,61108,1,0,0:0:0:0:
352,104,61162,1,0,0:0:0:0:
112,160,61216,1,8,0:0:0:0:
344,112,61297,1,8,0:0:0:0:
352,104,61378,1,0,0:0:0:0:
352,104,61432,1,0,0:0:0:0:
352,104,61486,1,0,0:0:0:0:
352,104,61540,1,8,0:0:0:0:
344,112,61621,1,8,0:0:0:0:
352,104,61702,1,0,0:0:0:0:
432,176,61945,1,0,0:0:0:0:
392,224,62026,1,8,0:0:0:0:
432,176,62108,1,8,0:0:0:0:
432,176,62189,1,8,0:0:0:0:
432,176,62270,1,8,0:0:0:0:
432,176,62351,1,0,0:0:0:0:
400,248,62513,1,8,0:0:0:0:
400,248,62594,1,8,0:0:0:0:
400,248,62675,1,0,0:0:0:0:
400,248,62837,1,8,0:0:0:0:
400,248,62999,1,0,0:0:0:0:
400,248,63080,1,0,0:0:0:0:
400,248,63162,1,8,0:0:0:0:
400,248,63324,1,0,0:0:0:0:
400,248,63405,1,0,0:0:0:0:
400,248,63486,1,8,0:0:0:0:
400,248,63567,1,8,0:0:0:0:
400,248,63648,1,0,0:0:0:0:
400,248,63810,1,8,0:0:0:0:
400,248,63891,1,8,0:0:0:0:
400,248,63972,1,0,0:0:0:0:
400,248,64135,1,8,0:0:0:0:
400,248,64297,1,0,0:0:0:0:
400,248,64459,1,8,0:0:0:0:
400,248,64540,1,0,0:0:0:0:
400,248,64621,1,0,0:0:0:0:
248,96,64702,1,0,0:0:0:0:
400,248,64783,1,8,0:0:0:0:
392,248,64945,1,0,0:0:0:0:
392,248,65026,1,0,0:0:0:0:
392,248,65107,1,8,0:0:0:0:
392,248,65189,1,0,0:0:0:0:
392,248,65270,1,8,0:0:0:0:
392,248,65351,1,8,0:0:0:0:
392,248,65432,1,0,0:0:0:0:
392,248,65513,1,0,0:0:0:0:
392,248,65594,1,8,0:0:0:0:
392,248,65675,1,0,0:0:0:0:
392,248,65756,1,8,0:0:0:0:
392,248,65837,1,8,0:0:0:0:
392,248,65918,1,0,0:0:0:0:
392,248,65999,1,8,0:0:0:0:
392,248,66080,1,8,0:0:0:0:
392,248,66162,1,8,0:0:0:0:
392,248,66243,1,0,0:0:0:0:
432,272,66405,1,8,0:0:0:0:
432,272,66486,1,8,0:0:0:0:
432,272,66567,1,0,0:0:0:0:
432,272,66729,1,8,0:0:0:0:
448,272,66891,1,0,0:0:0:0:
448,272,66972,1,0,0:0:0:0:
448,272,67053,1,8,0:0:0:0:
240,96,67134,1,8,0:0:0:0:
416,296,67216,1,0,0:0:0:0:
448,272,67297,1,8,0:0:0:0:
448,272,67378,1,8,0:0:0:0:
488,312,67540,1,4,0:0:0:0:
320,176,67702,1,8,0:0:0:0:
320,176,67783,1,8,0:0:0:0:
320,176,67864,1,0,0:0:0:0:
320,176,68026,1,8,0:0:0:0:
320,176,68189,1,0,0:0:0:0:
320,176,68270,1,0,0:0:0:0:
320,176,68351,1,8,0:0:0:0:
320,176,68513,1,0,0:0:0:0:
320,176,68594,1,0,0:0:0:0:
320,176,68675,1,8,0:0:0:0:
320,176,68756,1,8,0:0:0:0:
320,176,68837,1,0,0:0:0:0:
320,176,68999,1,8,0:0:0:0:
320,176,69080,1,8,0:0:0:0:
320,176,69161,1,0,0:0:0:0:
320,176,69324,1,8,0:0:0:0:
320,176,69486,1,0,0:0:0:0:
320,176,69648,1,8,0:0:0:0:
320,176,69729,1,0,0:0:0:0:
320,176,69810,1,0,0:0:0:0:
240,160,69891,1,0,0:0:0:0:
320,176,69972,1,8,0:0:0:0:
320,176,70134,1,0,0:0:0:0:
320,176,70297,1,12,0:0:0:0:
320,176,70459,1,0,0:0:0:0:
320,176,70621,1,12,0:0:0:0:
320,176,70783,1,0,0:0:0:0:
320,176,70945,1,12,0:0:0:0:
320,176,71107,1,0,0:0:0:0:
320,176,71270,1,8,0:0:0:0:
256,136,71432,1,0,0:0:0:0:
256,136,71486,1,0,0:0:0:0:
264,136,71540,1,0,0:0:0:0:
256,136,71594,1,8,0:0:0:0:
272,104,71675,1,8,0:0:0:0:
256,136,71756,1,0,0:0:0:0:
256,136,71810,1,0,0:0:0:0:
256,136,71864,1,0,0:0:0:0:
256,136,71918,1,8,0:0:0:0:
272,104,71999,1,8,0:0:0:0:
272,104,72080,1,0,0:0:0:0:
280,152,72324,1,0,0:0:0:0:
280,152,72405,1,8,0:0:0:0:
280,152,72486,1,8,0:0:0:0:
280,152,72567,1,8,0:0:0:0:
280,152,72648,1,8,0:0:0:0:
336,160,72729,1,0,0:0:0:0:
256,120,72891,1,0,0:0:0:0:
256,120,73053,1,8,0:0:0:0:
256,120,73215,1,8,0:0:0:0:
256,120,73540,1,8,0:0:0:0:
256,120,73702,1,8,0:0:0:0:
256,120,73864,1,0,0:0:0:0:
256,120,74026,1,8,0:0:0:0:
256,120,74188,1,8,0:0:0:0:
256,120,74269,1,0,0:0:0:0:
256,120,74351,1,8,0:0:0:0:
256,120,74513,1,0,0:0:0:0:
256,120,74594,1,0,0:0:0:0:
256,120,74675,1,8,0:0:0:0:
288,128,74837,1,8,0:0:0:0:
288,128,74918,1,0,0:0:0:0:
288,128,74999,1,8,0:0:0:0:
288,128,75161,1,0,0:0:0:0:
288,128,75242,1,8,0:0:0:0:
288,128,75324,1,0,0:0:0:0:
288,128,75486,1,0,0:0:0:0:
288,128,75648,1,8,0:0:0:0:
288,128,75810,1,8,0:0:0:0:
248,144,76134,1,8,0:0:0:0:
296,136,76296,1,8,0:0:0:0:
304,136,76459,1,0,0:0:0:0:
304,136,76621,1,4,0:0:0:0:
304,136,76783,1,12,0:0:0:0:
304,136,76945,1,12,0:0:0:0:
304,136,77107,1,4,0:0:0:0:
304,136,77269,1,0,0:0:0:0:
304,136,77351,1,0,0:0:0:0:
304,136,77432,1,8,0:0:0:0:
304,136,77513,1,0,0:0:0:0:
304,136,77594,1,8,0:0:0:0:
304,136,77675,1,8,0:0:0:0:
304,136,77756,1,0,0:0:0:0:
304,136,77837,1,0,0:0:0:0:
312,136,77918,1,8,0:0:0:0:
416,232,78080,1,0,0:0:0:0:
416,232,78242,1,8,0:0:0:0:
416,232,78405,1,8,0:0:0:0:
416,232,78729,1,8,0:0:0:0:
416,232,78891,1,8,0:0:0:0:
416,232,79053,1,0,0:0:0:0:
416,232,79215,1,8,0:0:0:0:
344,208,79296,1,0,0:0:0:0:
440,288,79378,1,8,0:0:0:0:
440,288,79459,1,0,0:0:0:0:
440,288,79540,1,8,0:0:0:0:
304,184,79621,1,8,0:0:0:0:
440,288,79702,1,0,0:0:0:0:
440,288,79783,1,0,0:0:0:0:
440,288,79864,1,8,0:0:0:0:
296,176,79945,1,0,0:0:0:0:
440,288,80026,1,8,0:0:0:0:
440,288,80107,1,0,0:0:0:0:
440,288,80188,1,8,0:0:0:0:
296,176,80269,1,8,0:0:0:0:
296,176,80350,1,0,0:0:0:0:
296,176,80432,1,8,0:0:0:0:
296,176,80513,1,0,0:0:0:0:
432,248,80675,1,8,0:0:0:0:
432,248,80837,1,8,0:0:0:0:
432,248,80999,1,0,0:0:0:0:
432,248,81161,1,8,0:0:0:0:
208,136,81242,1,8,0:0:0:0:
432,248,81323,1,0,0:0:0:0:
208,136,81405,1,0,0:0:0:0:
432,248,81486,1,8,0:0:0:0:
432,248,81648,1,0,0:0:0:0:
392,160,81810,1,4,0:0:0:0:
392,160,81972,1,12,0:0:0:0:
392,160,82134,1,4,0:0:0:0:
392,160,82296,1,12,0:0:0:0:
392,160,82459,1,0,0:0:0:0:
392,160,82540,1,0,0:0:0:0:
392,160,82621,1,8,0:0:0:0:
392,160,82702,1,8,0:0:0:0:
392,160,82783,1,8,0:0:0:0:
392,160,82864,1,0,0:0:0:0:
392,160,82945,1,8,0:0:0:0:
392,160,83026,1,8,0:0:0:0:
392,160,83107,1,0,0:0:0:0:
352,152,83269,1,0,0:0:0:0:
352,152,83431,1,8,0:0:0:0:
352,152,83594,1,8,0:0:0:0:
288,136,83918,1,8,0:0:0:0:
288,136,84080,1,8,0:0:0:0:
288,136,84242,1,0,0:0:0:0:
288,136,84404,1,8,0:0:0:0:
288,136,84567,1,8,0:0:0:0:
288,136,84648,1,0,0:0:0:0:
288,136,84729,1,8,0:0:0:0:
288,136,84891,1,0,0:0:0:0:
288,136,84972,1,0,0:0:0:0:
288,136,85053,1,8,0:0:0:0:
288,136,85215,1,8,0:0:0:0:
288,136,85296,1,0,0:0:0:0:
288,136,85377,1,8,0:0:0:0:
288,136,85540,1,0,0:0:0:0:
288,136,85621,1,8,0:0:0:0:
288,136,85702,1,0,0:0:0:0:
288,136,85864,1,8,0:0:0:0:
288,136,86026,1,8,0:0:0:0:
288,136,86188,1,0,0:0:0:0:
288,136,86513,1,0,0:0:0:0:
288,136,86675,1,8,0:0:0:0:
64,168,86756,1,8,0:0:0:0:
288,136,86837,1,8,0:0:0:0:
288,136,86999,1,4,0:0:0:0:
288,136,87161,1,12,0:0:0:0:
288,136,87323,1,12,0:0:0:0:
288,136,87485,1,4,0:0:0:0:
288,136,87648,1,8,0:0:0:0:
360,144,87810,1,0,0:0:0:0:
360,144,87864,1,0,0:0:0:0:
360,144,87918,1,0,0:0:0:0:
360,144,87972,1,8,0:0:0:0:
320,136,88134,1,0,0:0:0:0:
320,136,88215,1,0,0:0:0:0:
320,136,88296,1,8,0:0:0:0:
320,136,88458,5,0,0:0:0:0:
320,136,88621,1,0,0:0:0:0:
320,136,88783,1,12,0:0:0:0:
320,136,88945,1,0,0:0:0:0:
320,136,89107,1,0,0:0:0:0:
320,136,89269,1,12,0:0:0:0:
320,136,89431,1,0,0:0:0:0:
288,176,89594,5,8,0:0:0:0:
288,176,89702,1,0,0:0:0:0:
288,176,89810,1,0,0:0:0:0:
288,176,89918,1,8,0:0:0:0:
288,176,90026,1,0,0:0:0:0:
288,176,90134,1,0,0:0:0:0:
288,176,90242,1,8,0:0:0:0:
288,176,90350,1,8,0:0:0:0:
288,176,90458,1,0,0:0:0:0:
288,176,90567,1,8,0:0:0:0:
288,176,90675,1,0,0:0:0:0:
288,176,90783,1,0,0:0:0:0:
288,176,90891,1,8,0:0:0:0:
272,192,91053,1,0,0:0:0:0:
272,192,91215,1,8,0:0:0:0:
272,192,91377,1,0,0:0:0:0:
272,192,91458,1,0,0:0:0:0:
272,192,91539,1,0,0:0:0:0:
272,192,91702,1,0,0:0:0:0:
272,192,91864,1,8,0:0:0:0:
272,192,92026,1,0,0:0:0:0:
224,168,92188,1,8,0:0:0:0:
256,160,92269,1,8,0:0:0:0:
256,160,92350,1,0,0:0:0:0:
256,160,92431,1,0,0:0:0:0:
256,160,92512,1,8,0:0:0:0:
256,160,92594,1,0,0:0:0:0:
256,160,92675,1,8,0:0:0:0:
256,160,92756,1,8,0:0:0:0:
256,160,92837,1,0,0:0:0:0:
264,160,92999,1,0,0:0:0:0:
264,160,93080,1,0,0:0:0:0:
264,160,93161,1,8,0:0:0:0:
264,160,93242,1,0,0:0:0:0:
264,160,93323,1,8,0:0:0:0:
264,160,93404,1,8,0:0:0:0:
264,160,93485,1,0,0:0:0:0:
288,200,93648,1,0,0:0:0:0:
288,200,93729,1,0,0:0:0:0:
288,200,93810,1,8,0:0:0:0:
376,160,93972,1,0,0:0:0:0:
376,160,94134,1,0,0:0:0:0:
376,160,94215,1,0,0:0:0:0:
376,160,94296,1,8,0:0:0:0:
368,160,94458,1,0,0:0:0:0:
368,160,94539,1,0,0:0:0:0:
368,160,94621,1,8,0:0:0:0:
368,160,94702,1,8,0:0:0:0:
368,160,94783,1,8,0:0:0:0:
368,160,94945,1,0,0:0:0:0:
368,160,95026,1,0,0:0:0:0:
368,160,95107,1,8,0:0:0:0:
368,160,95269,1,0,0:0:0:0:
368,160,95431,1,0,0:0:0:0:
368,160,95593,1,0,0:0:0:0:
368,160,95675,1,0,0:0:0:0:
368,160,95756,1,8,0:0:0:0:
368,160,95918,1,0,0:0:0:0:
368,160,96080,1,0,0:0:0:0:
368,160,96161,1,0,0:0:0:0:
368,160,96242,1,8,0:0:0:0:
368,160,96323,1,8,0:0:0:0:
368,160,96404,1,0,0:0:0:0:
368,160,96485,1,0,0:0:0:0:
368,160,96566,1,8,0:0:0:0:
368,160,96648,1,8,0:0:0:0:
368,160,96729,1,0,0:0:0:0:
368,160,96810,1,0,0:0:0:0:
368,160,96891,1,8,0:0:0:0:
368,160,96972,1,0,0:0:0:0:
368,160,97053,1,8,0:0:0:0:
368,160,97134,1,8,0:0:0:0:
368,160,97215,1,8,0:0:0:0:
368,160,97296,1,8,0:0:0:0:
368,160,97377,1,0,0:0:0:0:
456,200,97539,1,0,0:0:0:0:
456,200,97620,1,0,0:0:0:0:
456,200,97702,1,8,0:0:0:0:
456,200,97864,1,0,0:0:0:0:
456,200,98026,1,8,0:0:0:0:
456,200,98188,1,0,0:0:0:0:
456,200,98350,1,8,0:0:0:0:
456,200,98512,1,8,0:0:0:0:
456,200,98674,1,8,0:0:0:0:
392,216,98837,1,0,0:0:0:0:
392,216,98918,1,0,0:0:0:0:
392,216,98999,1,8,0:0:0:0:
392,216,99161,1,0,0:0:0:0:
392,216,99323,1,0,0:0:0:0:
392,216,99404,1,0,0:0:0:0:
392,216,99485,1,8,0:0:0:0:
392,216,99647,1,0,0:0:0:0:
392,216,99729,1,0,0:0:0:0:
392,216,99810,1,8,0:0:0:0:
392,216,99891,1,8,0:0:0:0:
392,216,99972,1,8,0:0:0:0:
392,216,100134,5,0,0:0:0:0:
392,216,100215,1,0,0:0:0:0:
392,216,100296,1,8,0:0:0:0:
392,216,100458,1,0,0:0:0:0:
392,216,100620,1,0,0:0:0:0:
392,216,100783,1,0,0:0:0:0:
392,216,100864,1,0,0:0:0:0:
392,216,100945,1,8,0:0:0:0:
264,160,101107,1,0,0:0:0:0:
288,128,101269,5,0,0:0:0:0:
288,128,101445,1,12,0:0:0:0:
288,128,101621,1,0,0:0:0:0:
288,128,101798,1,12,0:0:0:0:
320,160,101974,5,0,0:0:0:0:
320,160,102155,1,12,0:0:0:0:
320,160,102337,1,8,0:0:0:0:
320,160,102525,1,0,0:0:0:0:
312,168,102725,5,0,0:0:0:0:
312,168,102940,1,8,0:0:0:0:
312,168,103174,1,0,0:0:0:0:
312,168,103446,1,8,0:0:0:0:
352,96,103798,5,12,0:0:0:0:
