osu file format v14

[General]
AudioFilename: audio.mp3
AudioLeadIn: 0
PreviewTime: 66884
Countdown: 0
SampleSet: Soft
StackLeniency: 0.7
Mode: 2
LetterboxInBreaks: 0
WidescreenStoryboard: 0

[Editor]
Bookmarks: 4884,24084,43284,48084,67284,86484,105684
DistanceSpacing: 0.8
BeatDivisor: 3
GridSize: 8
TimelineZoom: 2

[Metadata]
Title:PIZZA PLAZA
TitleUnicode:PIZZA PLAZA
Artist:OISHII
ArtistUnicode:OISHII
Creator:Spectator
Version:Sinnoh's Rain
Source:osu!
Tags:osu! featured artist Creamcore ZiRoX Sinnoh
BeatmapID:1612279
BeatmapSetID:767009

[Difficulty]
HPDrainRate:5
CircleSize:4
OverallDifficulty:9
ApproachRate:9
SliderMultiplier:1.9
SliderTickRate:1

[Events]
//Background and Video events
0,0,"pizza.png",0,0
//Break Periods
2,43484,46734
//Storyboard Layer 0 (Background)
//Storyboard Layer 1 (Fail)
//Storyboard Layer 2 (Pass)
//Storyboard Layer 3 (Foreground)
//Storyboard Sound Samples

[TimingPoints]
84,300,4,2,1,60,1,0
24084,-100,4,2,1,60,0,0
67284,-100,4,2,1,60,0,1
76584,-100,4,2,1,60,0,0
76884,-100,4,2,1,60,0,1
86484,-100,4,2,1,60,0,0

[Colours]
Combo1 : 124,218,88
Combo2 : 255,170,85
Combo3 : 251,102,102

[HitObjects]
239,261,84,6,0,L|359:181,1,126.666666666667,2|0,0:0|0:0,0:0:0:0:
273,261,384,2,0,L|153:181,1,126.666666666667,0|0,0:0|0:0,0:0:0:0:
239,261,684,2,0,L|359:181,1,126.666666666667,2|0,0:0|0:0,0:0:0:0:
273,261,984,2,0,L|153:181,1,126.666666666667,0|0,0:0|0:0,0:0:0:0:
239,261,1284,6,0,L|359:181,1,126.666666666667,2|0,0:0|0:0,0:0:0:0:
273,261,1584,2,0,L|153:181,1,126.666666666667,0|0,0:0|0:0,0:0:0:0:
239,261,1884,2,0,L|359:181,1,126.666666666667,2|0,0:0|0:0,0:0:0:0:
167,190,2184,2,0,L|273:261,1,126.666666666667,0|0,0:0|0:0,0:0:0:0:
78,311,2484,6,0,L|75:161,1,126.666666666667,2|0,0:0|0:0,0:0:0:0:
173,174,2784,2,0,L|293:94,1,126.666666666667,0|0,0:0|0:0,0:0:0:0:
207,174,3084,6,0,L|87:94,1,126.666666666667,2|0,0:0|0:0,0:0:0:0:
178,174,3384,2,0,L|325:166,1,126.666666666667,0|0,0:0|0:0,0:0:0:0:
475,294,3684,6,0,L|463:147,1,126.666666666667,2|0,0:0|0:0,0:0:0:0:
366,165,3984,2,0,L|232:99,1,126.666666666667,2|0,0:0|0:0,0:0:0:0:
332,84,4284,2,0,L|466:18,1,126.666666666667,2|0,0:0|0:0,0:0:0:0:
272,248,4584,2,0,L|272:91,1,126.666666666667,2|0,0:0|0:0,0:0:0:0:
67,263,4884,6,0,P|16:221|111:151,1,190,4|2,0:0|0:0,0:0:0:0:
251,151,5384,1,0,0:0:0:0:
288,105,5484,2,0,L|142:99,1,126.666666666667,8|0,0:0|0:0,0:0:0:0:
100,98,5784,1,2,0:0:0:0:
283,223,5984,5,0,0:0:0:0:
338,205,6084,1,0,1:0:0:0:
172,152,6284,2,0,L|168:62,1,63.3333333333333,0|2,0:0|0:0,0:0:0:0:
314,92,6584,1,0,0:0:0:0:
237,88,6684,2,0,L|102:89,1,126.666666666667,8|0,0:0|0:0,0:0:0:0:
172,157,6984,2,0,L|324:157,1,126.666666666667,2|0,0:0|0:0,0:0:0:0:
467,254,7284,6,0,P|495:191|374:116,1,190,0|0,1:0|0:0,0:0:0:0:
273,217,7784,1,0,0:0:0:0:
332,167,7884,2,0,L|457:68,1,126.666666666667,8|0,0:0|0:0,0:0:0:0:
356,62,8184,1,0,0:0:0:0:
66,245,8384,6,0,L|55:152,1,63.3333333333333,2|0,0:0|1:0,0:0:0:0:
200,170,8684,2,0,L|215:90,1,63.3333333333333,2|2,0:0|2:0,0:0:0:0:
363,169,8984,1,2,0:0:0:0:
290,151,9084,2,0,L|139:136,1,126.666666666667,8|0,0:0|0:0,0:0:0:0:
247,90,9384,2,0,L|322:83,2,63.3333333333333,2|0|0,0:0|0:0|0:0,0:0:0:0:
65,259,9684,6,0,P|59:183|157:110,1,190,0|2,1:0|0:0,0:0:0:0:
276,173,10184,1,0,0:0:0:0:
213,161,10284,2,0,L|74:139,1,126.666666666667,8|0,0:0|0:0,0:0:0:0:
167,106,10584,2,0,L|317:79,1,126.666666666667,2|0,0:0|0:0,0:0:0:0:
463,272,10884,6,0,L|469:113,1,126.666666666667,0|0,1:0|0:0,0:0:0:0:
397,136,11184,1,2,2:0:0:0:
258,139,11384,1,0,0:0:0:0:
200,114,11484,2,0,L|333:35,1,126.666666666667,8|0,0:0|0:0,0:0:0:0:
361,90,11784,2,0,L|241:16,1,126.666666666667,2|0,0:0|0:0,0:0:0:0:
81,106,12084,6,0,L|326:85,1,190,0|0,1:0|0:0,0:0:0:0:
149,256,12584,2,0,L|87:197,1,63.3333333333333,2|8,0:0|0:0,0:0:0:0:
384,251,12884,2,0,L|381:152,1,63.3333333333333,0|2,0:0|0:0,0:0:0:0:
255,153,13184,1,0,0:0:0:0:
451,186,13284,6,0,L|450:33,1,126.666666666667,0|0,1:0|0:0,0:0:0:0:
357,68,13584,2,0,L|266:63,2,63.3333333333333,2|0|0,2:0|0:0|0:0,0:0:0:0:
166,241,13884,2,0,P|129:188|186:157,1,126.666666666667,8|0,0:0|0:0,0:0:0:0:
232,96,14184,1,2,0:0:0:0:
345,61,14384,1,0,0:0:0:0:
97,263,14484,6,0,P|34:205|118:153,1,190,4|0,0:0|0:0,0:0:0:0:
223,100,14984,1,0,0:0:0:0:
163,91,15084,2,0,L|-2:30,1,126.666666666667,8|0,0:0|0:0,0:0:0:0:
94,179,15384,2,0,L|244:123,1,126.666666666667,2|0,0:0|0:0,0:0:0:0:
401,239,15684,6,0,L|403:96,1,126.666666666667,0|0,1:0|0:0,0:0:0:0:
335,110,15984,1,2,0:0:0:0:
185,113,16184,1,0,0:0:0:0:
235,114,16284,2,0,L|355:18,1,126.666666666667,8|0,0:0|0:0,0:0:0:0:
255,136,16584,2,0,L|124:60,1,126.666666666667,2|0,0:0|0:0,0:0:0:0:
317,243,16884,6,0,L|520:144,1,190,0|0,1:0|0:0,0:0:0:0:
306,89,17384,1,0,0:0:0:0:
235,307,17484,2,0,P|221:233|240:164,1,126.666666666667,8|0,0:0|0:0,0:0:0:0:
306,162,17784,1,0,0:0:0:0:
165,77,17984,1,2,0:0:0:0:
229,69,18084,6,0,L|386:63,1,126.666666666667,0|2,1:0|0:0,0:0:0:0:
415,62,18384,1,2,2:0:0:0:
254,275,18584,1,2,0:0:0:0:
199,218,18684,2,0,L|362:214,1,126.666666666667,8|0,0:0|0:0,0:0:0:0:
244,171,18984,1,2,0:0:0:0:
181,174,19084,1,0,0:0:0:0:
118,178,19184,1,0,0:0:0:0:
350,292,19284,6,0,P|404:238|320:151,1,190,0|2,1:0|0:0,0:0:0:0:
215,196,19784,1,2,0:0:0:0:
294,226,19884,2,0,L|298:48,1,126.666666666667,8|0,0:0|0:0,0:0:0:0:
225,70,20184,1,2,0:0:0:0:
113,62,20384,5,0,0:0:0:0:
175,58,20484,1,0,1:0:0:0:
437,80,20684,1,0,0:0:0:0:
375,76,20784,1,2,0:0:0:0:
233,222,20984,1,0,0:0:0:0:
59,216,21084,6,0,L|53:57,1,126.666666666667,8|0,0:0|0:0,0:0:0:0:
153,93,21384,2,0,L|292:40,1,126.666666666667,0|0,0:0|0:0,0:0:0:0:
106,255,21684,6,0,P|64:198|180:123,1,190,0|2,1:0|0:0,0:0:0:0:
279,174,22184,1,0,0:0:0:0:
342,144,22284,1,8,0:0:0:0:
50,228,22484,2,0,L|40:146,1,63.3333333333333,0|2,0:0|0:0,0:0:0:0:
205,115,22784,1,0,0:0:0:0:
390,266,22884,6,0,L|384:110,1,126.666666666667,0|0,1:0|0:0,0:0:0:0:
293,83,23184,2,0,L|204:80,3,63.3333333333333,2|0|0|0,2:0|0:0|0:0|1:0,0:0:0:0:
305,37,23584,2,0,L|409:26,1,63.3333333333333,0|0,1:0|1:0,0:0:0:0:
167,189,23784,2,0,L|87:189,2,63.3333333333333,0|0|0,1:0|1:0|1:0,0:0:0:0:
431,228,24084,6,0,L|297:225,1,126.666666666667,4|0,0:0|0:0,0:0:0:0:
225,200,24384,2,0,L|386:202,1,126.666666666667,8|0,0:0|0:0,0:0:0:0:
276,154,24684,2,0,L|118:148,1,126.666666666667,2|0,2:2|0:0,0:0:0:0:
367,93,24984,1,8,0:0:0:0:
229,292,25184,5,2,0:0:0:0:
154,281,25284,2,0,L|146:113,1,126.666666666667,0|0,1:0|3:0,0:0:0:0:
237,152,25584,2,0,L|394:55,1,126.666666666667,8|0,2:0|0:0,0:0:0:0:
116,180,25884,2,0,L|110:53,1,126.666666666667,2|0,1:1|2:0,0:0:0:0:
199,48,26184,1,8,2:2:0:0:
69,51,26384,1,2,2:0:0:0:
252,328,26484,5,4,1:0:0:0:
311,310,26584,1,0,0:0:0:0:
353,263,26684,1,0,0:0:0:0:
364,201,26784,1,8,1:0:0:0:
341,143,26884,1,0,0:0:0:0:
291,106,26984,1,0,0:0:0:0:
226,163,27084,6,0,L|105:160,2,63.3333333333333,2|0|0,1:0|2:0|2:0,0:0:0:0:
156,128,27384,2,0,L|35:125,2,63.3333333333333,8|0|0,1:0|1:0|1:0,0:0:0:0:
430,253,27684,6,0,P|435:148|407:76,1,126.666666666667,4|0,0:0|1:0,0:0:0:0:
339,138,27984,1,10,2:1:0:0:
78,103,28184,2,0,L|279:95,1,190,4|0,0:0|3:0,0:0:0:0:
191,243,28584,2,0,L|75:172,1,126.666666666667,10|2,0:1|0:0,0:0:0:0:
341,222,28884,5,4,0:0:0:0:
233,144,29084,2,0,L|221:69,1,63.3333333333333,0|8,2:0|0:0,0:0:0:0:
383,103,29384,2,0,L|174:103,1,190,2|0,0:0|3:0,0:0:0:0:
130,76,29784,1,8,0:0:0:0:
298,224,29984,1,0,0:0:0:0:
106,216,30084,6,0,L|78:77,1,126.666666666667,4|0,0:0|2:0,0:0:0:0:
144,71,30384,1,8,0:0:0:0:
439,220,30584,2,0,P|446:132|334:61,1,190,0|0,0:0|3:0,0:0:0:0:
305,136,30984,2,0,L|441:63,1,126.666666666667,8|0,0:0|1:0,0:0:0:0:
230,260,31284,5,2,1:0:0:0:
175,204,31484,1,0,1:0:0:0:
372,224,31584,2,0,L|374:85,1,126.666666666667,12|0,0:0|1:0,0:0:0:0:
177,169,31884,1,2,1:0:0:0:
122,113,32084,1,0,1:0:0:0:
332,190,32184,2,0,P|399:138|385:61,1,126.666666666667,12|0,0:0|1:0,0:0:0:0:
237,100,32484,6,0,L|137:102,2,63.3333333333333,0|0|0,1:0|2:0|2:0,0:0:0:0:
163,186,32784,2,0,L|63:188,2,63.3333333333333,8|0|0,0:0|0:0|0:0,0:0:0:0:
336,223,33084,6,0,L|436:225,2,63.3333333333333,0|0|0,1:0|0:0|1:0,0:0:0:0:
413,162,33384,2,0,L|513:164,2,63.3333333333333,0|0|0,1:0|1:0|1:0,0:0:0:0:
222,171,33684,6,0,L|112:100,1,126.666666666667,4|0,0:0|0:0,0:0:0:0:
193,85,33984,2,0,L|330:86,1,126.666666666667,8|0,0:0|0:0,0:0:0:0:
260,228,34284,2,0,L|119:152,1,126.666666666667,2|0,1:2|3:0,0:0:0:0:
359,196,34584,1,8,2:0:0:0:
238,301,34784,6,0,P|184:240|240:151,1,190,2|0,0:0|0:0,0:0:0:0:
309,136,35184,2,0,L|426:45,1,126.666666666667,8|0,0:0|0:0,0:0:0:0:
196,273,35484,2,0,L|188:134,1,126.666666666667,0|0,1:0|0:0,0:0:0:0:
268,128,35784,2,0,L|401:61,1,126.666666666667,8|0,0:0|0:0,0:0:0:0:
166,327,36084,5,0,1:0:0:0:
149,266,36184,1,0,0:0:0:0:
163,205,36284,1,0,0:0:0:0:
205,159,36384,1,8,0:0:0:0:
264,139,36484,1,0,0:0:0:0:
326,150,36584,1,0,0:0:0:0:
247,111,36684,6,0,L|183:105,2,63.3333333333333,0|0|0,1:0|0:0|0:0,0:0:0:0:
329,51,36984,1,8,1:0:0:0:
259,49,37084,1,0,1:0:0:0:
190,47,37184,1,0,1:0:0:0:
437,292,37284,6,0,L|439:157,1,126.666666666667,4|0,0:0|1:0,0:0:0:0:
347,148,37584,1,8,0:0:0:0:
52,132,37784,2,0,L|300:118,1,190,4|0,0:0|3:0,0:0:0:0:
172,89,38184,2,0,L|60:22,1,126.666666666667,8|2,0:0|0:0,0:0:0:0:
328,283,38484,6,0,B|369:233|369:233|310:184,1,126.666666666667,4|0,2:2|1:0,0:0:0:0:
252,183,38784,1,8,0:0:0:0:
399,255,38984,2,0,P|429:185|318:139,1,190,2|0,0:0|1:0,0:0:0:0:
256,118,39384,2,0,L|380:29,1,126.666666666667,8|2,0:0|0:0,0:0:0:0:
191,283,39684,6,0,P|141:221|142:159,1,126.666666666667,4|0,2:2|1:0,0:0:0:0:
190,100,39984,1,8,0:0:0:0:
455,114,40184,2,0,L|250:83,1,190,2|0,0:0|1:0,0:0:0:0:
219,75,40584,1,8,0:0:0:0:
106,71,40784,1,0,1:0:0:0:
283,259,40884,5,0,1:0:0:0:
332,182,41084,1,0,1:0:0:0:
153,228,41184,2,0,P|103:163|103:112,1,126.666666666667,12|2,0:0|2:0,0:0:0:0:
130,74,41484,1,0,1:0:0:0:
399,277,41684,1,0,2:0:0:0:
413,212,41784,2,0,P|388:136|366:79,1,126.666666666667,12|2,2:2|2:0,0:0:0:0:
187,130,42084,6,0,L|98:125,2,63.3333333333333,0|0|0,1:0|0:0|0:0,0:0:0:0:
251,133,42384,2,0,L|162:128,2,63.3333333333333,8|0|0,2:0|0:0|0:0,0:0:0:0:
315,136,42684,2,0,L|226:131,2,63.3333333333333,0|0|0,1:0|0:0|0:0,0:0:0:0:
394,134,42984,1,8,2:0:0:0:
452,134,43084,1,0,1:0:0:0:
394,134,43184,1,0,1:0:0:0:
209,227,43284,5,2,0:0:0:0:
346,172,47334,6,0,L|358:127,1,31.6666666666667,0|0,3:0|3:0,0:0:0:0:
309,172,47484,2,0,L|167:160,1,126.666666666667,8|8,0:0|0:0,0:0:0:0:
257,111,47784,2,0,L|424:92,1,126.666666666667,0|0,1:0|0:0,0:0:0:0:
151,274,48084,6,0,P|88:233|175:178,1,190,4|2,0:0|0:0,0:0:0:0:
279,147,48584,1,0,0:0:0:0:
201,278,48684,2,0,L|192:123,1,126.666666666667,8|0,0:0|0:0,0:0:0:0:
289,250,48984,2,0,L|277:90,1,126.666666666667,2|0,0:0|0:0,0:0:0:0:
193,129,49284,5,0,1:0:0:0:
93,54,49484,2,0,L|167:32,1,63.3333333333333,0|2,0:0|0:0,0:0:0:0:
274,66,49784,1,0,0:0:0:0:
218,160,49884,2,0,L|104:90,1,126.666666666667,8|0,0:0|0:0,0:0:0:0:
179,117,50184,2,0,L|330:70,1,126.666666666667,2|0,0:0|0:0,0:0:0:0:
119,287,50484,6,0,L|116:51,1,190,0|2,1:0|0:0,0:0:0:0:
295,122,50984,1,0,0:0:0:0:
329,70,51084,2,0,L|208:146,1,126.666666666667,8|0,0:0|0:0,0:0:0:0:
157,115,51384,1,0,0:0:0:0:
434,144,51584,6,0,L|423:32,1,63.3333333333333,2|0,0:0|1:0,0:0:0:0:
268,200,51884,2,0,L|165:169,1,63.3333333333333,0|2,0:0|2:0,0:0:0:0:
395,209,52184,1,0,0:0:0:0:
435,127,52284,2,0,L|298:114,1,126.666666666667,8|0,0:0|0:0,0:0:0:0:
233,103,52584,2,0,L|133:81,2,63.3333333333333,2|0|0,0:0|0:0|0:0,0:0:0:0:
461,255,52884,6,0,P|453:158|339:128,1,190,0|2,1:0|0:0,0:0:0:0:
246,251,53384,1,0,0:0:0:0:
305,222,53484,2,0,L|420:144,1,126.666666666667,8|0,0:0|0:0,0:0:0:0:
325,117,53784,2,0,L|192:78,1,126.666666666667,2|0,0:0|0:0,0:0:0:0:
424,263,54084,6,0,L|416:94,1,126.666666666667,0|0,1:0|0:0,0:0:0:0:
336,128,54384,1,2,0:0:0:0:
174,177,54584,1,0,0:0:0:0:
93,293,54684,2,0,L|83:147,1,126.666666666667,8|0,0:0|0:0,0:0:0:0:
177,187,54984,2,0,L|170:49,1,126.666666666667,2|0,0:0|0:0,0:0:0:0:
374,284,55284,6,0,P|416:210|338:103,1,190,0|2,1:0|0:0,0:0:0:0:
253,79,55784,2,0,L|363:62,1,63.3333333333333,2|8,0:0|0:0,0:0:0:0:
30,261,56084,2,0,L|24:150,1,63.3333333333333,0|2,0:0|0:0,0:0:0:0:
167,168,56384,1,0,0:0:0:0:
338,201,56484,6,0,L|475:169,1,126.666666666667,0|2,1:0|0:0,0:0:0:0:
389,128,56784,2,0,L|276:112,2,63.3333333333333,2|0|2,0:0|0:0|0:0,0:0:0:0:
228,223,57084,2,0,L|79:178,1,126.666666666667,8|0,0:0|0:0,0:0:0:0:
151,128,57384,1,2,0:0:0:0:
281,88,57584,1,0,0:0:0:0:
96,308,57684,6,0,L|82:87,1,190,4|2,0:0|0:0,0:0:0:0:
269,204,58184,1,0,0:0:0:0:
312,158,58284,2,0,L|168:106,1,126.666666666667,8|0,0:0|0:0,0:0:0:0:
127,139,58584,2,0,L|271:87,1,126.666666666667,2|0,0:0|0:0,0:0:0:0:
86,289,58884,6,0,L|81:142,1,126.666666666667,0|0,1:0|0:0,0:0:0:0:
162,138,59184,1,2,0:0:0:0:
302,108,59384,1,0,0:0:0:0:
353,273,59484,2,0,L|351:135,1,126.666666666667,8|0,0:0|0:0,0:0:0:0:
268,134,59784,2,0,L|97:97,1,126.666666666667,2|0,0:0|0:0,0:0:0:0:
380,284,60084,6,0,P|425:207|331:121,1,190,0|0,1:0|0:0,0:0:0:0:
243,130,60584,1,2,0:0:0:0:
179,84,60684,2,0,L|322:74,1,126.666666666667,8|0,0:0|0:0,0:0:0:0:
367,70,60984,1,0,0:0:0:0:
244,250,61184,5,2,0:0:0:0:
77,275,61284,2,0,L|73:137,1,126.666666666667,0|0,1:0|0:0,0:0:0:0:
123,123,61584,1,2,2:0:0:0:
258,152,61784,1,0,0:0:0:0:
328,178,61884,2,0,L|326:29,1,126.666666666667,8|0,0:0|0:0,0:0:0:0:
249,50,62184,1,2,0:0:0:0:
185,51,62284,1,0,0:0:0:0:
122,53,62384,1,0,0:0:0:0:
385,304,62484,6,0,P|445:229|367:172,1,190,0|2,1:0|0:0,0:0:0:0:
246,179,62984,1,2,0:0:0:0:
196,309,63084,2,0,L|185:152,1,126.666666666667,8|0,0:0|0:0,0:0:0:0:
258,130,63384,1,2,0:0:0:0:
398,73,63584,6,0,L|329:54,1,63.3333333333333,0|0,0:0|1:0,0:0:0:0:
193,73,63884,2,0,L|130:84,1,63.3333333333333,0|2,0:0|2:0,0:0:0:0:
279,226,64184,1,0,0:0:0:0:
456,236,64284,2,0,L|457:99,1,126.666666666667,8|0,0:0|0:0,0:0:0:0:
377,99,64584,2,0,L|219:78,1,126.666666666667,0|0,0:0|0:0,0:0:0:0:
428,283,64884,6,0,P|481:227|393:156,1,190,0|2,1:0|0:0,0:0:0:0:
281,144,65384,1,2,0:0:0:0:
338,102,65484,1,8,0:0:0:0:
81,189,65684,2,0,L|71:88,1,63.3333333333333,0|2,0:0|0:0,0:0:0:0:
179,87,65984,1,0,0:0:0:0:
342,265,66084,6,0,L|348:102,1,126.666666666667,0|2,1:0|0:0,0:0:0:0:
263,280,66384,1,2,0:0:0:0:
208,255,66484,1,0,0:0:0:0:
205,195,66584,1,2,0:0:0:0:
257,164,66684,1,8,0:0:0:0:
339,126,66784,2,0,L|244:119,1,63.3333333333333,0|0,3:0|3:0,0:0:0:0:
116,115,66984,2,0,L|13:71,2,63.3333333333333,8|8|8,0:0|2:0|2:0,0:0:0:0:
358,280,67284,6,0,L|374:154,1,126.666666666667,4|0,0:0|0:0,0:0:0:0:
204,156,67584,1,8,1:0:0:0:
74,184,67784,1,2,1:0:0:0:
30,140,67884,2,0,P|44:50|96:24,1,126.666666666667,0|0,0:0|1:0,0:0:0:0:
145,128,68184,2,0,L|251:111,2,63.3333333333333,8|0|0,0:0|0:0|0:0,0:0:0:0:
321,182,68484,6,0,L|487:177,1,126.666666666667,4|0,2:0|1:0,0:0:0:0:
424,124,68784,1,8,2:0:0:0:
166,280,68984,1,2,1:0:0:0:
130,246,69084,2,0,P|138:148|159:121,1,126.666666666667,0|0,0:0|1:0,0:0:0:0:
233,83,69384,2,0,L|136:77,2,63.3333333333333,8|0|0,0:0|0:0|0:0,0:0:0:0:
312,91,69684,5,0,1:0:0:0:
139,209,69884,1,2,2:0:0:0:
313,213,70084,1,2,2:0:0:0:
42,253,70284,2,0,P|37:164|91:118,1,126.666666666667,2|0,0:0|0:0,0:0:0:0:
120,138,70584,2,0,L|39:137,2,63.3333333333333,8|0|0,0:0|0:0|0:0,0:0:0:0:
310,185,70884,6,0,L|448:161,1,126.666666666667,2|0,1:0|1:0,0:0:0:0:
369,122,71184,1,8,1:0:0:0:
77,172,71384,2,0,P|62:73|155:61,1,190,2|0,1:0|1:0,0:0:0:0:
203,73,71784,2,0,L|69:0,1,126.666666666667,8|0,0:0|0:0,0:0:0:0:
280,232,72084,6,0,L|408:160,1,126.666666666667,4|0,0:0|0:0,0:0:0:0:
440,128,72384,2,0,L|360:96,1,63.3333333333333,8|0,0:0|0:0,0:0:0:0:
212,261,72584,2,0,P|196:186|220:133,1,126.666666666667,0|2,0:0|0:0,0:0:0:0:
302,124,72884,2,0,L|382:84,1,63.3333333333333,0|8,0:0|0:0,0:0:0:0:
276,53,73084,2,0,L|188:29,1,63.3333333333333,0|0,0:0|0:0,0:0:0:0:
455,288,73284,6,0,P|460:211|425:148,1,126.666666666667,4|0,0:0|0:0,0:0:0:0:
359,162,73584,2,0,L|260:151,1,63.3333333333333,8|0,0:0|0:0,0:0:0:0:
119,149,73784,2,0,P|135:59|173:46,1,126.666666666667,0|0,0:0|0:0,0:0:0:0:
240,45,74084,1,0,0:0:0:0:
177,35,74184,1,8,0:0:0:0:
114,26,74284,1,0,0:0:0:0:
52,17,74384,1,0,0:0:0:0:
234,290,74484,5,2,0:0:0:0:
269,240,74584,1,0,0:0:0:0:
250,182,74684,1,0,1:0:0:0:
80,224,74784,1,12,0:0:0:0:
49,171,74884,1,0,0:0:0:0:
75,115,74984,1,0,0:0:0:0:
153,101,75084,5,2,0:0:0:0:
215,90,75184,1,0,0:0:0:0:
277,79,75284,1,0,1:0:0:0:
118,244,75384,1,12,0:0:0:0:
83,194,75484,1,0,0:0:0:0:
102,136,75584,1,0,0:0:0:0:
280,161,75684,6,0,L|373:139,2,63.3333333333333,0|0|0,1:0|0:0|1:0,0:0:0:0:
193,160,75984,2,0,L|100:138,2,63.3333333333333,8|0|0,0:0|0:0|1:0,0:0:0:0:
280,161,76284,2,0,L|293:116,4,31.6666666666667,2|0|0|0|0,0:0|0:0|0:0|0:0|0:0,0:0:0:0:
117,108,76584,2,0,L|36:99,2,63.3333333333333,8|8|8,0:0|0:0|0:0,0:0:0:0:
374,290,76884,6,0,P|430:235|346:177,1,190,4|8,0:0|1:0,0:0:0:0:
219,159,77384,1,0,0:0:0:0:
277,125,77484,2,0,L|392:48,1,126.666666666667,2|0,1:0|1:0,0:0:0:0:
444,27,77784,1,8,0:0:0:0:
124,277,77984,5,0,1:0:0:0:
82,244,78084,2,0,P|75:181|206:81,1,190,4|8,2:0|0:0,0:0:0:0:
282,120,78584,1,2,0:0:0:0:
223,115,78684,2,0,L|92:48,1,126.666666666667,2|0,2:2|0:0,0:0:0:0:
189,43,78984,2,0,L|269:31,2,63.3333333333333,8|0|0,0:0|0:0|0:0,0:0:0:0:
369,166,79284,6,0,L|449:154,2,63.3333333333333,2|0|0,0:0|0:0|0:0,0:0:0:0:
296,178,79584,2,0,L|376:166,2,63.3333333333333,8|0|0,0:0|0:0|0:0,0:0:0:0:
213,186,79884,2,0,L|68:207,1,126.666666666667,2|0,0:0|0:0,0:0:0:0:
156,127,80184,1,8,0:0:0:0:
218,116,80284,1,0,0:0:0:0:
280,106,80384,1,0,0:0:0:0:
66,297,80484,6,0,P|53:221|108:183,1,126.666666666667,4|0,1:2|1:0,0:0:0:0:
153,177,80784,1,8,0:0:0:0:
412,145,80984,2,0,L|191:115,1,190,4|0,0:0|1:0,0:0:0:0:
295,75,81384,2,0,L|428:43,1,126.666666666667,8|0,0:0|1:0,0:0:0:0:
190,335,81684,5,4,0:0:0:0:
130,315,81784,1,0,0:0:0:0:
91,267,81884,1,0,0:0:0:0:
84,205,81984,1,8,0:0:0:0:
111,149,82084,1,0,0:0:0:0:
165,117,82184,1,0,1:0:0:0:
242,109,82284,6,0,L|338:88,2,63.3333333333333,0|0|0,2:0|0:0|0:0,0:0:0:0:
165,117,82584,2,0,L|69:96,2,63.3333333333333,8|0|0,0:0|0:0|2:0,0:0:0:0:
236,137,82884,5,0,0:0:0:0:
393,90,82984,2,0,L|342:8,1,63.3333333333333,0|0,0:0|1:0,0:0:0:0:
269,52,83184,2,0,L|179:40,2,63.3333333333333,8|0|0,0:0|0:0|1:0,0:0:0:0:
349,265,83484,5,0,1:0:0:0:
390,220,83584,1,0,0:0:0:0:
374,161,83684,1,0,1:0:0:0:
319,119,83784,1,8,0:0:0:0:
242,99,83884,1,0,1:0:0:0:
171,137,83984,1,0,0:0:0:0:
363,263,84084,5,0,1:0:0:0:
391,187,84284,1,0,1:0:0:0:
216,218,84384,2,0,L|208:73,1,126.666666666667,12|0,0:0|0:0,0:0:0:0:
304,76,84684,5,0,1:0:0:0:
22,210,84884,2,0,L|46:18,1,190,12|0,0:0|0:0,0:0:0:0:
260,225,85284,6,0,L|377:172,1,126.666666666667,4|0,0:0|1:0,0:0:0:0:
288,144,85584,2,0,L|159:92,2,126.666666666667,4|0|0,0:0|1:0|0:0,0:0:0:0:
354,157,86084,2,0,L|346:73,1,63.3333333333333,8|8,0:0|0:0,0:0:0:0:
270,70,86284,2,0,L|188:52,1,63.3333333333333,0|0,0:0|0:0,0:0:0:0:
417,253,86484,6,0,P|441:179|406:128,1,126.666666666667,4|0,0:0|0:0,0:0:0:0:
345,147,86784,2,0,L|212:86,1,126.666666666667,8|0,0:0|0:0,0:0:0:0:
298,55,87084,2,0,L|432:-5,1,126.666666666667,2|2,2:0|0:0,0:0:0:0:
246,295,87384,1,8,0:0:0:0:
104,294,87584,5,2,0:0:0:0:
52,258,87684,2,0,L|79:108,1,126.666666666667,0|0,1:0|0:0,0:0:0:0:
156,124,87984,2,0,L|303:108,1,126.666666666667,8|0,0:0|0:0,0:0:0:0:
109,248,88284,2,0,L|101:96,1,126.666666666667,0|2,1:0|0:0,0:0:0:0:
178,106,88584,2,0,L|319:80,1,126.666666666667,8|2,2:0|0:0,0:0:0:0:
119,310,88884,5,0,1:0:0:0:
64,279,88984,1,0,0:0:0:0:
40,222,89084,1,0,0:0:0:0:
57,162,89184,1,8,2:0:0:0:
107,125,89284,1,0,0:0:0:0:
169,127,89384,1,0,0:0:0:0:
271,123,89484,5,0,1:0:0:0:
208,115,89584,1,0,0:0:0:0:
145,108,89684,1,0,0:0:0:0:
222,84,89784,1,8,0:0:0:0:
284,76,89884,1,0,0:0:0:0:
347,69,89984,1,0,0:0:0:0:
152,280,90084,6,0,P|92:243|85:182,1,126.666666666667,4|0,0:0|1:0,0:0:0:0:
128,147,90384,1,10,2:1:0:0:
425,186,90584,2,0,L|225:60,1,190,4|0,0:0|3:0,0:0:0:0:
327,73,90984,2,0,L|460:10,1,126.666666666667,10|2,0:1|0:0,0:0:0:0:
269,299,91284,6,0,P|239:277|140:257,1,126.666666666667,4|0,0:0|1:0,0:0:0:0:
215,219,91584,1,8,0:0:0:0:
65,218,91784,2,0,P|46:153|160:63,1,190,2|0,0:0|1:0,0:0:0:0:
208,75,92184,2,0,L|334:55,1,126.666666666667,8|2,0:0|0:0,0:0:0:0:
143,275,92484,6,0,L|142:134,1,126.666666666667,4|0,0:0|1:0,0:0:0:0:
195,130,92784,1,8,0:0:0:0:
468,269,92984,2,0,P|484:190|369:146,1,190,2|0,0:0|1:0,0:0:0:0:
346,100,93384,2,0,L|455:-8,1,126.666666666667,8|2,0:0|0:0,0:0:0:0:
247,263,93684,5,2,0:0:0:0:
192,207,93884,1,0,1:0:0:0:
372,224,93984,2,0,L|374:85,1,126.666666666667,12|0,0:0|1:0,0:0:0:0:
177,169,94284,1,2,0:0:0:0:
122,113,94484,1,0,1:0:0:0:
289,116,94584,2,0,P|367:107|425:69,1,126.666666666667,12|0,0:0|1:0,0:0:0:0:
246,234,94884,5,0,1:0:0:0:
175,231,94984,1,0,0:0:0:0:
106,230,95084,1,0,2:0:0:0:
185,174,95184,1,8,2:0:0:0:
254,172,95284,1,0,0:0:0:0:
325,172,95384,1,0,0:0:0:0:
153,245,95484,5,0,1:0:0:0:
112,179,95584,1,0,0:0:0:0:
148,118,95684,1,0,0:0:0:0:
224,104,95784,1,8,0:0:0:0:
293,100,95884,1,8,0:0:0:0:
362,97,95984,1,8,1:0:0:0:
138,272,96084,6,0,L|126:134,1,126.666666666667,4|2,0:0|0:0,0:0:0:0:
208,147,96384,2,0,L|346:71,1,126.666666666667,8|2,0:0|0:0,0:0:0:0:
231,81,96684,2,0,L|93:10,1,126.666666666667,0|2,1:0|0:0,0:0:0:0:
285,244,96984,1,8,0:0:0:0:
406,166,97184,6,0,L|188:151,1,190,0|0,0:0|0:0,0:0:0:0:
158,152,97584,1,8,0:0:0:0:
288,71,97784,1,0,0:0:0:0:
479,255,97884,2,0,L|476:124,1,126.666666666667,2|2,0:0|0:0,0:0:0:0:
404,118,98184,2,0,L|256:49,1,126.666666666667,8|0,0:0|0:0,0:0:0:0:
83,307,98484,5,0,1:0:0:0:
73,244,98584,1,0,0:0:0:0:
91,184,98684,1,0,0:0:0:0:
132,137,98784,1,8,0:0:0:0:
190,112,98884,1,0,0:0:0:0:
253,113,98984,1,0,0:0:0:0:
176,65,99084,6,0,L|109:57,2,63.3333333333333,0|0|0,1:0|0:0|0:0,0:0:0:0:
252,63,99384,2,0,L|319:55,2,63.3333333333333,8|0|0,0:0|0:0|1:0,0:0:0:0:
469,277,99684,6,0,P|468:193|424:131,1,126.666666666667,4|0,0:0|1:0,0:0:0:0:
376,141,99984,1,8,0:0:0:0:
99,156,100184,2,0,L|298:93,1,190,4|0,0:0|1:0,0:0:0:0:
210,74,100584,2,0,L|95:10,1,126.666666666667,8|2,0:0|2:0,0:0:0:0:
292,235,100884,6,0,P|364:168|356:136,1,126.666666666667,4|0,0:0|1:0,0:0:0:0:
320,113,101184,1,8,0:0:0:0:
115,294,101384,2,0,P|58:234|132:134,1,190,2|0,0:0|1:0,0:0:0:0:
185,97,101784,1,8,0:0:0:0:
310,46,101984,1,2,0:0:0:0:
115,294,102084,6,0,L|110:158,1,126.666666666667,4|0,0:0|1:0,0:0:0:0:
177,159,102384,1,8,0:0:0:0:
441,134,102584,2,0,L|229:50,1,190,2|0,0:0|1:0,0:0:0:0:
199,44,102984,1,8,0:0:0:0:
320,246,103184,1,0,1:0:0:0:
129,267,103284,5,0,1:0:0:0:
82,171,103484,1,2,1:0:0:0:
242,196,103584,2,0,L|244:59,1,126.666666666667,12|0,2:0|1:0,0:0:0:0:
173,52,103884,1,0,1:0:0:0:
459,193,104084,1,2,1:0:0:0:
472,119,104184,2,0,P|434:69|363:59,1,126.666666666667,12|0,2:0|1:0,0:0:0:0:
162,138,104484,6,0,L|62:131,2,63.3333333333333,0|0|0,1:0|0:0|1:0,0:0:0:0:
225,142,104784,2,0,L|125:135,2,63.3333333333333,8|0|0,0:0|0:0|0:0,0:0:0:0:
288,146,105084,6,0,L|188:139,2,63.3333333333333,8|0|0,1:0|0:0|1:0,0:0:0:0:
371,150,105384,1,2,0:0:0:0:
420,120,105484,1,0,0:0:0:0:
351,105,105584,1,0,0:0:0:0:
159,257,105684,5,2,0:0:0:0:
256,192,105884,12,0,105909,0:0:0:0:
256,192,105984,12,0,106009,0:0:0:0:
256,192,106184,12,0,106209,0:0:0:0:
256,192,106284,12,0,106309,0:0:0:0:
256,192,106484,12,0,106509,0:0:0:0:
256,192,106584,12,0,106609,0:0:0:0:
256,192,106784,12,0,106809,0:0:0:0:
256,192,106884,12,0,106909,0:0:0:0:
256,192,107084,12,0,107109,0:0:0:0:
256,192,107184,12,0,107209,0:0:0:0:
256,192,107384,12,0,107409,0:0:0:0:
256,192,107484,12,0,107509,0:0:0:0:
256,192,107684,12,0,107709,0:0:0:0:
256,192,107784,12,0,107809,0:0:0:0:
256,192,107984,12,0,108009,0:0:0:0:
256,192,108084,12,0,108109,0:0:0:0:
256,192,108284,12,0,108309,0:0:0:0:
256,192,108384,12,0,108409,0:0:0:0:
256,192,108584,12,0,108609,0:0:0:0:
256,192,108684,12,0,108709,0:0:0:0:
256,192,108884,12,0,108909,0:0:0:0:
256,192,108984,12,0,109009,0:0:0:0:
256,192,109184,12,0,109209,0:0:0:0:
256,192,109284,12,0,109309,0:0:0:0:
256,192,109484,12,0,109509,0:0:0:0:
256,192,109584,12,0,109609,0:0:0:0:
256,192,109784,12,0,109809,0:0:0:0:
256,192,109884,12,0,109909,0:0:0:0:
256,192,110084,12,0,110109,0:0:0:0:
256,192,110184,12,0,110209,0:0:0:0:
256,192,110384,12,0,110409,0:0:0:0:
256,192,110484,12,0,110509,0:0:0:0:
256,192,110684,12,0,110709,0:0:0:0:
256,192,110784,12,0,110809,0:0:0:0:
256,192,110984,12,0,111009,0:0:0:0:
256,192,111084,12,0,111109,0:0:0:0:
256,192,111284,12,0,111309,0:0:0:0:
256,192,111384,12,0,111409,0:0:0:0:
256,192,111584,12,0,111609,0:0:0:0:
256,192,111684,12,0,111709,0:0:0:0:
256,192,111884,12,0,111909,0:0:0:0:
256,192,111984,12,0,112009,0:0:0:0:
256,192,112184,12,0,112209,0:0:0:0:
256,192,112284,12,0,112309,0:0:0:0:
256,192,112484,12,0,112509,0:0:0:0:
256,192,112584,12,0,112609,0:0:0:0:
167,93,112884,6,0,L|287:131,1,126.666666666667,2|0,0:0|0:0,0:0:0:0:
337,71,113184,2,0,L|205:29,1,126.666666666667,2|0,0:0|0:0,0:0:0:0:
167,93,113484,2,0,L|287:131,1,126.666666666667,2|0,0:0|0:0,0:0:0:0:
337,71,113784,2,0,L|205:29,1,126.666666666667,2|0,0:0|0:0,0:0:0:0:
0,125,114084,1,2,0:0:0:0:
