osu file format v14

[General]
AudioFilename: audio.mp3
AudioLeadIn: 0
PreviewTime: -1
Countdown: 1
SampleSet: Soft
StackLeniency: 0.7
Mode: 0
LetterboxInBreaks: 0
WidescreenStoryboard: 0

[Editor]
Bookmarks: 44084
DistanceSpacing: 1.5
BeatDivisor: 3
GridSize: 8
TimelineZoom: 1.6

[Metadata]
Title:PIZZA PLAZA
TitleUnicode:PIZZA PLAZA
Artist:OISHII
ArtistUnicode:OISHII
Creator:Kaplan
Version:PIZZA
Source:
Tags:
BeatmapID:1425208
BeatmapSetID:673412

[Difficulty]
HPDrainRate:5
CircleSize:4
OverallDifficulty:8
ApproachRate:9.6
SliderMultiplier:1.4
SliderTickRate:1

[Events]
//Background and Video events
0,0,"__original_drawn_by_mito_itsuki__de9802515615076fbf45ca7ffc997412.png",0,0
//Break Periods
//Storyboard Layer 0 (Background)
//Storyboard Layer 1 (Fail)
//Storyboard Layer 2 (Pass)
//Storyboard Layer 3 (Foreground)
//Storyboard Sound Samples

[TimingPoints]
84,300,4,2,0,100,1,0
24084,-100,4,2,0,100,0,1
41484,-66.6666666666667,4,2,0,100,0,1
41784,-100,4,2,0,100,0,1
43284,-100,4,2,0,100,0,0
67284,-100,4,2,0,100,0,1
84084,-133.333333333333,4,2,0,100,0,1
85284,-66.6666666666667,4,2,0,100,0,1
85584,-100,4,2,0,100,0,1
91784,-133.333333333333,4,2,0,100,0,1
92984,-66.6666666666667,4,2,0,100,0,1
93355,-100,4,2,0,100,0,1
105684,-100,4,2,0,100,0,0

[HitObjects]
120,112,84,5,0,0:0:0:0:
200,56,284,1,0,0:0:0:0:
224,56,384,1,0,0:0:0:0:
288,112,584,1,0,0:0:0:0:
288,136,684,1,0,0:0:0:0:
224,192,884,5,0,0:0:0:0:
200,192,984,1,0,0:0:0:0:
136,248,1184,1,0,0:0:0:0:
136,280,1284,1,0,0:0:0:0:
200,336,1484,5,0,0:0:0:0:
224,336,1584,1,0,0:0:0:0:
288,280,1784,1,0,0:0:0:0:
288,256,1884,1,0,0:0:0:0:
336,184,2084,6,0,L|384:184,1,46.6666666666667
416,256,2384,2,0,L|416:304,1,46.6666666666667
312,256,2684,5,0,0:0:0:0:
328,208,2784,1,0,0:0:0:0:
184,152,2984,1,0,0:0:0:0:
168,200,3084,1,0,0:0:0:0:
200,256,3284,5,0,0:0:0:0:
184,208,3384,1,0,0:0:0:0:
328,152,3584,1,0,0:0:0:0:
344,200,3684,1,0,0:0:0:0:
56,312,3884,5,0,0:0:0:0:
56,256,3984,1,0,0:0:0:0:
200,312,4184,1,0,0:0:0:0:
200,240,4284,1,0,0:0:0:0:
328,312,4484,5,0,0:0:0:0:
328,224,4584,1,0,0:0:0:0:
48,72,4884,6,0,P|48:160|128:208,1,186.666666666667
168,256,5384,2,0,P|247:103|144:48,1,326.666666666667
272,208,6284,5,0,0:0:0:0:
312,136,6384,1,0,0:0:0:0:
312,296,6584,1,0,0:0:0:0:
352,224,6684,1,0,0:0:0:0:
416,128,6984,6,0,P|384:56|352:48,1,93.3333333333333
304,64,7284,2,0,B|288:144|216:136|136:184|192:288,1,280
360,104,8384,5,0,0:0:0:0:
288,48,8484,1,0,0:0:0:0:
352,200,8684,5,0,0:0:0:0:
280,144,8784,1,0,0:0:0:0:
96,160,8984,1,0,0:0:0:0:
184,184,9084,2,0,P|232:304|344:296,1,233.333333333333
392,200,9684,6,0,P|368:112|304:88,2,140
144,136,11084,5,0,0:0:0:0:
224,80,11184,1,0,0:0:0:0:
192,216,11384,5,0,0:0:0:0:
112,272,11484,1,0,0:0:0:0:
248,296,11784,5,0,0:0:0:0:
336,224,12084,2,0,P|368:160|336:80,1,140
48,168,12584,2,0,P|80:240|152:256,1,140
120,48,12984,1,0,0:0:0:0:
304,312,13184,1,0,0:0:0:0:
224,272,13284,6,0,L|264:184,1,93.3333333333333
304,112,13584,1,0,0:0:0:0:
360,184,13784,1,0,0:0:0:0:
368,264,14084,2,0,L|200:256,1,140
136,304,14484,6,0,P|104:216|120:112,1,186.666666666667
160,72,14984,2,0,P|236:147|184:344,1,326.666666666667
144,288,15884,5,0,0:0:0:0:
224,224,15984,1,0,0:0:0:0:
368,288,16184,5,0,0:0:0:0:
288,224,16284,1,0,0:0:0:0:
256,144,16584,1,0,0:0:0:0:
168,144,16884,2,0,P|256:48|344:144,1,280
176,144,17984,5,0,0:0:0:0:
112,80,18084,1,0,0:0:0:0:
336,144,18284,5,0,0:0:0:0:
392,80,18384,1,0,0:0:0:0:
120,240,18584,1,0,0:0:0:0:
56,184,18684,2,0,P|80:80|208:72,1,233.333333333333
352,160,19284,6,0,P|352:120|320:40,1,93.3333333333333
344,208,19584,1,0,0:0:0:0:
312,272,19784,2,0,P|232:304|40:176,1,326.666666666667
144,136,20684,5,0,0:0:0:0:
224,80,20784,1,0,0:0:0:0:
192,216,20984,5,0,0:0:0:0:
112,272,21084,1,0,0:0:0:0:
248,296,21384,5,0,0:0:0:0:
336,224,21684,2,0,P|368:160|344:104,1,105
320,88,21984,1,0,0:0:0:0:
224,168,22184,1,0,0:0:0:0:
144,64,22484,1,0,0:0:0:0:
112,136,22584,1,0,0:0:0:0:
192,232,22784,6,0,L|320:160,1,140
304,160,23184,6,0,L|200:96,1,105
136,72,23484,1,0,0:0:0:0:
96,128,23584,1,0,0:0:0:0:
112,192,23684,1,0,0:0:0:0:
176,216,23784,1,0,0:0:0:0:
240,192,23884,1,0,0:0:0:0:
256,128,23984,1,0,0:0:0:0:
224,72,24084,1,0,0:0:0:0:
312,232,24284,5,0,0:0:0:0:
384,176,24384,2,0,P|384:96|360:80,1,93.3333333333333
304,56,24684,1,0,0:0:0:0:
192,72,24884,5,0,0:0:0:0:
120,96,24984,2,0,P|88:160|96:192,1,93.3333333333333
136,256,25284,1,0,0:0:0:0:
320,224,25484,5,0,0:0:0:0:
152,104,25784,1,0,0:0:0:0:
88,192,25884,1,0,0:0:0:0:
352,192,26084,2,0,L|304:128,1,46.6666666666667
384,80,26384,1,0,0:0:0:0:
360,56,26484,5,0,0:0:0:0:
328,48,26584,1,0,0:0:0:0:
296,56,26684,1,0,0:0:0:0:
264,72,26784,5,0,0:0:0:0:
248,104,26884,1,0,0:0:0:0:
232,136,26984,1,0,0:0:0:0:
208,160,27084,5,0,0:0:0:0:
176,168,27184,1,0,0:0:0:0:
144,168,27284,1,0,0:0:0:0:
112,152,27384,5,0,0:0:0:0:
96,120,27484,1,0,0:0:0:0:
96,88,27584,1,0,0:0:0:0:
136,200,27684,2,0,P|96:264|96:264,1,46.6666666666667
296,312,27884,1,0,0:0:0:0:
224,176,27984,1,0,0:0:0:0:
296,216,28184,2,0,L|368:264,1,46.6666666666667
344,96,28484,6,0,L|280:88,1,46.6666666666667
184,72,28784,1,0,0:0:0:0:
144,136,28884,1,0,0:0:0:0:
392,192,29084,1,0,0:0:0:0:
344,80,29184,1,0,0:0:0:0:
168,264,29384,2,0,L|296:256,1,93.3333333333333
264,176,29684,5,0,0:0:0:0:
192,176,29784,1,0,0:0:0:0:
392,192,29984,5,0,0:0:0:0:
344,80,30084,1,0,0:0:0:0:
72,192,30284,5,0,0:0:0:0:
136,112,30384,1,0,0:0:0:0:
264,272,30584,2,0,P|360:240|384:168,1,140
384,104,30984,1,0,0:0:0:0:
240,40,31184,5,0,0:0:0:0:
144,88,31284,2,0,L|56:144,1,93.3333333333333
104,272,31584,1,0,0:0:0:0:
488,200,31784,5,0,0:0:0:0:
408,112,31884,2,0,L|304:168,1,93.3333333333333
232,256,32184,1,0,0:0:0:0:
104,168,32384,5,0,0:0:0:0:
72,152,32484,5,0,0:0:0:0:
56,120,32584,1,0,0:0:0:0:
64,88,32684,1,0,0:0:0:0:
96,72,32784,5,0,0:0:0:0:
128,80,32884,1,0,0:0:0:0:
152,104,32984,1,0,0:0:0:0:
184,88,33084,5,0,0:0:0:0:
216,104,33184,1,0,0:0:0:0:
248,88,33284,1,0,0:0:0:0:
280,104,33384,5,0,0:0:0:0:
304,136,33484,1,0,0:0:0:0:
296,168,33584,1,0,0:0:0:0:
280,192,33684,6,0,P|249:225|257:270,1,93.3333333333333
280,288,33984,1,0,0:0:0:0:
432,232,34184,5,0,0:0:0:0:
472,136,34284,2,0,P|400:96|352:88,1,93.3333333333333
264,88,34584,1,0,0:0:0:0:
160,232,34784,5,0,0:0:0:0:
56,176,34884,2,0,P|128:128|168:128,1,93.3333333333333
40,56,35184,1,0,0:0:0:0:
368,224,35384,5,0,0:0:0:0:
456,128,35484,1,0,0:0:0:0:
288,152,35684,5,0,0:0:0:0:
400,288,35784,1,0,0:0:0:0:
72,208,35984,1,0,0:0:0:0:
40,160,36084,5,0,0:0:0:0:
56,104,36184,1,0,0:0:0:0:
112,88,36284,1,0,0:0:0:0:
168,96,36384,5,0,0:0:0:0:
216,128,36484,1,0,0:0:0:0:
240,176,36584,1,0,0:0:0:0:
296,192,36684,5,0,0:0:0:0:
344,160,36784,1,0,0:0:0:0:
360,104,36884,1,0,0:0:0:0:
336,56,36984,5,0,0:0:0:0:
288,24,37084,1,0,0:0:0:0:
232,32,37184,1,0,0:0:0:0:
184,64,37284,6,0,P|152:128|160:152,1,93.3333333333333
192,192,37584,1,0,0:0:0:0:
184,208,37784,2,0,P|248:232|320:192,1,140
456,320,38184,1,0,0:0:0:0:
128,136,38384,1,0,0:0:0:0:
240,80,38484,5,0,0:0:0:0:
352,200,38684,1,0,0:0:0:0:
272,256,38784,1,0,0:0:0:0:
152,256,38984,2,0,P|64:200|72:160,1,140
176,104,39384,1,0,0:0:0:0:
416,104,39584,1,0,0:0:0:0:
456,240,39684,5,0,0:0:0:0:
88,280,39884,1,0,0:0:0:0:
200,120,39984,1,0,0:0:0:0:
224,256,40184,2,0,P|328:280|368:240,1,140
368,144,40584,1,0,0:0:0:0:
104,88,40784,1,0,0:0:0:0:
48,152,40884,6,0,P|152:160|176:144,1,93.3333333333333
104,88,41184,1,0,0:0:0:0:
104,88,41384,1,0,0:0:0:0:
149,202,41484,6,0,P|84:223|24:192,1,140.000005340576
88,144,41784,1,0,0:0:0:0:
376,136,41984,1,0,0:0:0:0:
344,88,42084,5,0,0:0:0:0:
288,104,42184,1,0,0:0:0:0:
296,160,42284,1,0,0:0:0:0:
352,176,42384,5,0,0:0:0:0:
400,152,42484,1,0,0:0:0:0:
424,200,42584,1,0,0:0:0:0:
376,224,42684,5,0,0:0:0:0:
352,176,42784,1,0,0:0:0:0:
304,200,42884,1,0,0:0:0:0:
248,208,42984,5,0,0:0:0:0:
192,192,43084,1,0,0:0:0:0:
152,152,43184,1,0,0:0:0:0:
120,192,43284,1,0,0:0:0:0:
416,192,43484,5,0,0:0:0:0:
360,192,43584,1,0,0:0:0:0:
96,192,43784,5,0,0:0:0:0:
152,192,43884,1,0,0:0:0:0:
255,305,44084,2,0,P|256:328|256:352,1,46.6666666666667
255,78,44384,2,0,P|256:54|255:31,1,46.6666666666667
369,305,44684,5,0,0:0:0:0:
408,264,44784,1,0,0:0:0:0:
104,264,44984,5,0,0:0:0:0:
142,305,45084,1,0,0:0:0:0:
408,120,45284,2,0,P|399:98|381:82,1,46.6666666666667
103,120,45584,2,0,P|112:98|130:82,1,46.6666666666667
344,168,45884,5,0,0:0:0:0:
344,216,45984,1,0,0:0:0:0:
168,168,46184,5,0,0:0:0:0:
168,216,46284,1,0,0:0:0:0:
296,168,46484,5,0,0:0:0:0:
296,216,46584,1,0,0:0:0:0:
216,216,46784,5,0,0:0:0:0:
216,168,46884,1,0,0:0:0:0:
384,56,47084,5,0,0:0:0:0:
448,128,47184,1,0,0:0:0:0:
416,240,47384,2,0,P|400:272|400:272,2,23.3333333333333
176,264,47684,1,0,0:0:0:0:
88,160,47784,1,0,0:0:0:0:
112,128,48084,6,0,P|224:80|288:96,1,186.666666666667
344,120,48584,2,0,P|272:200|48:224,1,326.666666666667
408,208,49484,5,0,0:0:0:0:
320,120,49584,1,0,0:0:0:0:
392,304,49784,1,0,0:0:0:0:
304,216,49884,1,0,0:0:0:0:
112,256,50184,2,0,P|64:192|80:160,1,93.3333333333333
96,120,50484,6,0,P|208:136|272:192,1,186.666666666667
168,224,50984,2,0,P|224:272|336:192,1,233.333333333333
192,216,51584,5,0,0:0:0:0:
104,144,51684,1,0,0:0:0:0:
184,128,51884,1,0,0:0:0:0:
288,208,51984,1,0,0:0:0:0:
416,216,52184,1,0,0:0:0:0:
440,144,52284,2,0,P|376:72|224:64,1,233.333333333333
240,128,52884,6,0,P|240:224|256:232,1,93.3333333333333
296,240,53184,2,0,P|336:256|368:240,1,46.6666666666667
336,160,53384,2,0,B|320:232|240:296|40:280,1,326.666666666667
80,160,54284,5,0,0:0:0:0:
128,72,54384,1,0,0:0:0:0:
232,128,54584,1,0,0:0:0:0:
128,72,54684,1,0,0:0:0:0:
360,176,54984,1,0,0:0:0:0:
336,256,55284,6,0,P|264:280|184:264,1,140
160,256,55784,2,0,P|112:200|104:120,1,140
224,176,56184,1,0,0:0:0:0:
400,72,56384,1,0,0:0:0:0:
432,240,56484,2,0,P|424:264|344:296,1,93.3333333333333
320,208,56784,1,0,0:0:0:0:
184,136,56984,1,0,0:0:0:0:
360,80,57284,2,0,P|376:184|432:184,1,140
80,216,57684,6,0,P|160:120|240:96,1,186.666666666667
352,120,58184,2,0,P|408:192|264:176,1,326.666666666667
80,232,59084,5,0,0:0:0:0:
40,144,59184,1,0,0:0:0:0:
192,288,59384,1,0,0:0:0:0:
296,280,59484,1,0,0:0:0:0:
208,176,59784,2,0,L|248:136,1,46.6666666666667
320,200,60084,2,0,B|368:112|392:184|216:256,1,186.666666666667
136,240,60584,2,0,L|224:64,1,186.666666666667
96,80,61184,5,0,0:0:0:0:
96,144,61284,1,0,0:0:0:0:
256,144,61484,1,0,0:0:0:0:
336,88,61584,1,0,0:0:0:0:
392,160,61784,2,0,L|152:336,1,280
104,208,62484,5,0,0:0:0:0:
144,112,62684,2,0,L|208:96,1,46.6666666666667
280,184,62984,2,0,L|256:264,1,46.6666666666667
160,264,63284,2,0,L|112:232,1,46.6666666666667
296,88,63584,6,0,L|353:119,1,46.6666666666667
346,233,63884,2,0,L|273:275,1,46.6666666666667
204,210,64184,2,0,L|190:153,1,46.6666666666667
336,96,64584,1,0,0:0:0:0:
112,208,64884,6,0,L|72:112,1,93.3333333333333
176,88,65184,1,0,0:0:0:0:
312,184,65384,1,0,0:0:0:0:
224,256,65684,5,0,0:0:0:0:
120,224,65784,1,0,0:0:0:0:
304,240,65984,2,0,L|440:168,1,140
416,96,66384,1,0,0:0:0:0:
208,80,66584,2,0,P|168:80|160:96,1,46.6666666666667
120,144,66784,5,0,0:0:0:0:
120,216,66884,1,0,0:0:0:0:
184,256,66984,1,0,0:0:0:0:
256,232,67084,1,0,0:0:0:0:
280,160,67184,1,0,0:0:0:0:
232,104,67284,6,0,P|160:80|112:96,1,93.3333333333333
168,160,67584,1,0,0:0:0:0:
80,272,67784,2,0,P|128:304|200:304,1,93.3333333333333
240,296,68084,5,0,0:0:0:0:
304,256,68184,1,0,0:0:0:0:
352,200,68284,1,0,0:0:0:0:
368,128,68384,1,0,0:0:0:0:
352,56,68484,6,0,P|272:48|224:64,1,93.3333333333333
216,112,68784,1,0,0:0:0:0:
72,72,68984,2,0,P|160:48|200:56,1,93.3333333333333
232,40,69284,5,0,0:0:0:0:
248,112,69384,1,0,0:0:0:0:
320,88,69484,1,0,0:0:0:0:
368,152,69584,1,0,0:0:0:0:
440,176,69684,6,0,P|472:200|480:216,1,46.6666666666667
403,269,69884,2,0,P|388:251|368:240,1,46.6666666666667
288,312,70084,2,0,P|320:336|328:352,1,46.6666666666667
88,208,70284,2,0,L|136:128,1,93.3333333333333
192,48,70584,5,0,0:0:0:0:
256,88,70684,1,0,0:0:0:0:
216,152,70784,1,0,0:0:0:0:
264,208,70884,1,0,0:0:0:0:
400,264,71084,5,0,0:0:0:0:
456,160,71184,1,0,0:0:0:0:
320,104,71384,2,0,P|256:64|168:72,1,140
360,176,71784,1,0,0:0:0:0:
200,208,71984,1,0,0:0:0:0:
184,144,72084,5,0,0:0:0:0:
64,192,72284,1,0,0:0:0:0:
64,264,72384,1,0,0:0:0:0:
112,320,72484,1,0,0:0:0:0:
184,344,72584,2,0,L|248:328,1,46.6666666666667
280,280,72784,5,0,0:0:0:0:
320,216,72884,1,0,0:0:0:0:
232,224,72984,1,0,0:0:0:0:
272,160,73084,1,0,0:0:0:0:
200,160,73184,1,0,0:0:0:0:
240,96,73284,2,0,P|304:64|352:72,1,93.3333333333333
392,88,73584,5,0,0:0:0:0:
424,152,73684,1,0,0:0:0:0:
408,224,73784,2,0,P|384:280|336:296,1,93.3333333333333
304,232,74084,5,0,0:0:0:0:
224,264,74184,1,0,0:0:0:0:
240,184,74284,1,0,0:0:0:0:
160,216,74384,1,0,0:0:0:0:
72,192,74484,1,0,0:0:0:0:
48,112,74584,5,0,0:0:0:0:
104,48,74684,1,0,0:0:0:0:
152,120,74784,1,0,0:0:0:0:
200,192,74884,1,0,0:0:0:0:
248,256,74984,1,0,0:0:0:0:
312,232,75084,5,0,0:0:0:0:
320,160,75184,1,0,0:0:0:0:
264,120,75284,1,0,0:0:0:0:
224,160,75384,1,0,0:0:0:0:
192,208,75484,1,0,0:0:0:0:
136,184,75584,5,0,0:0:0:0:
152,136,75684,1,0,0:0:0:0:
112,112,75784,1,0,0:0:0:0:
72,144,75884,1,0,0:0:0:0:
56,208,75984,1,0,0:0:0:0:
96,264,76084,5,0,0:0:0:0:
176,280,76184,1,0,0:0:0:0:
264,264,76284,1,0,0:0:0:0:
336,192,76384,1,0,0:0:0:0:
384,96,76484,2,0,L|392:56,8,23.3333333333333
96,168,77684,5,0,0:0:0:0:
200,272,77784,1,0,0:0:0:0:
344,240,77984,2,0,P|392:208|384:112,1,140
312,136,78384,2,0,P|264:184|144:176,1,186.666666666667
112,280,78884,6,0,L|80:232,1,46.6666666666667
80,176,79084,1,0,0:0:0:0:
112,120,79184,1,0,0:0:0:0:
176,96,79284,1,0,0:0:0:0:
240,112,79384,1,0,0:0:0:0:
184,152,79484,5,0,0:0:0:0:
144,208,79584,1,0,0:0:0:0:
128,272,79684,1,0,0:0:0:0:
168,224,79784,1,0,0:0:0:0:
224,192,79884,1,0,0:0:0:0:
288,192,79984,5,0,0:0:0:0:
344,216,80084,1,0,0:0:0:0:
392,264,80184,1,0,0:0:0:0:
416,200,80284,1,0,0:0:0:0:
400,136,80384,1,0,0:0:0:0:
352,96,80484,5,0,0:0:0:0:
248,280,80684,1,0,0:0:0:0:
224,152,80784,1,0,0:0:0:0:
176,240,80984,2,0,P|104:176|144:136,1,140
192,160,81384,1,0,0:0:0:0:
384,240,81584,1,0,0:0:0:0:
376,312,81684,5,0,0:0:0:0:
312,320,81784,1,0,0:0:0:0:
280,264,81884,1,0,0:0:0:0:
320,216,81984,1,0,0:0:0:0:
376,192,82084,1,0,0:0:0:0:
416,144,82184,5,0,0:0:0:0:
384,88,82284,1,0,0:0:0:0:
320,96,82384,1,0,0:0:0:0:
256,112,82484,1,0,0:0:0:0:
192,120,82584,1,0,0:0:0:0:
160,64,82684,5,0,0:0:0:0:
96,80,82784,1,0,0:0:0:0:
56,128,82884,1,0,0:0:0:0:
56,192,82984,6,0,L|104:248,1,46.6666666666667
144,264,83184,2,0,L|192:272,1,46.6666666666667
256,272,83384,2,0,L|336:272,1,46.6666666666667
368,256,83584,2,0,L|416:216,1,46.6666666666667
440,168,83784,2,0,L|456:112,1,46.6666666666667
456,56,83984,1,0,0:0:0:0:
392,48,84084,2,0,P|296:192|96:136,1,385.000014686585
160,72,85284,6,0,P|264:104|312:24,1,210.000008010865
64,184,86684,1,0,0:0:0:0:
176,120,86784,2,0,L|272:176,1,93.3333333333333
384,88,87084,1,0,0:0:0:0:
280,96,87284,5,0,0:0:0:0:
176,200,87384,2,0,P|224:128|256:112,1,93.3333333333333
280,216,87684,1,0,0:0:0:0:
112,120,87884,5,0,0:0:0:0:
168,176,87984,2,0,P|232:112|272:112,1,93.3333333333333
176,56,88284,1,0,0:0:0:0:
408,136,88484,5,0,0:0:0:0:
328,216,88584,2,0,P|272:192|264:136,1,93.3333333333333
168,88,88884,5,0,0:0:0:0:
104,88,88984,1,0,0:0:0:0:
56,128,89084,1,0,0:0:0:0:
120,152,89184,5,0,0:0:0:0:
120,216,89284,1,0,0:0:0:0:
176,176,89384,1,0,0:0:0:0:
224,216,89484,5,0,0:0:0:0:
232,152,89584,1,0,0:0:0:0:
296,160,89684,1,0,0:0:0:0:
272,104,89784,5,0,0:0:0:0:
336,104,89884,1,0,0:0:0:0:
360,160,89984,1,0,0:0:0:0:
344,224,90084,6,0,P|288:256|224:272,1,93.3333333333333
192,264,90384,1,0,0:0:0:0:
160,136,90584,2,0,P|224:136|288:96,1,140
208,48,90984,1,0,0:0:0:0:
208,224,91184,1,0,0:0:0:0:
136,152,91284,5,0,0:0:0:0:
304,224,91484,1,0,0:0:0:0:
376,152,91584,1,0,0:0:0:0:
256,56,91784,2,0,L|256:184,1,105.000004005432
256,232,92184,1,0,0:0:0:0:
184,240,92384,5,0,0:0:0:0:
88,152,92484,1,0,0:0:0:0:
328,240,92684,1,0,0:0:0:0:
424,152,92784,1,0,0:0:0:0:
256,56,92984,2,0,L|256:280,1,210.000008010865
256,328,93384,1,0,0:0:0:0:
112,192,93584,5,0,0:0:0:0:
152,272,93684,2,0,P|200:216|184:160,1,93.3333333333333
256,288,93984,1,0,0:0:0:0:
256,96,94184,5,0,0:0:0:0:
311,183,94284,2,0,P|323:139|360:112,1,93.3333333333333
400,192,94584,1,0,0:0:0:0:
56,80,94784,6,0,L|104:48,1,46.6666666666667
160,40,94984,1,0,0:0:0:0:
216,72,95084,1,0,0:0:0:0:
216,136,95184,1,0,0:0:0:0:
160,168,95284,5,0,0:0:0:0:
128,112,95384,1,0,0:0:0:0:
176,80,95484,1,0,0:0:0:0:
232,104,95584,5,0,0:0:0:0:
280,144,95684,1,0,0:0:0:0:
312,200,95784,1,0,0:0:0:0:
328,264,95884,5,0,0:0:0:0:
304,328,95984,1,0,0:0:0:0:
248,360,96084,2,0,P|312:320|328:280,1,93.3333333333333
344,176,96384,1,0,0:0:0:0:
88,160,96584,5,0,0:0:0:0:
144,288,96684,1,0,0:0:0:0:
264,248,96884,1,0,0:0:0:0:
200,208,96984,2,0,P|152:160|160:112,1,93.3333333333333
184,64,97284,1,0,0:0:0:0:
312,120,97484,1,0,0:0:0:0:
384,288,97784,5,0,0:0:0:0:
432,216,97884,1,0,0:0:0:0:
80,168,98084,1,0,0:0:0:0:
128,96,98184,1,0,0:0:0:0:
144,296,98384,5,0,0:0:0:0:
208,296,98484,5,0,0:0:0:0:
272,296,98584,1,0,0:0:0:0:
336,296,98684,1,0,0:0:0:0:
384,256,98784,5,0,0:0:0:0:
336,216,98884,1,0,0:0:0:0:
272,216,98984,1,0,0:0:0:0:
208,216,99084,5,0,0:0:0:0:
144,216,99184,1,0,0:0:0:0:
96,168,99284,1,0,0:0:0:0:
144,120,99384,5,0,0:0:0:0:
208,120,99484,1,0,0:0:0:0:
272,120,99584,1,0,0:0:0:0:
336,120,99684,5,0,0:0:0:0:
280,240,99884,1,0,0:0:0:0:
176,160,99984,1,0,0:0:0:0:
72,272,100184,2,0,P|56:200|88:144,1,140
168,232,100584,1,0,0:0:0:0:
360,216,100784,6,0,L|384:144,1,46.6666666666667
280,160,101084,2,0,L|256:88,1,46.6666666666667
344,272,101384,2,0,L|160:272,1,140
120,336,101784,1,0,0:0:0:0:
72,192,101984,6,0,L|48:120,1,46.6666666666667
152,136,102284,2,0,L|176:64,1,46.6666666666667
128,104,102584,2,0,P|208:88|216:160,1,140
128,104,102984,1,0,0:0:0:0:
224,160,103184,5,0,0:0:0:0:
144,136,103284,2,0,P|200:80|248:88,1,93.3333333333333
224,160,103584,1,0,0:0:0:0:
288,224,103784,5,0,0:0:0:0:
368,247,103884,2,0,P|345:286|302:304,1,93.3333333333333
288,224,104184,1,0,0:0:0:0:
48,160,104384,6,0,L|72:112,1,46.6666666666667
104,96,104584,1,0,0:0:0:0:
144,96,104684,1,0,0:0:0:0:
184,104,104784,5,0,0:0:0:0:
216,128,104884,1,0,0:0:0:0:
240,160,104984,1,0,0:0:0:0:
248,200,105084,5,0,0:0:0:0:
240,240,105184,1,0,0:0:0:0:
216,272,105284,1,0,0:0:0:0:
176,296,105384,5,0,0:0:0:0:
136,304,105484,1,0,0:0:0:0:
96,304,105584,1,0,0:0:0:0:
56,296,105684,5,0,0:0:0:0:
312,56,105884,5,0,0:0:0:0:
288,56,105984,1,0,0:0:0:0:
224,112,106184,1,0,0:0:0:0:
224,136,106284,1,0,0:0:0:0:
288,192,106484,5,0,0:0:0:0:
312,192,106584,1,0,0:0:0:0:
376,248,106784,1,0,0:0:0:0:
376,280,106884,1,0,0:0:0:0:
312,336,107084,5,0,0:0:0:0:
288,336,107184,1,0,0:0:0:0:
224,280,107384,1,0,0:0:0:0:
224,256,107484,1,0,0:0:0:0:
176,184,107684,6,0,L|128:184,1,46.6666666666667
96,256,107984,2,0,L|96:304,1,46.6666666666667
312,328,108284,1,0,0:0:0:0:
288,328,108384,1,0,0:0:0:0:
224,272,108584,1,0,0:0:0:0:
224,248,108684,1,0,0:0:0:0:
288,192,108884,5,0,0:0:0:0:
312,192,108984,1,0,0:0:0:0:
376,136,109184,1,0,0:0:0:0:
376,104,109284,1,0,0:0:0:0:
312,48,109484,5,0,0:0:0:0:
288,48,109584,1,0,0:0:0:0:
224,104,109784,1,0,0:0:0:0:
224,128,109884,1,0,0:0:0:0:
176,200,110084,6,0,L|128:200,1,46.6666666666667
96,128,110384,2,0,L|96:80,1,46.6666666666667
200,328,110684,1,0,0:0:0:0:
224,328,110784,1,0,0:0:0:0:
288,272,110984,1,0,0:0:0:0:
288,248,111084,1,0,0:0:0:0:
224,192,111284,5,0,0:0:0:0:
200,192,111384,1,0,0:0:0:0:
136,136,111584,1,0,0:0:0:0:
136,104,111684,1,0,0:0:0:0:
200,48,111884,5,0,0:0:0:0:
224,48,111984,1,0,0:0:0:0:
288,104,112184,1,0,0:0:0:0:
288,128,112284,1,0,0:0:0:0:
336,200,112484,6,0,L|384:200,1,46.6666666666667
416,128,112784,2,0,L|416:80,1,46.6666666666667
176,176,113084,5,0,0:0:0:0:
200,144,113184,1,0,0:0:0:0:
336,176,113384,5,0,0:0:0:0:
312,144,113484,1,0,0:0:0:0:
207,182,113684,5,0,0:0:0:0:
221,162,113784,1,0,0:0:0:0:
304,182,113984,5,0,0:0:0:0:
290,162,114084,1,0,0:0:0:0:
