osu file format v14

[General]
AudioFilename: audio.mp3
AudioLeadIn: 0
PreviewTime: 41084
Countdown: 0
SampleSet: None
StackLeniency: 0.7
Mode: 2
LetterboxInBreaks: 0
EpilepsyWarning: 1
WidescreenStoryboard: 0

[Editor]
DistanceSpacing: 0.8
BeatDivisor: 2
GridSize: 4
TimelineZoom: 8

[Metadata]
Title:ONIGIRI FREEWAY
TitleUnicode:ONIGIRI FREEWAY
Artist:OISHII
ArtistUnicode:OISHII
Creator:sxy62146214
Version:Aspire
Source:osu!
Tags:X Program another citizen 8-bit Creamcore Vigorous Turtle
BeatmapID:1567532
BeatmapSetID:743307

[Difficulty]
HPDrainRate:6.8
CircleSize:4
OverallDifficulty:9.4
ApproachRate:9.4
SliderMultiplier:1.3
SliderTickRate:1

[Events]
//Background and Video events
0,0,"Blue Line.jpg",0,0
//Break Periods
//Storyboard Layer 0 (Background)
//Storyboard Layer 1 (Fail)
//Storyboard Layer 2 (Pass)
//Storyboard Layer 3 (Foreground)
//Storyboard Sound Samples

[TimingPoints]
84,285.714285714286,4,2,0,50,1,0
5798,571.428571428571,4,2,0,50,1,0
5798,-50,4,2,0,50,0,0
6941,285.714285714286,4,2,0,50,1,0
9226,-66.6666666666667,4,2,0,50,0,0
10941,-25,4,2,0,50,0,0
11512,-66.6666666666667,4,2,0,50,0,0
13226,-25,4,2,0,50,0,0
13798,-66.6666666666667,4,2,0,50,0,0
15512,-25,4,2,0,50,0,0
16083,-66.6666666666667,4,2,0,50,0,0
17798,571.428571428571,4,2,0,50,1,0
17798,-50,4,2,0,50,0,0
18368,2285.71428571429,4,2,0,50,1,0
18368,-12.5,4,2,0,50,0,0
18369,285.714285714286,4,2,0,50,1,0
18369,-66.6666666666667,4,2,0,50,0,0
20653,2285.71428571429,4,2,0,50,1,0
20653,-12.5,4,2,0,50,0,0
20654,285.714285714286,4,2,0,50,1,0
20654,-66.6666666666667,4,2,0,50,0,0
22938,2285.71428571429,4,2,0,50,1,0
22938,-12.5,4,2,0,50,0,0
22939,285.714285714286,4,2,0,50,1,0
22939,-66.6666666666667,4,2,0,50,0,0
25223,2285.71428571429,4,2,0,50,1,0
25223,-12.5,4,2,0,50,0,0
25224,285.714285714286,4,2,0,50,1,0
25224,-66.6666666666667,4,2,0,50,0,0
26365,2285.71428571429,4,2,0,50,1,0
26365,-12.5,4,2,0,50,0,0
26366,285.714285714286,4,2,0,50,1,0
26366,-66.6666666666667,4,2,0,50,0,0
27901,-66.6666666666667,4,2,0,0,0,0
27937,-66.6666666666667,4,2,0,50,0,0
28473,-66.6666666666667,4,2,0,0,0,0
28508,-66.6666666666667,4,2,0,50,0,0
29187,-66.6666666666667,4,2,0,0,0,0
29223,-66.6666666666667,4,2,0,50,0,0
29616,-66.6666666666667,4,2,0,0,0,0
29651,-66.6666666666667,4,2,0,50,0,0
29758,-66.6666666666667,4,2,0,0,0,0
29794,-66.6666666666667,4,2,0,50,0,0
30758,-66.6666666666667,4,2,0,0,0,0
30794,-66.6666666666667,4,2,0,50,0,0
31187,-66.6666666666667,4,2,0,0,0,0
31223,-66.6666666666667,4,2,0,50,0,0
31758,-66.6666666666667,4,2,0,0,0,0
31794,-66.6666666666667,4,2,0,50,0,0
32080,-133.333333333333,4,2,0,50,0,0
38901,-100,4,2,0,0,0,0
38937,-100,4,2,0,40,0,0
39508,-100,4,2,0,30,0,0
40080,-100,4,2,0,20,0,0
40651,-100,4,2,0,10,0,0
41080,-100,4,2,0,30,0,0
41151,-100,4,2,0,50,0,0
41223,-66.6666666666667,4,2,0,60,0,1
42937,-25,4,2,0,60,0,1
43508,-66.6666666666667,4,2,0,60,0,1
50366,-50,4,2,0,60,0,1
57794,-30,4,2,0,60,0,1
58366,-25,4,2,0,60,0,1
58937,-50,4,2,0,60,0,1
59223,-50,4,2,0,0,0,0
59508,-50,4,2,0,60,0,1
61223,-25,4,2,0,60,0,1
61794,-50,4,2,0,60,0,1
62937,-25,4,2,0,60,0,1
63508,-50,4,2,0,60,0,1
76080,-30,4,2,0,60,0,1
76651,-25,4,2,0,60,0,1
77508,-50,4,2,0,0,0,0
77798,285.714285714286,4,2,0,50,1,0
77798,-100,4,2,0,50,0,0
78619,-66.6666666666667,4,2,0,0,0,0
78655,-100,4,2,0,50,0,0
80083,-66.6666666666667,4,2,0,5,0,0
98369,-66.6666666666667,4,2,0,50,0,0
98762,-66.6666666666667,4,2,0,0,0,0
98798,-66.6666666666667,4,2,0,50,0,0
99333,-66.6666666666667,4,2,0,0,0,0
99369,-66.6666666666667,4,2,0,50,0,0
100048,-66.6666666666667,4,2,0,0,0,0
100083,-66.6666666666667,4,2,0,50,0,0
100476,-66.6666666666667,4,2,0,0,0,0
100512,-66.6666666666667,4,2,0,50,0,0
102048,-66.6666666666667,4,2,0,0,0,0
102083,-66.6666666666667,4,2,0,50,0,0
102619,-66.6666666666667,4,2,0,0,0,0
102655,-66.6666666666667,4,2,0,50,0,0
102940,-133.333333333333,4,2,0,50,0,0
109798,-100,4,2,0,50,0,0
110369,-100,4,2,0,40,0,0
110940,-100,4,2,0,30,0,0
111512,-100,4,2,0,10,0,0
111940,-100,4,2,0,15,0,0
112012,-100,4,2,0,20,0,0
112083,-100,4,2,0,30,0,0
121226,-50,4,2,0,60,0,1
128655,-30,4,2,0,60,0,1
129226,-25,4,2,0,60,0,1
130083,-66.6666666666667,4,2,0,0,0,0
130368,4571.42857142857,4,2,0,60,1,1
130368,-6.25,4,2,0,60,0,1
130369,285.714285714286,4,2,0,60,1,1
130369,-50,4,2,0,60,0,1
132083,-25,4,2,0,60,0,1
132653,4571.42857142857,4,2,0,60,1,1
132653,-6.25,4,2,0,60,0,1
132654,285.714285714286,4,2,0,60,1,1
132654,-50,4,2,0,60,0,1
134938,4571.42857142857,4,2,0,60,1,1
134938,-6.25,4,2,0,60,0,1
134939,285.714285714286,4,2,0,60,1,1
134939,-50,4,2,0,60,0,1
136080,4571.42857142857,4,2,0,60,1,1
136080,-6.25,4,2,0,60,0,1
136081,285.714285714286,4,2,0,60,1,1
136081,-50,4,2,0,60,0,1
137222,4571.42857142857,4,2,0,60,1,1
137222,-6.25,4,2,0,60,0,1
137223,285.714285714286,4,2,0,60,1,1
137223,-50,4,2,0,60,0,1
138941,-100,4,2,0,50,0,0
139508,142.857142857143,4,2,0,5,1,1
139508,-100,4,2,0,5,0,1
143508,-100,4,2,0,60,0,1
144079,-100,4,2,0,5,0,1
146365,285.714285714286,4,2,0,60,1,1
146365,-50,4,2,0,60,0,1
146936,-30,4,2,0,60,0,1
147507,-25,4,2,0,60,0,1
148365,-50,4,2,0,5,0,0
148651,285.714285714286,4,2,0,60,1,1
148651,-50,4,2,0,60,0,1
150365,-25,4,2,0,60,0,1
150936,-50,4,2,0,60,0,1
157222,-50,4,2,0,50,0,0
157792,4571.42857142857,4,2,0,60,1,1
157792,-6.25,4,2,0,60,0,1
157793,142.857142857143,4,2,0,5,1,1
157793,-100,4,2,0,5,0,1
158934,4571.42857142857,4,2,0,60,1,1
158934,-6.25,4,2,0,60,0,1
158935,142.857142857143,4,2,0,5,1,1
160076,4571.42857142857,4,2,0,60,1,1
160076,-6.25,4,2,0,60,0,1
160077,142.857142857143,4,2,0,5,1,1
161218,4571.42857142857,4,2,0,60,1,1
161218,-6.25,4,2,0,60,0,1
161219,142.857142857143,4,2,0,5,1,1
161793,285.714285714286,4,2,0,60,1,1
161793,-50,4,2,0,60,0,1
165221,-30,4,2,0,60,0,1
165793,-25,4,2,0,60,0,1
166650,-100,4,2,0,5,0,1
166935,-100,4,2,0,50,0,0
167757,-66.6666666666667,4,2,0,0,0,0
167793,-100,4,2,0,50,0,0
168508,-66.6666666666667,4,2,0,0,0,0

[Colours]
Combo1 : 255,255,0
Combo2 : 0,128,192
Combo3 : 0,255,0
Combo4 : 255,0,0

[HitObjects]
120,284,84,6,0,L|40:284,2,65,8|0|0,0:0|0:0|0:0,0:0:0:0:
192,244,512,2,0,L|256:244,2,65
80,248,941,2,0,L|40:180,1,65
392,284,1226,6,0,L|457:284,2,65,8|0|0,0:0|0:0|0:0,0:0:0:0:
320,244,1654,2,0,L|255:244,2,65
432,248,2083,2,0,L|464:191,1,65
68,296,2369,6,0,P|24:136|212:208,1,455,8|0,0:0|0:0,0:0:0:0:
68,192,2512,2,0,L|-4:192,1,65
16,96,2798,2,0,L|80:96,1,65
128,140,3084,2,0,L|193:140,1,65
444,296,3512,6,0,P|488:136|300:208,1,455,8|0,0:0|0:0,0:0:0:0:
444,192,3655,2,0,L|516:192,1,65
496,96,3941,2,0,L|432:96,1,65
384,140,4227,2,0,L|319:140,1,65
68,304,4655,6,0,L|132:304,2,65,8|0|0,0:0|0:0|0:0,0:0:0:0:
288,272,5084,2,0,L|216:272,2,65
48,216,5512,2,0,L|124:216,1,65
388,288,5798,6,0,B|184:184|408:176|408:176|496:52|276:28,1,520,8|8,0:0|0:0,0:0:0:0:
432,272,5869,1,0,0:0:0:0:
472,232,5940,1,0,0:0:0:0:
464,176,6012,1,0,0:0:0:0:
220,288,6083,5,8,0:0:0:0:
184,248,6155,1,0,0:0:0:0:
192,188,6226,1,0,0:0:0:0:
240,152,6298,1,0,0:0:0:0:
408,172,6369,5,8,0:0:0:0:
452,156,6440,1,0,0:0:0:0:
492,128,6512,1,0,0:0:0:0:
456,96,6583,1,0,0:0:0:0:
84,148,6655,5,8,0:0:0:0:
36,148,6726,1,0,0:0:0:0:
36,148,6798,1,0,0:0:0:0:
84,148,6869,1,0,0:0:0:0:
340,27,7083,6,0,L|275:27,1,65
480,120,7369,2,0,L|412:120,2,65
224,204,7798,2,0,L|312:204,1,65
28,296,8083,6,0,L|100:296,2,65,8|0|0,0:0|0:0|0:0,0:0:0:0:
236,232,8512,2,0,L|164:232,1,65
228,232,8673,5,4,0:0:0:0:
299,233,8691,1,4,0:0:0:0:
366,233,8708,1,4,0:0:0:0:
437,234,8726,1,4,0:0:0:0:
509,233,8744,1,4,0:0:0:0:
96,268,9226,6,0,L|60:172,1,97.50000371933,2|0,0:0|0:0,0:0:0:0:
316,180,9512,2,0,L|268:276,1,97.50000371933
48,264,9798,2,0,L|20:160,1,97.50000371933,2|0,0:0|0:0,0:0:0:0:
228,260,10083,2,0,L|188:156,1,97.50000371933
260,164,10298,1,0,0:0:0:0:
64,116,10369,6,0,L|112:16,1,97.50000371933,2|0,0:0|0:0,0:0:0:0:
476,120,10655,2,0,L|360:120,1,97.50000371933
151,246,10941,2,8,L|383:118,2,260
400,296,11512,6,0,L|468:220,1,97.50000371933,2|0,0:0|0:0,0:0:0:0:
196,232,11798,2,0,L|264:152,1,97.50000371933
476,148,12083,2,2,L|400:76,1,97.50000371933
140,200,12369,2,0,P|116:156|200:116,1,146.250005578995
68,160,12441,1,0,0:0:0:0:
100,92,12512,1,0,0:0:0:0:
412,172,12655,5,8,0:0:0:0:
384,172,12655,1,8,0:0:0:0:
448,112,12798,1,8,0:0:0:0:
476,112,12798,1,8,0:0:0:0:
408,64,12941,1,8,0:0:0:0:
380,64,12941,1,8,0:0:0:0:
328,116,13083,1,8,0:0:0:0:
300,116,13083,1,8,0:0:0:0:
480,0,13226,6,8,L|327:214,1,260,8|8,2:0|2:0,2:0:0:0:
450,41,13226,1,8,2:0:0:0:
313,238,13369,6,8,L|461:25,1,260,8|8,2:0|2:0,2:0:0:0:
480,0,13512,6,8,L|325:217,1,260,8|8,2:0|2:0,2:0:0:0:
313,238,13655,5,8,2:0:0:0:
48,272,13798,6,0,L|164:272,1,97.50000371933,2|0,0:0|0:0,0:0:0:0:
352,212,14083,2,0,L|228:212,1,97.50000371933
28,180,14369,2,0,L|148:180,1,97.50000371933,2|0,0:0|0:0,0:0:0:0:
360,140,14655,2,0,L|244:140,1,97.50000371933
204,108,14869,1,0,0:0:0:0:
448,72,14941,6,0,L|500:168,1,97.50000371933,2|0,0:0|0:0,0:0:0:0:
272,168,15226,2,0,L|236:272,1,97.50000371933
468,312,15512,2,8,L|256:160,1,260
44,312,15798,2,8,L|268:152,1,260
464,152,16083,6,0,L|372:88,1,97.50000371933,2|0,0:0|0:0,0:0:0:0:
152,72,16369,2,0,L|256:72,1,97.50000371933
468,176,16655,2,2,L|360:176,1,97.50000371933,2|0,0:0|0:0,0:0:0:0:
420,128,16869,1,8,0:0:0:0:
128,188,16941,2,0,L|28:188,1,97.50000371933,2|0,0:0|0:0,0:0:0:0:
316,180,17226,6,2,L|424:180,1,97.50000371933
472,132,17441,1,8,0:0:0:0:
208,84,17512,2,0,L|104:84,1,97.50000371933,2|0,0:0|0:0,0:0:0:0:
324,168,17798,6,0,P|256:228|124:176,1,227.5,8|0,0:0|0:0,0:0:0:0:
384,168,17869,1,0,0:0:0:0:
444,168,17941,1,0,0:0:0:0:
384,168,18012,1,0,0:0:0:0:
134,191,18083,1,8,0:0:0:0:
72,192,18154,1,0,0:0:0:0:
72,192,18226,1,0,0:0:0:0:
460,48,18368,6,2,B|412:40|412:40|484:140|440:312|308:320|256:300|256:300|340:136|340:136|196:72|172:152|172:152|268:204|230:183,1,910,2|10,0:0|0:0,0:0:0:0:
460,48,18369,2,0,L|352:48,1,97.50000371933
152,104,18654,2,0,L|48:104,1,97.50000371933
488,164,18940,2,0,L|384:164,1,97.50000371933,2|0,0:0|0:0,0:0:0:0:
172,260,19226,2,0,L|68:260,1,97.50000371933
292,232,19511,6,0,L|408:232,1,97.50000371933,2|0,0:0|0:0,0:0:0:0:
52,180,19797,2,0,L|164:180,1,97.50000371933
384,112,20083,2,8,L|492:112,1,97.50000371933
61,46,20653,6,0,B|240:108|240:108|80:196|80:196|264:148|432:148|432:148|364:300|200:324,1,975,0|8,0:0|0:0,0:0:0:0:
61,46,20654,2,0,L|168:44,1,97.50000371933,2|0,0:0|0:0,0:0:0:0:
360,92,20939,2,0,L|472:92,1,97.50000371933
80,196,21225,2,0,L|184:196,1,97.50000371933,2|0,0:0|0:0,0:0:0:0:
432,148,21511,1,0,0:0:0:0:
480,116,21582,1,0,0:0:0:0:
480,116,21654,1,0,0:0:0:0:
432,148,21725,1,0,0:0:0:0:
120,212,21796,5,8,0:0:0:0:
92,212,21796,1,8,0:0:0:0:
60,160,21939,1,8,0:0:0:0:
32,160,21939,1,8,0:0:0:0:
56,104,22082,1,8,0:0:0:0:
28,104,22082,1,8,0:0:0:0:
136,52,22225,1,8,0:0:0:0:
108,52,22225,1,8,0:0:0:0:
96,312,22368,5,8,0:0:0:0:
131,311,22368,2,8,L|228:313,1,97.50000371933
194,312,22511,6,8,L|96:312,1,97.50000371933
129,312,22654,6,8,L|226:312,1,97.50000371933
448,44,22938,6,0,B|288:48|256:100|280:244|376:248|424:156|424:156|240:120|124:104|77:146|76:276|136:340|216:352|284:320,1,910,2|8,0:0|0:0,0:0:0:0:
448,44,22939,2,0,L|336:44,1,97.50000371933
132,104,23224,2,0,L|28:104,1,97.50000371933
472,164,23510,2,0,L|352:164,1,97.50000371933,2|0,0:0|0:0,0:0:0:0:
140,216,23796,2,0,L|24:216,1,97.50000371933
96,216,24010,1,0,0:0:0:0:
376,240,24081,6,0,L|473:240,1,97.50000371933,2|0,0:0|0:0,0:0:0:0:
56,148,24367,2,0,L|164:148,1,97.50000371933
372,192,24653,2,8,L|480:192,1,97.50000371933
384,328,25081,6,8,L|328:328,1,48.750001859665
24,216,25223,2,4,P|104:20|248:368,1,910
24,216,25224,2,4,L|256:24,2,292.50001115799
252,106,26365,2,4,P|129:234|247:368,1,390
247,368,26366,2,4,L|472:181,2,292.50001115799
196,344,27294,1,0,0:0:0:0:
196,284,27366,1,0,0:0:0:0:
244,252,27437,1,0,0:0:0:0:
456,216,27508,6,0,B|484:216|484:216|484:152|456:76|292:76,1,292.50001115799,4|0,0:0|0:0,0:0:0:0:
256,192,27508,12,0,27901,0:0:0:0:
256,192,27973,12,0,28473,0:0:0:0:
96,176,28080,5,0,0:0:0:0:
232,172,28223,2,0,L|128:172,1,97.50000371933
52,108,28508,1,0,0:0:0:0:
256,192,28544,12,0,29187,0:0:0:0:
440,156,28651,6,0,P|368:188|448:76,1,390.00001487732,4|8,0:0|0:0,0:0:0:0:
256,192,29258,12,0,29616,0:0:0:0:
296,104,29366,5,8,0:0:0:0:
464,148,29508,1,8,0:0:0:0:
328,188,29651,1,8,0:0:0:0:
256,192,29794,12,0,30758,0:0:0:0:
116,292,29794,6,0,L|160:200,1,97.50000371933,2|0,0:0|0:0,0:0:0:0:
236,300,30080,2,0,L|276:200,1,97.50000371933,2|0,0:0|0:0,0:0:0:0:
100,260,30366,2,0,L|148:156,1,97.50000371933,2|0,0:0|0:0,0:0:0:0:
224,272,30651,1,2,0:0:0:0:
256,252,30687,1,0,0:0:0:0:
280,220,30723,1,0,0:0:0:0:
296,180,30758,1,0,0:0:0:0:
284,144,30794,1,0,0:0:0:0:
256,192,30830,12,0,31187,0:0:0:0:
48,144,30937,5,8,0:0:0:0:
256,108,31080,1,8,0:0:0:0:
472,76,31223,1,8,0:0:0:0:
112,328,31366,6,0,P|48:312|156:252,1,292.50001115799,4|0,0:0|0:0,0:0:0:0:
256,192,31401,12,0,31758,0:0:0:0:
256,296,31866,5,0,0:0:0:0:
344,192,31937,1,0,0:0:0:0:
256,72,32008,1,0,0:0:0:0:
168,72,32080,6,4,L|95:194,1,140.156255346537
352,172,32508,6,4,L|424:292,1,140.156255346537
176,316,32937,6,4,L|56:241,1,140.156255346537
336,68,33366,6,4,L|458:138,1,140.156255346537
120,212,33794,5,8,0:0:0:0:
92,212,33794,1,8,0:0:0:0:
76,152,33937,1,8,0:0:0:0:
48,152,33937,1,8,0:0:0:0:
140,108,34080,1,8,0:0:0:0:
112,108,34080,1,8,0:0:0:0:
96,64,34223,1,8,0:0:0:0:
64,64,34223,2,4,L|253:64,1,188.906257206202
448,84,34794,6,4,L|378:205,1,140.156255346537
104,184,35223,6,4,L|171:308,1,140.156255346537
444,308,35651,6,4,L|301:304,1,140.156255346537,4|4,0:3|0:3,0:3:0:0:
128,248,36080,5,8,0:0:0:0:
100,248,36080,1,8,0:0:0:0:
68,184,36223,1,8,0:0:0:0:
40,184,36223,1,8,0:0:0:0:
112,120,36366,1,8,0:0:0:0:
84,120,36366,1,8,0:0:0:0:
256,192,36508,12,0,38901,0:0:0:0:
168,76,36508,5,8,0:0:0:0:
140,76,36508,1,8,0:0:0:0:
364,264,37080,6,0,L|364:196,1,48.750001859665
156,236,37508,6,0,L|156:180,1,48.750001859665
384,216,37937,6,0,L|384:160,1,48.750001859665
128,168,38366,6,0,L|128:120,3,48.750001859665
68,128,38937,5,0,0:0:0:0:
180,132,39080,2,0,L|228:132,2,32.5
248,84,39366,1,8,0:0:0:0:
128,128,39508,5,0,0:0:0:0:
240,132,39651,2,0,L|288:132,2,32.5
308,84,39937,1,8,0:0:0:0:
192,132,40080,5,0,0:0:0:0:
304,136,40223,2,0,L|352:136,2,32.5
372,88,40509,1,8,0:0:0:0:
256,136,40651,5,0,0:0:0:0:
368,140,40794,2,0,L|416:140,2,32.5
436,92,41080,1,8,0:0:0:0:
256,92,41151,1,8,0:0:0:0:
76,92,41223,6,0,L|212:92,1,97.50000371933,4|0,0:0|0:0,0:0:0:0:
380,152,41508,2,0,L|264:152,1,97.50000371933,8|0,0:0|0:0,0:0:0:0:
64,200,41794,1,0,0:0:0:0:
308,252,41937,2,0,L|424:252,2,97.50000371933,8|0|0,0:0|0:0|0:0,0:0:0:0:
28,184,42366,6,0,L|140:184,1,97.50000371933,2|0,0:0|0:0,0:0:0:0:
360,168,42651,2,0,L|244:168,1,97.50000371933,2|0,0:0|0:0,0:0:0:0:
0,84,42937,6,4,L|520:84,1,520
288,84,43508,5,0,0:0:0:0:
88,168,43794,2,0,L|200:168,1,97.50000371933,2|0,0:0|0:0,0:0:0:0:
448,268,44223,2,0,L|336:268,2,97.50000371933,8|0|0,0:0|0:0|0:0,0:0:0:0:
56,232,44651,6,2,L|184:232,3,97.50000371933,0|0|0|0,0:0|0:0|0:0|0:0,0:0:0:0:
380,240,45223,6,2,L|416:196,1,48.750001859665
264,236,45366,6,2,L|240:192,1,48.750001859665
448,228,45508,6,2,L|404:188,1,48.750001859665
240,224,45651,6,2,L|280:184,1,48.750001859665
472,180,45794,6,2,L|356:180,1,97.50000371933,8|0,0:0|0:0,0:0:0:0:
128,184,46080,2,0,L|30:184,1,97.50000371933,8|0,0:0|0:0,0:0:0:0:
248,164,46366,6,2,L|208:120,1,48.750001859665
68,156,46508,6,2,L|112:132,1,48.750001859665
256,144,46651,6,2,L|208:168,1,48.750001859665
52,132,46794,6,2,L|104:140,1,48.750001859665
328,160,46937,6,0,P|392:160|440:132,1,97.50000371933,8|0,0:0|0:0,0:0:0:0:
168,180,47223,2,0,P|112:164|84:120,1,97.50000371933,8|0,0:0|0:0,0:0:0:0:
379,132,47508,6,2,L|435:132,1,48.750001859665
264,136,47651,6,2,L|212:136,1,48.750001859665
428,132,47794,6,2,L|368:132,1,48.750001859665
200,136,47937,6,2,L|264:136,1,48.750001859665
116,168,48080,6,0,P|72:140|80:88,1,97.50000371933,8|0,0:0|0:0,0:0:0:0:
112,64,48294,1,0,0:0:0:0:
360,156,48366,6,0,L|412:156,1,48.750001859665
260,120,48508,2,0,L|312:120,1,48.750001859665
452,76,48651,2,8,L|328:76,3,97.50000371933
112,76,49223,5,4,0:0:0:0:
140,76,49223,1,4,0:0:0:0:
140,76,49366,1,4,0:0:0:0:
168,76,49366,1,4,0:0:0:0:
112,76,49508,1,4,0:0:0:0:
84,76,49508,1,4,0:0:0:0:
84,76,49651,1,4,0:0:0:0:
56,76,49651,1,4,0:0:0:0:
56,76,49937,6,0,L|56:184,2,97.50000371933
368,132,50366,6,0,P|408:184|368:228,1,130,4|0,0:0|0:0,0:0:0:0:
112,232,50651,1,0,0:0:0:0:
336,240,50794,2,0,L|468:240,1,130,8|0,0:0|0:0,0:0:0:0:
84,176,51080,6,0,L|228:176,2,130
320,264,51508,6,4,P|384:228|436:76,1,195
437,122,51723,2,4,L|236:124,1,195
242,123,51937,2,4,L|384:124,1,130,4|0,0:0|0:0,0:0:0:0:
152,124,52223,6,0,L|16:124,2,130
364,108,52651,6,4,L|212:248,1,195
220,240,52866,2,4,L|79:91,1,195
86,98,53080,2,4,L|203:99,1,65,4|2,0:0|0:0,0:0:0:0:
288,100,53223,6,2,L|216:100,1,65
364,208,53366,6,0,L|504:208,2,130
76,280,53794,6,0,L|192:104,1,195
183,117,54008,2,4,B|124:144|124:144|260:172,1,195
251,170,54223,2,4,L|184:172,1,65,4|0,0:0|0:0,0:0:0:0:
464,200,54366,6,2,L|392:208,1,65
244,168,54508,6,2,L|176:176,1,65
416,120,54651,6,2,L|336:132,1,65
152,128,54794,6,2,L|88:140,1,65
304,288,54937,6,0,P|364:236|380:172,1,130,2|0,0:0|0:0,0:0:0:0:
352,132,55223,2,0,L|276:132,1,65
132,104,55366,2,0,B|68:104|68:104|138:104,1,130
352,112,55580,2,0,L|428:112,2,65
128,280,55794,1,8,0:0:0:0:
376,208,55937,6,0,L|376:272,1,65,2|0,0:0|0:0,0:0:0:0:
208,288,56080,2,0,P|148:236|132:172,1,130
160,132,56366,2,0,L|236:132,1,65
380,104,56509,2,0,B|444:104|444:104|374:104,1,130
160,112,56723,2,0,L|84:112,2,65
384,280,56937,1,8,0:0:0:0:
472,204,57008,1,8,0:0:0:0:
268,156,57080,1,8,0:0:0:0:
64,144,57151,1,8,0:0:0:0:
260,228,57223,6,6,L|408:228,3,130
232,228,57794,6,6,L|456:228,3,216.666666666667
200,228,58366,6,6,L|464:228,3,260
132,256,58937,5,0,0:0:0:0:
80,216,59008,1,0,0:0:0:0:
80,152,59080,1,0,0:0:0:0:
132,112,59151,1,0,0:0:0:0:
364,260,59223,5,0,0:0:0:0:
372,256,59241,1,0,0:0:0:0:
380,252,59258,1,0,0:0:0:0:
384,244,59276,1,0,0:0:0:0:
388,236,59294,1,0,0:0:0:0:
392,228,59312,1,0,0:0:0:0:
396,220,59330,1,0,0:0:0:0:
400,212,59348,1,0,0:0:0:0:
404,204,59366,1,0,0:0:0:0:
404,196,59383,1,0,0:0:0:0:
404,188,59401,1,0,0:0:0:0:
400,180,59419,1,0,0:0:0:0:
396,176,59437,1,0,0:0:0:0:
388,172,59455,1,0,0:0:0:0:
380,168,59473,1,0,0:0:0:0:
372,164,59491,1,0,0:0:0:0:
140,180,59508,6,0,L|64:180,2,65,2|0|0,0:0|0:0|0:0,0:0:0:0:
400,152,59794,1,0,0:0:0:0:
72,116,59937,1,8,0:0:0:0:
408,84,60080,6,0,L|264:84,1,130
60,172,60366,2,0,L|228:172,1,130
460,116,60651,6,2,L|300:116,1,130
56,252,60937,2,2,L|228:252,1,130
512,84,61223,6,4,L|0:84,1,520
256,108,61794,6,0,L|344:108,1,65,2|0,0:0|0:0,0:0:0:0:
321,108,61937,2,0,L|256:108,1,65
188,108,62080,1,0,0:0:0:0:
476,112,62223,1,8,0:0:0:0:
172,220,62508,6,0,L|104:220,1,65,2|0,0:0|0:0,0:0:0:0:
280,172,62651,2,0,L|376:172,1,65,2|0,0:0|0:0,0:0:0:0:
168,164,62794,1,2,0:0:0:0:
472,240,62937,6,8,L|200:240,3,260
12,204,63508,6,2,L|80:204,1,65
212,200,63651,6,2,L|280:200,1,65
44,152,63794,6,2,L|112:152,1,65
248,152,63937,6,2,L|320:152,1,65
112,76,64080,6,2,L|272:76,1,130,8|0,0:0|0:0,0:0:0:0:
472,224,64366,2,2,L|328:224,1,130,8|0,0:0|0:0,0:0:0:0:
188,160,64651,6,2,L|116:160,1,65
432,148,64794,6,2,L|360:148,1,65
216,96,64937,6,2,L|148:96,1,65
492,92,65080,6,2,L|424:92,1,65
136,236,65223,6,0,P|96:184|124:112,1,130,8|0,0:0|0:0,0:0:0:0:
332,240,65508,2,0,P|396:196|396:140,1,130,8|0,0:0|0:0,0:0:0:0:
128,136,65794,6,2,L|204:136,1,65
344,116,65937,6,2,L|276:116,1,65
88,88,66080,6,2,L|164:88,1,65
384,72,66223,6,2,L|300:72,1,65
132,84,66366,6,0,L|288:84,1,130,8|0,0:0|0:0,0:0:0:0:
328,84,66580,1,0,0:0:0:0:
120,168,66651,6,2,L|52:168,1,65
212,168,66794,2,2,L|132:168,1,65
277,168,66937,6,0,L|133:168,1,130,8|0,0:0|0:0,0:0:0:0:
348,164,67223,2,0,L|512:164,1,130,8|0,0:0|0:0,0:0:0:0:
92,188,67508,6,2,L|64:128,1,65
272,180,67651,6,2,L|240:116,1,65
48,188,67794,6,2,L|88:132,1,65
232,188,67937,6,2,L|276:128,1,65
104,268,68080,5,0,0:0:0:0:
80,248,68116,1,0,0:0:0:0:
60,224,68151,1,0,0:0:0:0:
52,192,68187,1,0,0:0:0:0:
56,160,68223,1,0,0:0:0:0:
72,132,68258,1,0,0:0:0:0:
100,116,68294,1,0,0:0:0:0:
132,108,68330,1,0,0:0:0:0:
328,256,68366,5,0,0:0:0:0:
360,248,68401,1,0,0:0:0:0:
392,236,68437,1,0,0:0:0:0:
424,224,68473,1,0,0:0:0:0:
452,212,68508,1,0,0:0:0:0:
420,200,68544,1,0,0:0:0:0:
392,188,68580,1,0,0:0:0:0:
364,176,68616,1,0,0:0:0:0:
144,248,68651,6,4,P|68:180|105:114,1,178.75
344,124,68866,6,4,L|410:303,1,178.75
128,304,69080,6,4,B|48:208|48:208|108:152,1,195
256,144,69366,2,2,L|324:144,1,65
180,144,69508,6,0,L|48:144,1,130,8|0,0:0|0:0,0:0:0:0:
368,248,69794,6,4,P|444:180|410:114,1,178.75
224,136,70009,6,4,L|144:310,1,178.75
384,304,70223,6,4,B|464:208|464:208|404:152,1,195
272,148,70508,2,0,L|240:148,1,32.5,2|0,0:0|0:0,0:0:0:0:
64,120,70651,6,0,L|28:120,1,32.5,2|0,0:0|0:0,0:0:0:0:
272,56,70794,6,0,L|312:88,1,32.5,2|0,0:0|0:0,0:0:0:0:
128,120,70937,6,4,L|98:309,1,178.75
384,124,71151,6,4,L|435:307,1,178.75
180,124,71366,6,4,L|99:298,1,178.75
340,120,71580,6,4,L|428:304,1,195
424,295,71794,2,0,L|268:296,1,130,4|0,0:0|0:0,0:0:0:0:
60,188,72080,6,0,L|208:216,1,130,8|0,0:0|0:0,0:0:0:0:
444,180,72366,2,0,P|408:252|336:256,1,130,8|0,0:0|0:0,0:0:0:0:
72,196,72651,6,2,L|72:272,1,65
212,196,72794,6,2,L|212:272,1,65
28,204,72937,6,2,L|28:272,1,65
256,184,73080,6,2,L|256:260,1,65
76,280,73223,6,0,P|32:192|144:112,1,260,2|0,0:0|0:0,0:0:0:0:
256,192,73580,1,0,0:0:0:0:
368,280,73651,2,0,P|444:232|448:176,1,130
256,192,73866,1,0,0:0:0:0:
96,192,73937,2,0,L|32:192,1,65
344,192,74080,2,0,L|214:192,1,130,8|0,0:0|0:0,0:0:0:0:
436,280,74366,6,0,P|480:192|368:112,1,260,2|0,0:0|0:0,0:0:0:0:
256,192,74723,1,0,0:0:0:0:
144,280,74794,2,0,P|68:232|64:176,1,130
256,192,75009,1,0,0:0:0:0:
416,192,75080,2,0,L|480:192,1,65
256,192,75223,1,8,0:0:0:0:
192,192,75294,1,8,0:0:0:0:
128,192,75366,1,8,0:0:0:0:
192,192,75437,1,8,0:0:0:0:
432,144,75508,6,6,L|288:144,1,130
220,116,75794,2,6,L|364:116,1,130
448,88,76080,6,6,L|220:88,1,216.666666666667
144,164,76366,2,6,L|376:164,1,216.666666666667
464,84,76651,6,6,L|172:84,1,260
80,168,76937,2,6,L|380:168,1,260
472,152,77223,5,0,0:0:0:0:
512,112,77294,1,0,0:0:0:0:
492,60,77366,1,0,0:0:0:0:
432,36,77437,1,0,0:0:0:0:
117,185,77508,5,0,0:0:0:0:
110,178,77526,1,0,0:0:0:0:
103,171,77544,1,0,0:0:0:0:
95,164,77562,1,0,0:0:0:0:
105,164,77580,1,0,0:0:0:0:
115,164,77598,1,0,0:0:0:0:
124,161,77616,1,0,0:0:0:0:
134,161,77633,1,0,0:0:0:0:
143,159,77651,1,0,0:0:0:0:
153,159,77669,1,0,0:0:0:0:
148,149,77687,1,0,0:0:0:0:
143,140,77705,1,0,0:0:0:0:
139,130,77723,1,0,0:0:0:0:
131,123,77741,1,0,0:0:0:0:
124,116,77758,1,0,0:0:0:0:
117,108,77776,1,0,0:0:0:0:
256,192,77798,12,0,78619,0:0:0:0:
112,104,77798,6,0,P|300:72|488:156,1,390
260,200,78940,5,4,0:0:0:0:
260,168,78940,1,4,0:0:0:0:
260,168,78940,1,4,0:0:0:0:
260,168,78940,1,4,0:0:0:0:
260,168,78940,1,4,0:0:0:0:
160,152,79226,5,4,0:0:0:0:
160,120,79226,1,4,0:0:0:0:
160,120,79226,1,4,0:0:0:0:
160,120,79226,1,4,0:0:0:0:
160,120,79226,1,4,0:0:0:0:
408,124,79512,5,4,0:0:0:0:
408,92,79512,1,4,0:0:0:0:
408,92,79512,1,4,0:0:0:0:
408,92,79512,1,4,0:0:0:0:
408,92,79512,1,4,0:0:0:0:
60,248,79798,5,4,0:0:0:0:
60,216,79798,1,4,0:0:0:0:
60,216,79798,1,4,0:0:0:0:
60,216,79798,1,4,0:0:0:0:
60,216,79798,1,4,0:0:0:0:
144,228,80083,5,0,0:0:0:0:
133,220,80101,1,0,0:0:0:0:
123,214,80118,1,0,0:0:0:0:
112,209,80137,1,0,0:0:0:0:
102,201,80154,1,0,0:0:0:0:
92,190,80173,1,0,0:0:0:0:
82,188,80190,1,0,0:0:0:0:
79,185,80208,1,0,0:0:0:0:
75,178,80225,1,0,0:0:0:0:
88,169,80244,1,0,0:0:0:0:
98,171,80261,1,0,0:0:0:0:
111,170,80280,1,0,0:0:0:0:
122,165,80297,1,0,0:0:0:0:
134,170,80315,1,0,0:0:0:0:
146,159,80333,1,0,0:0:0:0:
156,150,80351,1,0,0:0:0:0:
164,146,80368,1,0,0:0:0:0:
170,146,80387,1,0,0:0:0:0:
174,124,80404,1,0,0:0:0:0:
180,146,80423,1,0,0:0:0:0:
184,102,80440,1,0,0:0:0:0:
190,145,80458,1,0,0:0:0:0:
194,80,80475,1,0,0:0:0:0:
204,72,80494,1,0,0:0:0:0:
387,113,80512,5,0,0:0:0:0:
393,123,80530,1,0,0:0:0:0:
401,132,80548,1,0,0:0:0:0:
407,141,80565,1,0,0:0:0:0:
412,152,80583,1,0,0:0:0:0:
416,163,80601,1,0,0:0:0:0:
418,174,80619,1,0,0:0:0:0:
419,186,80637,1,0,0:0:0:0:
419,198,80655,1,0,0:0:0:0:
417,210,80673,1,0,0:0:0:0:
412,220,80690,1,0,0:0:0:0:
405,230,80708,1,0,0:0:0:0:
396,239,80726,1,0,0:0:0:0:
387,248,80744,1,0,0:0:0:0:
378,256,80762,1,0,0:0:0:0:
368,264,80780,1,0,0:0:0:0:
359,272,80798,1,0,0:0:0:0:
350,279,80815,1,0,0:0:0:0:
339,272,80833,1,0,0:0:0:0:
328,265,80851,1,0,0:0:0:0:
317,258,80869,1,0,0:0:0:0:
306,250,80887,1,0,0:0:0:0:
295,242,80905,1,0,0:0:0:0:
285,234,80923,1,0,0:0:0:0:
80,251,80940,5,0,0:0:0:0:
74,239,80958,1,0,0:0:0:0:
68,227,80976,1,0,0:0:0:0:
62,215,80994,1,0,0:0:0:0:
74,213,81012,1,0,0:0:0:0:
70,201,81030,1,0,0:0:0:0:
66,189,81048,1,0,0:0:0:0:
62,177,81065,1,0,0:0:0:0:
74,175,81083,1,0,0:0:0:0:
72,162,81101,1,0,0:0:0:0:
70,149,81119,1,0,0:0:0:0:
68,136,81137,1,0,0:0:0:0:
80,136,81155,1,0,0:0:0:0:
82,124,81173,1,0,0:0:0:0:
84,112,81190,1,0,0:0:0:0:
87,100,81208,1,0,0:0:0:0:
288,105,81226,5,0,0:0:0:0:
300,105,81244,1,0,0:0:0:0:
312,104,81262,1,0,0:0:0:0:
324,103,81280,1,0,0:0:0:0:
336,103,81298,1,0,0:0:0:0:
347,103,81315,1,0,0:0:0:0:
359,103,81333,1,0,0:0:0:0:
371,103,81351,1,0,0:0:0:0:
381,108,81369,1,0,0:0:0:0:
391,114,81387,1,0,0:0:0:0:
401,120,81405,1,0,0:0:0:0:
411,126,81423,1,0,0:0:0:0:
420,131,81440,1,0,0:0:0:0:
415,142,81458,1,0,0:0:0:0:
411,153,81476,1,0,0:0:0:0:
407,164,81494,1,0,0:0:0:0:
403,175,81512,1,0,0:0:0:0:
399,186,81530,1,0,0:0:0:0:
388,193,81548,1,0,0:0:0:0:
378,199,81565,1,0,0:0:0:0:
367,205,81583,1,0,0:0:0:0:
356,211,81601,1,0,0:0:0:0:
345,217,81619,1,0,0:0:0:0:
334,222,81637,1,0,0:0:0:0:
118,243,81655,5,0,0:0:0:0:
110,233,81673,1,0,0:0:0:0:
103,223,81690,1,0,0:0:0:0:
98,211,81708,1,0,0:0:0:0:
96,198,81726,1,0,0:0:0:0:
97,185,81744,1,0,0:0:0:0:
100,173,81762,1,0,0:0:0:0:
106,162,81780,1,0,0:0:0:0:
113,152,81798,1,0,0:0:0:0:
121,144,81815,1,0,0:0:0:0:
130,136,81833,1,0,0:0:0:0:
140,129,81851,1,0,0:0:0:0:
150,123,81869,1,0,0:0:0:0:
160,116,81887,1,0,0:0:0:0:
169,108,81905,1,0,0:0:0:0:
175,97,81923,1,0,0:0:0:0:
178,85,81940,1,0,0:0:0:0:
172,74,81958,1,0,0:0:0:0:
164,64,81976,1,0,0:0:0:0:
153,57,81994,1,0,0:0:0:0:
141,52,82012,1,0,0:0:0:0:
128,51,82030,1,0,0:0:0:0:
116,54,82048,1,0,0:0:0:0:
105,59,82065,1,0,0:0:0:0:
196,226,82083,5,0,0:0:0:0:
208,227,82101,1,0,0:0:0:0:
208,227,82119,1,0,0:0:0:0:
208,227,82137,1,0,0:0:0:0:
292,214,82155,5,0,0:0:0:0:
304,215,82173,1,0,0:0:0:0:
304,215,82191,1,0,0:0:0:0:
304,215,82209,1,0,0:0:0:0:
390,174,82226,5,0,0:0:0:0:
402,175,82244,1,0,0:0:0:0:
402,175,82262,1,0,0:0:0:0:
402,175,82280,1,0,0:0:0:0:
484,124,82298,5,0,0:0:0:0:
496,125,82316,1,0,0:0:0:0:
496,125,82334,1,0,0:0:0:0:
496,125,82352,1,0,0:0:0:0:
138,252,82369,5,0,0:0:0:0:
119,252,82387,1,0,0:0:0:0:
129,222,82405,1,0,0:0:0:0:
110,222,82423,1,0,0:0:0:0:
121,195,82440,1,0,0:0:0:0:
102,195,82458,1,0,0:0:0:0:
112,165,82476,1,0,0:0:0:0:
93,165,82494,1,0,0:0:0:0:
108,139,82512,1,0,0:0:0:0:
89,139,82530,1,0,0:0:0:0:
105,109,82548,1,0,0:0:0:0:
86,109,82566,1,0,0:0:0:0:
116,80,82583,1,0,0:0:0:0:
97,80,82601,1,0,0:0:0:0:
132,47,82619,1,0,0:0:0:0:
113,47,82637,1,0,0:0:0:0:
262,253,82655,5,0,0:0:0:0:
281,253,82673,1,0,0:0:0:0:
271,223,82691,1,0,0:0:0:0:
290,223,82709,1,0,0:0:0:0:
279,196,82726,1,0,0:0:0:0:
298,196,82744,1,0,0:0:0:0:
288,166,82762,1,0,0:0:0:0:
307,166,82780,1,0,0:0:0:0:
292,140,82798,1,0,0:0:0:0:
311,140,82816,1,0,0:0:0:0:
295,110,82834,1,0,0:0:0:0:
314,110,82852,1,0,0:0:0:0:
284,81,82869,1,0,0:0:0:0:
303,81,82887,1,0,0:0:0:0:
268,48,82905,1,0,0:0:0:0:
287,48,82923,1,0,0:0:0:0:
88,264,82940,5,0,0:0:0:0:
69,264,82958,1,0,0:0:0:0:
79,234,82976,1,0,0:0:0:0:
60,234,82994,1,0,0:0:0:0:
71,207,83011,1,0,0:0:0:0:
52,207,83029,1,0,0:0:0:0:
62,177,83047,1,0,0:0:0:0:
43,177,83065,1,0,0:0:0:0:
58,151,83083,1,0,0:0:0:0:
39,151,83101,1,0,0:0:0:0:
55,121,83119,1,0,0:0:0:0:
36,121,83137,1,0,0:0:0:0:
66,92,83154,1,0,0:0:0:0:
47,92,83172,1,0,0:0:0:0:
82,59,83190,1,0,0:0:0:0:
63,59,83208,1,0,0:0:0:0:
388,264,83226,5,0,0:0:0:0:
407,264,83244,1,0,0:0:0:0:
397,234,83262,1,0,0:0:0:0:
416,234,83280,1,0,0:0:0:0:
405,207,83297,1,0,0:0:0:0:
424,207,83315,1,0,0:0:0:0:
414,177,83333,1,0,0:0:0:0:
433,177,83351,1,0,0:0:0:0:
418,151,83369,1,0,0:0:0:0:
437,151,83387,1,0,0:0:0:0:
421,121,83405,1,0,0:0:0:0:
440,121,83423,1,0,0:0:0:0:
410,92,83440,1,0,0:0:0:0:
429,92,83458,1,0,0:0:0:0:
394,59,83476,1,0,0:0:0:0:
413,59,83494,1,0,0:0:0:0:
112,264,83512,5,0,0:0:0:0:
100,256,83530,1,0,0:0:0:0:
88,248,83548,1,0,0:0:0:0:
76,240,83565,1,0,0:0:0:0:
80,228,83583,1,0,0:0:0:0:
84,216,83601,1,0,0:0:0:0:
88,204,83619,1,0,0:0:0:0:
92,192,83637,1,0,0:0:0:0:
96,180,83655,1,0,0:0:0:0:
100,168,83673,1,0,0:0:0:0:
104,156,83690,1,0,0:0:0:0:
108,144,83708,1,0,0:0:0:0:
112,132,83726,1,0,0:0:0:0:
116,120,83744,1,0,0:0:0:0:
120,108,83762,1,0,0:0:0:0:
120,108,83780,1,0,0:0:0:0:
308,260,83798,5,0,0:0:0:0:
316,252,83815,1,0,0:0:0:0:
324,244,83833,1,0,0:0:0:0:
332,236,83851,1,0,0:0:0:0:
340,228,83869,1,0,0:0:0:0:
348,220,83887,1,0,0:0:0:0:
356,212,83905,1,0,0:0:0:0:
364,204,83923,1,0,0:0:0:0:
372,196,83940,1,0,0:0:0:0:
380,184,83958,1,0,0:0:0:0:
388,176,83976,1,0,0:0:0:0:
396,168,83994,1,0,0:0:0:0:
388,156,84012,1,0,0:0:0:0:
380,148,84030,1,0,0:0:0:0:
372,140,84048,1,0,0:0:0:0:
364,132,84065,1,0,0:0:0:0:
124,256,84083,5,0,0:0:0:0:
112,248,84101,1,0,0:0:0:0:
100,240,84119,1,0,0:0:0:0:
92,232,84137,1,0,0:0:0:0:
84,220,84155,1,0,0:0:0:0:
76,208,84173,1,0,0:0:0:0:
72,196,84190,1,0,0:0:0:0:
68,184,84208,1,0,0:0:0:0:
64,172,84226,1,0,0:0:0:0:
64,160,84244,1,0,0:0:0:0:
64,148,84262,1,0,0:0:0:0:
64,136,84280,1,0,0:0:0:0:
68,124,84298,1,0,0:0:0:0:
72,112,84315,1,0,0:0:0:0:
80,100,84333,1,0,0:0:0:0:
92,92,84351,1,0,0:0:0:0:
352,276,84369,5,0,0:0:0:0:
364,284,84387,1,0,0:0:0:0:
376,284,84405,1,0,0:0:0:0:
388,280,84423,1,0,0:0:0:0:
400,272,84440,1,0,0:0:0:0:
412,264,84458,1,0,0:0:0:0:
420,252,84476,1,0,0:0:0:0:
424,240,84494,1,0,0:0:0:0:
424,228,84512,1,0,0:0:0:0:
424,216,84530,1,0,0:0:0:0:
420,204,84548,1,0,0:0:0:0:
412,196,84565,1,0,0:0:0:0:
400,188,84583,1,0,0:0:0:0:
388,184,84601,1,0,0:0:0:0:
376,180,84619,1,0,0:0:0:0:
364,180,84637,1,0,0:0:0:0:
124,296,84655,5,0,0:0:0:0:
120,284,84673,1,0,0:0:0:0:
116,272,84690,1,0,0:0:0:0:
112,260,84708,1,0,0:0:0:0:
108,248,84726,1,0,0:0:0:0:
104,236,84744,1,0,0:0:0:0:
100,224,84762,1,0,0:0:0:0:
96,212,84780,1,0,0:0:0:0:
92,200,84798,1,0,0:0:0:0:
88,188,84815,1,0,0:0:0:0:
84,176,84833,1,0,0:0:0:0:
80,164,84851,1,0,0:0:0:0:
76,152,84869,1,0,0:0:0:0:
72,140,84887,1,0,0:0:0:0:
68,128,84905,1,0,0:0:0:0:
64,116,84923,1,0,0:0:0:0:
60,104,84940,1,0,0:0:0:0:
56,92,84958,1,0,0:0:0:0:
52,80,84976,1,0,0:0:0:0:
48,68,84994,1,0,0:0:0:0:
44,56,85012,1,0,0:0:0:0:
40,44,85030,1,0,0:0:0:0:
36,32,85048,1,0,0:0:0:0:
32,20,85065,1,0,0:0:0:0:
388,296,85083,5,0,0:0:0:0:
392,284,85101,1,0,0:0:0:0:
396,272,85118,1,0,0:0:0:0:
400,260,85136,1,0,0:0:0:0:
404,248,85154,1,0,0:0:0:0:
408,236,85172,1,0,0:0:0:0:
412,224,85190,1,0,0:0:0:0:
416,212,85208,1,0,0:0:0:0:
420,200,85226,1,0,0:0:0:0:
424,188,85243,1,0,0:0:0:0:
428,176,85261,1,0,0:0:0:0:
432,164,85279,1,0,0:0:0:0:
436,152,85297,1,0,0:0:0:0:
440,140,85315,1,0,0:0:0:0:
444,128,85333,1,0,0:0:0:0:
448,116,85351,1,0,0:0:0:0:
452,104,85368,1,0,0:0:0:0:
456,92,85386,1,0,0:0:0:0:
460,80,85404,1,0,0:0:0:0:
464,68,85422,1,0,0:0:0:0:
468,56,85440,1,0,0:0:0:0:
472,44,85458,1,0,0:0:0:0:
476,32,85476,1,0,0:0:0:0:
480,20,85493,1,0,0:0:0:0:
180,184,85512,5,0,0:0:0:0:
168,184,85530,1,0,0:0:0:0:
156,184,85548,1,0,0:0:0:0:
144,184,85565,1,0,0:0:0:0:
144,172,85583,1,0,0:0:0:0:
144,160,85601,1,0,0:0:0:0:
144,148,85619,1,0,0:0:0:0:
144,136,85637,1,0,0:0:0:0:
156,136,85655,1,0,0:0:0:0:
168,136,85673,1,0,0:0:0:0:
180,136,85690,1,0,0:0:0:0:
192,136,85708,1,0,0:0:0:0:
204,136,85726,1,0,0:0:0:0:
216,136,85744,1,0,0:0:0:0:
228,136,85762,1,0,0:0:0:0:
240,136,85780,1,0,0:0:0:0:
392,280,85798,5,0,0:0:0:0:
400,272,85815,1,0,0:0:0:0:
408,264,85833,1,0,0:0:0:0:
416,256,85851,1,0,0:0:0:0:
424,248,85869,1,0,0:0:0:0:
428,236,85887,1,0,0:0:0:0:
428,224,85905,1,0,0:0:0:0:
428,212,85923,1,0,0:0:0:0:
424,200,85940,1,0,0:0:0:0:
416,188,85958,1,0,0:0:0:0:
408,180,85976,1,0,0:0:0:0:
396,172,85994,1,0,0:0:0:0:
384,164,86012,1,0,0:0:0:0:
372,160,86030,1,0,0:0:0:0:
360,156,86048,1,0,0:0:0:0:
348,152,86065,1,0,0:0:0:0:
336,148,86083,1,0,0:0:0:0:
348,140,86101,1,0,0:0:0:0:
360,132,86119,1,0,0:0:0:0:
372,128,86137,1,0,0:0:0:0:
384,120,86155,1,0,0:0:0:0:
396,116,86173,1,0,0:0:0:0:
408,112,86190,1,0,0:0:0:0:
420,104,86208,1,0,0:0:0:0:
96,268,86226,5,0,0:0:0:0:
88,256,86244,1,0,0:0:0:0:
80,244,86262,1,0,0:0:0:0:
72,232,86280,1,0,0:0:0:0:
64,220,86298,1,0,0:0:0:0:
56,212,86315,1,0,0:0:0:0:
48,200,86333,1,0,0:0:0:0:
40,188,86351,1,0,0:0:0:0:
32,176,86369,1,0,0:0:0:0:
24,164,86387,1,0,0:0:0:0:
36,164,86405,1,0,0:0:0:0:
48,164,86423,1,0,0:0:0:0:
60,164,86440,1,0,0:0:0:0:
72,164,86458,1,0,0:0:0:0:
84,164,86476,1,0,0:0:0:0:
96,164,86494,1,0,0:0:0:0:
184,160,86512,5,0,0:0:0:0:
196,160,86530,1,0,0:0:0:0:
280,164,86548,5,0,0:0:0:0:
292,164,86565,1,0,0:0:0:0:
372,164,86583,5,0,0:0:0:0:
384,164,86601,1,0,0:0:0:0:
468,164,86619,5,0,0:0:0:0:
480,164,86637,1,0,0:0:0:0:
468,164,86655,5,0,0:0:0:0:
456,160,86673,1,0,0:0:0:0:
444,152,86690,1,0,0:0:0:0:
432,144,86708,1,0,0:0:0:0:
424,132,86726,1,0,0:0:0:0:
416,120,86744,1,0,0:0:0:0:
412,108,86762,1,0,0:0:0:0:
408,96,86780,1,0,0:0:0:0:
408,84,86798,1,0,0:0:0:0:
412,72,86815,1,0,0:0:0:0:
416,60,86833,1,0,0:0:0:0:
424,48,86851,1,0,0:0:0:0:
432,36,86869,1,0,0:0:0:0:
440,28,86887,1,0,0:0:0:0:
452,20,86905,1,0,0:0:0:0:
464,12,86923,1,0,0:0:0:0:
108,164,86940,5,0,0:0:0:0:
104,152,86958,1,0,0:0:0:0:
100,140,86976,1,0,0:0:0:0:
96,128,86994,1,0,0:0:0:0:
96,128,87012,1,0,0:0:0:0:
96,128,87030,1,0,0:0:0:0:
96,128,87048,1,0,0:0:0:0:
96,128,87065,1,0,0:0:0:0:
404,164,87083,5,0,0:0:0:0:
408,152,87101,1,0,0:0:0:0:
412,140,87119,1,0,0:0:0:0:
416,128,87137,1,0,0:0:0:0:
416,128,87155,1,0,0:0:0:0:
416,128,87173,1,0,0:0:0:0:
416,128,87191,1,0,0:0:0:0:
416,128,87208,1,0,0:0:0:0:
96,128,87226,5,0,0:0:0:0:
96,128,87244,1,0,0:0:0:0:
96,128,87261,1,0,0:0:0:0:
96,128,87279,1,0,0:0:0:0:
96,128,87297,1,0,0:0:0:0:
96,128,87315,1,0,0:0:0:0:
100,140,87333,1,0,0:0:0:0:
104,152,87351,1,0,0:0:0:0:
416,128,87369,5,0,0:0:0:0:
416,128,87387,1,0,0:0:0:0:
416,128,87404,1,0,0:0:0:0:
416,128,87422,1,0,0:0:0:0:
416,128,87440,1,0,0:0:0:0:
416,128,87458,1,0,0:0:0:0:
412,140,87476,1,0,0:0:0:0:
408,152,87494,1,0,0:0:0:0:
108,220,87512,5,0,0:0:0:0:
104,232,87530,1,0,0:0:0:0:
100,244,87548,1,0,0:0:0:0:
96,256,87566,1,0,0:0:0:0:
96,256,87584,1,0,0:0:0:0:
96,256,87602,1,0,0:0:0:0:
96,256,87620,1,0,0:0:0:0:
96,256,87637,1,0,0:0:0:0:
404,220,87655,5,0,0:0:0:0:
408,232,87673,1,0,0:0:0:0:
412,244,87691,1,0,0:0:0:0:
416,256,87709,1,0,0:0:0:0:
416,256,87727,1,0,0:0:0:0:
416,256,87745,1,0,0:0:0:0:
416,256,87763,1,0,0:0:0:0:
416,256,87780,1,0,0:0:0:0:
96,256,87798,5,0,0:0:0:0:
96,256,87816,1,0,0:0:0:0:
96,256,87833,1,0,0:0:0:0:
96,256,87851,1,0,0:0:0:0:
96,256,87869,1,0,0:0:0:0:
96,256,87887,1,0,0:0:0:0:
100,244,87905,1,0,0:0:0:0:
104,232,87923,1,0,0:0:0:0:
416,256,87941,5,0,0:0:0:0:
416,256,87959,1,0,0:0:0:0:
416,256,87976,1,0,0:0:0:0:
416,256,87994,1,0,0:0:0:0:
416,256,88012,1,0,0:0:0:0:
416,256,88030,1,0,0:0:0:0:
412,244,88048,1,0,0:0:0:0:
408,232,88066,1,0,0:0:0:0:
132,240,88083,5,0,0:0:0:0:
120,232,88101,1,0,0:0:0:0:
112,224,88119,1,0,0:0:0:0:
100,216,88137,1,0,0:0:0:0:
112,208,88155,1,0,0:0:0:0:
124,200,88173,1,0,0:0:0:0:
136,192,88190,1,0,0:0:0:0:
148,184,88208,1,0,0:0:0:0:
380,240,88226,5,0,0:0:0:0:
392,232,88244,1,0,0:0:0:0:
400,224,88262,1,0,0:0:0:0:
412,216,88280,1,0,0:0:0:0:
400,208,88298,1,0,0:0:0:0:
388,200,88316,1,0,0:0:0:0:
376,192,88333,1,0,0:0:0:0:
364,184,88351,1,0,0:0:0:0:
80,220,88369,5,0,0:0:0:0:
68,212,88387,1,0,0:0:0:0:
60,204,88405,1,0,0:0:0:0:
48,196,88423,1,0,0:0:0:0:
60,188,88441,1,0,0:0:0:0:
72,180,88459,1,0,0:0:0:0:
84,172,88476,1,0,0:0:0:0:
96,164,88494,1,0,0:0:0:0:
424,224,88512,5,0,0:0:0:0:
436,216,88530,1,0,0:0:0:0:
444,208,88548,1,0,0:0:0:0:
456,200,88566,1,0,0:0:0:0:
444,192,88584,1,0,0:0:0:0:
432,184,88602,1,0,0:0:0:0:
420,176,88619,1,0,0:0:0:0:
408,168,88637,1,0,0:0:0:0:
396,160,88655,1,0,0:0:0:0:
384,152,88673,1,0,0:0:0:0:
372,144,88690,1,0,0:0:0:0:
360,136,88708,1,0,0:0:0:0:
348,128,88726,1,0,0:0:0:0:
336,120,88744,1,0,0:0:0:0:
324,112,88762,1,0,0:0:0:0:
312,104,88780,1,0,0:0:0:0:
128,200,88798,5,0,0:0:0:0:
120,188,88815,1,0,0:0:0:0:
116,176,88833,1,0,0:0:0:0:
120,164,88851,1,0,0:0:0:0:
108,160,88869,1,0,0:0:0:0:
108,148,88887,1,0,0:0:0:0:
120,144,88905,1,0,0:0:0:0:
132,144,88923,1,0,0:0:0:0:
264,144,88940,5,0,0:0:0:0:
276,144,88958,1,0,0:0:0:0:
288,144,88976,1,0,0:0:0:0:
300,144,88994,1,0,0:0:0:0:
312,136,89012,1,0,0:0:0:0:
324,128,89030,1,0,0:0:0:0:
332,116,89048,1,0,0:0:0:0:
336,104,89065,1,0,0:0:0:0:
172,84,89083,5,0,0:0:0:0:
160,84,89101,1,0,0:0:0:0:
148,84,89119,1,0,0:0:0:0:
136,92,89137,1,0,0:0:0:0:
128,104,89155,1,0,0:0:0:0:
128,116,89173,1,0,0:0:0:0:
136,128,89190,1,0,0:0:0:0:
148,136,89208,1,0,0:0:0:0:
376,48,89226,5,0,0:0:0:0:
384,60,89244,1,0,0:0:0:0:
392,72,89262,1,0,0:0:0:0:
396,84,89280,1,0,0:0:0:0:
400,96,89298,1,0,0:0:0:0:
404,108,89315,1,0,0:0:0:0:
408,120,89333,1,0,0:0:0:0:
412,132,89351,1,0,0:0:0:0:
416,144,89369,1,0,0:0:0:0:
416,156,89387,1,0,0:0:0:0:
416,168,89405,1,0,0:0:0:0:
416,180,89423,1,0,0:0:0:0:
412,192,89440,1,0,0:0:0:0:
408,204,89458,1,0,0:0:0:0:
400,216,89476,1,0,0:0:0:0:
392,228,89494,1,0,0:0:0:0:
384,236,89512,1,0,0:0:0:0:
372,244,89530,1,0,0:0:0:0:
360,252,89548,1,0,0:0:0:0:
348,260,89565,1,0,0:0:0:0:
336,268,89583,1,0,0:0:0:0:
324,272,89601,1,0,0:0:0:0:
312,276,89619,1,0,0:0:0:0:
300,280,89637,1,0,0:0:0:0:
96,276,89655,5,0,0:0:0:0:
84,268,89673,1,0,0:0:0:0:
72,260,89690,1,0,0:0:0:0:
60,252,89708,1,0,0:0:0:0:
48,244,89726,1,0,0:0:0:0:
40,236,89744,1,0,0:0:0:0:
32,228,89762,1,0,0:0:0:0:
44,228,89780,1,0,0:0:0:0:
56,228,89798,1,0,0:0:0:0:
68,228,89815,1,0,0:0:0:0:
80,228,89833,1,0,0:0:0:0:
92,228,89851,1,0,0:0:0:0:
104,228,89869,1,0,0:0:0:0:
116,224,89887,1,0,0:0:0:0:
128,224,89905,1,0,0:0:0:0:
140,220,89923,1,0,0:0:0:0:
152,220,89940,1,0,0:0:0:0:
148,208,89958,1,0,0:0:0:0:
144,196,89976,1,0,0:0:0:0:
140,184,89994,1,0,0:0:0:0:
132,172,90012,1,0,0:0:0:0:
124,160,90030,1,0,0:0:0:0:
116,148,90048,1,0,0:0:0:0:
108,140,90065,1,0,0:0:0:0:
328,88,90083,5,0,0:0:0:0:
340,88,90101,1,0,0:0:0:0:
340,100,90119,1,0,0:0:0:0:
328,100,90137,1,0,0:0:0:0:
328,88,90155,1,0,0:0:0:0:
340,88,90173,1,0,0:0:0:0:
340,100,90191,1,0,0:0:0:0:
328,100,90209,1,0,0:0:0:0:
328,88,90226,1,0,0:0:0:0:
340,88,90244,1,0,0:0:0:0:
340,100,90262,1,0,0:0:0:0:
328,100,90280,1,0,0:0:0:0:
328,88,90298,1,0,0:0:0:0:
340,88,90316,1,0,0:0:0:0:
340,100,90334,1,0,0:0:0:0:
328,100,90352,1,0,0:0:0:0:
160,128,90369,5,0,0:0:0:0:
148,136,90387,1,0,0:0:0:0:
136,144,90405,1,0,0:0:0:0:
124,152,90423,1,0,0:0:0:0:
112,156,90440,1,0,0:0:0:0:
104,168,90458,1,0,0:0:0:0:
100,180,90476,1,0,0:0:0:0:
104,192,90494,1,0,0:0:0:0:
100,204,90512,1,0,0:0:0:0:
92,216,90530,1,0,0:0:0:0:
96,228,90548,1,0,0:0:0:0:
108,236,90565,1,0,0:0:0:0:
120,240,90583,1,0,0:0:0:0:
132,240,90601,1,0,0:0:0:0:
144,236,90619,1,0,0:0:0:0:
156,232,90637,1,0,0:0:0:0:
168,228,90655,1,0,0:0:0:0:
180,228,90673,1,0,0:0:0:0:
192,232,90690,1,0,0:0:0:0:
204,236,90708,1,0,0:0:0:0:
216,240,90726,1,0,0:0:0:0:
228,244,90744,1,0,0:0:0:0:
240,248,90762,1,0,0:0:0:0:
252,248,90780,1,0,0:0:0:0:
408,228,90798,5,0,0:0:0:0:
416,216,90815,1,0,0:0:0:0:
424,204,90833,1,0,0:0:0:0:
432,192,90851,1,0,0:0:0:0:
440,180,90869,1,0,0:0:0:0:
448,168,90887,1,0,0:0:0:0:
440,156,90905,1,0,0:0:0:0:
432,144,90923,1,0,0:0:0:0:
424,136,90940,1,0,0:0:0:0:
416,124,90958,1,0,0:0:0:0:
408,112,90976,1,0,0:0:0:0:
400,100,90994,1,0,0:0:0:0:
392,92,91012,1,0,0:0:0:0:
380,96,91030,1,0,0:0:0:0:
368,100,91048,1,0,0:0:0:0:
356,104,91065,1,0,0:0:0:0:
144,192,91083,5,0,0:0:0:0:
132,184,91101,1,0,0:0:0:0:
120,176,91119,1,0,0:0:0:0:
108,168,91137,1,0,0:0:0:0:
120,160,91155,1,0,0:0:0:0:
132,152,91173,1,0,0:0:0:0:
144,144,91191,1,0,0:0:0:0:
156,136,91209,1,0,0:0:0:0:
144,192,91226,1,0,0:0:0:0:
132,184,91244,1,0,0:0:0:0:
120,176,91262,1,0,0:0:0:0:
108,168,91280,1,0,0:0:0:0:
120,160,91298,1,0,0:0:0:0:
132,152,91316,1,0,0:0:0:0:
144,144,91334,1,0,0:0:0:0:
156,136,91352,1,0,0:0:0:0:
168,136,91369,1,0,0:0:0:0:
180,136,91387,1,0,0:0:0:0:
192,136,91405,1,0,0:0:0:0:
204,136,91423,1,0,0:0:0:0:
216,136,91440,1,0,0:0:0:0:
228,136,91458,1,0,0:0:0:0:
240,136,91476,1,0,0:0:0:0:
252,136,91494,1,0,0:0:0:0:
428,88,91512,5,0,0:0:0:0:
428,88,91530,1,0,0:0:0:0:
428,88,91548,1,0,0:0:0:0:
428,88,91565,1,0,0:0:0:0:
428,88,91583,1,0,0:0:0:0:
428,88,91601,1,0,0:0:0:0:
428,88,91619,1,0,0:0:0:0:
428,88,91637,1,0,0:0:0:0:
428,88,91655,1,0,0:0:0:0:
428,88,91673,1,0,0:0:0:0:
428,88,91690,1,0,0:0:0:0:
428,88,91708,1,0,0:0:0:0:
428,88,91726,1,0,0:0:0:0:
428,88,91744,1,0,0:0:0:0:
428,88,91762,1,0,0:0:0:0:
428,88,91780,1,0,0:0:0:0:
428,88,91798,1,0,0:0:0:0:
428,88,91815,1,0,0:0:0:0:
428,88,91833,1,0,0:0:0:0:
428,88,91851,1,0,0:0:0:0:
428,88,91869,1,0,0:0:0:0:
428,88,91887,1,0,0:0:0:0:
428,88,91905,1,0,0:0:0:0:
428,88,91923,1,0,0:0:0:0:
128,124,91940,5,0,0:0:0:0:
128,124,91958,1,0,0:0:0:0:
128,124,91976,1,0,0:0:0:0:
128,124,91993,1,0,0:0:0:0:
128,124,92011,1,0,0:0:0:0:
128,124,92029,1,0,0:0:0:0:
128,124,92047,1,0,0:0:0:0:
128,124,92065,1,0,0:0:0:0:
128,124,92083,1,0,0:0:0:0:
128,124,92101,1,0,0:0:0:0:
128,124,92118,1,0,0:0:0:0:
128,124,92136,1,0,0:0:0:0:
128,124,92154,1,0,0:0:0:0:
128,124,92172,1,0,0:0:0:0:
128,124,92190,1,0,0:0:0:0:
128,124,92208,1,0,0:0:0:0:
128,124,92226,1,0,0:0:0:0:
128,124,92243,1,0,0:0:0:0:
128,124,92261,1,0,0:0:0:0:
128,124,92279,1,0,0:0:0:0:
128,124,92297,1,0,0:0:0:0:
128,124,92315,1,0,0:0:0:0:
128,124,92333,1,0,0:0:0:0:
128,124,92351,1,0,0:0:0:0:
380,248,92369,5,0,0:0:0:0:
380,248,92387,1,0,0:0:0:0:
380,248,92405,1,0,0:0:0:0:
380,248,92422,1,0,0:0:0:0:
380,248,92440,1,0,0:0:0:0:
380,248,92458,1,0,0:0:0:0:
380,248,92476,1,0,0:0:0:0:
380,248,92494,1,0,0:0:0:0:
380,248,92512,1,0,0:0:0:0:
380,248,92530,1,0,0:0:0:0:
380,248,92547,1,0,0:0:0:0:
380,248,92565,1,0,0:0:0:0:
380,248,92583,1,0,0:0:0:0:
380,248,92601,1,0,0:0:0:0:
380,248,92619,1,0,0:0:0:0:
380,248,92637,1,0,0:0:0:0:
380,248,92655,1,0,0:0:0:0:
380,248,92672,1,0,0:0:0:0:
380,248,92690,1,0,0:0:0:0:
380,248,92708,1,0,0:0:0:0:
380,248,92726,1,0,0:0:0:0:
380,248,92744,1,0,0:0:0:0:
380,248,92762,1,0,0:0:0:0:
380,248,92780,1,0,0:0:0:0:
60,74,92798,5,0,0:0:0:0:
60,74,92816,1,0,0:0:0:0:
60,74,92834,1,0,0:0:0:0:
60,74,92851,1,0,0:0:0:0:
60,74,92869,1,0,0:0:0:0:
60,74,92887,1,0,0:0:0:0:
60,74,92905,1,0,0:0:0:0:
60,74,92923,1,0,0:0:0:0:
60,74,92941,1,0,0:0:0:0:
60,74,92959,1,0,0:0:0:0:
60,74,92976,1,0,0:0:0:0:
60,74,92994,1,0,0:0:0:0:
60,74,93012,1,0,0:0:0:0:
60,74,93030,1,0,0:0:0:0:
60,74,93048,1,0,0:0:0:0:
60,74,93066,1,0,0:0:0:0:
60,74,93084,1,0,0:0:0:0:
60,74,93101,1,0,0:0:0:0:
60,74,93119,1,0,0:0:0:0:
60,74,93137,1,0,0:0:0:0:
60,74,93155,1,0,0:0:0:0:
60,74,93173,1,0,0:0:0:0:
60,74,93191,1,0,0:0:0:0:
60,74,93209,1,0,0:0:0:0:
420,118,93226,5,0,0:0:0:0:
420,118,93244,1,0,0:0:0:0:
420,118,93262,1,0,0:0:0:0:
420,118,93279,1,0,0:0:0:0:
420,118,93297,1,0,0:0:0:0:
420,118,93315,1,0,0:0:0:0:
420,118,93333,1,0,0:0:0:0:
420,118,93351,1,0,0:0:0:0:
420,118,93369,1,0,0:0:0:0:
420,118,93387,1,0,0:0:0:0:
420,118,93404,1,0,0:0:0:0:
420,118,93422,1,0,0:0:0:0:
420,118,93440,1,0,0:0:0:0:
420,118,93458,1,0,0:0:0:0:
420,118,93476,1,0,0:0:0:0:
420,118,93494,1,0,0:0:0:0:
420,118,93512,1,0,0:0:0:0:
420,118,93529,1,0,0:0:0:0:
420,118,93547,1,0,0:0:0:0:
420,118,93565,1,0,0:0:0:0:
420,118,93583,1,0,0:0:0:0:
420,118,93601,1,0,0:0:0:0:
420,118,93619,1,0,0:0:0:0:
420,118,93637,1,0,0:0:0:0:
118,266,93655,5,0,0:0:0:0:
118,266,93673,1,0,0:0:0:0:
118,266,93691,1,0,0:0:0:0:
118,266,93708,1,0,0:0:0:0:
118,266,93726,1,0,0:0:0:0:
118,266,93744,1,0,0:0:0:0:
118,266,93762,1,0,0:0:0:0:
118,266,93780,1,0,0:0:0:0:
256,276,93798,5,0,0:0:0:0:
268,268,93815,1,0,0:0:0:0:
280,260,93833,1,0,0:0:0:0:
292,252,93851,1,0,0:0:0:0:
304,244,93869,1,0,0:0:0:0:
316,236,93887,1,0,0:0:0:0:
328,232,93905,1,0,0:0:0:0:
340,224,93923,1,0,0:0:0:0:
352,220,93940,1,0,0:0:0:0:
364,212,93958,1,0,0:0:0:0:
376,204,93976,1,0,0:0:0:0:
388,196,93994,1,0,0:0:0:0:
400,188,94012,1,0,0:0:0:0:
392,176,94030,1,0,0:0:0:0:
384,164,94048,1,0,0:0:0:0:
376,156,94065,1,0,0:0:0:0:
368,148,94083,1,0,0:0:0:0:
356,140,94101,1,0,0:0:0:0:
344,132,94119,1,0,0:0:0:0:
332,124,94137,1,0,0:0:0:0:
320,116,94155,1,0,0:0:0:0:
308,108,94173,1,0,0:0:0:0:
296,104,94190,1,0,0:0:0:0:
284,100,94208,1,0,0:0:0:0:
100,100,94226,5,0,0:0:0:0:
88,108,94244,1,0,0:0:0:0:
80,120,94262,1,0,0:0:0:0:
72,132,94280,1,0,0:0:0:0:
64,144,94298,1,0,0:0:0:0:
60,156,94315,1,0,0:0:0:0:
56,168,94333,1,0,0:0:0:0:
52,180,94351,1,0,0:0:0:0:
52,192,94369,1,0,0:0:0:0:
52,204,94387,1,0,0:0:0:0:
56,216,94405,1,0,0:0:0:0:
60,228,94423,1,0,0:0:0:0:
68,236,94440,1,0,0:0:0:0:
76,244,94458,1,0,0:0:0:0:
88,252,94476,1,0,0:0:0:0:
100,260,94494,1,0,0:0:0:0:
272,296,94512,5,0,0:0:0:0:
284,296,94530,1,0,0:0:0:0:
296,292,94548,1,0,0:0:0:0:
308,288,94565,1,0,0:0:0:0:
320,280,94583,1,0,0:0:0:0:
332,272,94601,1,0,0:0:0:0:
340,264,94619,1,0,0:0:0:0:
348,252,94637,1,0,0:0:0:0:
356,240,94655,1,0,0:0:0:0:
360,228,94673,1,0,0:0:0:0:
364,216,94690,1,0,0:0:0:0:
368,204,94708,1,0,0:0:0:0:
372,192,94726,1,0,0:0:0:0:
376,180,94744,1,0,0:0:0:0:
380,168,94762,1,0,0:0:0:0:
384,156,94780,1,0,0:0:0:0:
388,144,94798,1,0,0:0:0:0:
392,132,94815,1,0,0:0:0:0:
392,120,94833,1,0,0:0:0:0:
392,132,94851,1,0,0:0:0:0:
392,144,94869,1,0,0:0:0:0:
392,156,94887,1,0,0:0:0:0:
392,168,94905,1,0,0:0:0:0:
392,180,94923,1,0,0:0:0:0:
256,276,94940,5,0,0:0:0:0:
244,268,94957,1,0,0:0:0:0:
232,260,94975,1,0,0:0:0:0:
220,252,94993,1,0,0:0:0:0:
208,244,95011,1,0,0:0:0:0:
196,236,95029,1,0,0:0:0:0:
184,232,95047,1,0,0:0:0:0:
172,224,95065,1,0,0:0:0:0:
160,220,95082,1,0,0:0:0:0:
148,212,95100,1,0,0:0:0:0:
136,204,95118,1,0,0:0:0:0:
124,196,95136,1,0,0:0:0:0:
112,188,95154,1,0,0:0:0:0:
120,176,95172,1,0,0:0:0:0:
128,164,95190,1,0,0:0:0:0:
136,156,95207,1,0,0:0:0:0:
144,148,95225,1,0,0:0:0:0:
156,140,95243,1,0,0:0:0:0:
168,132,95261,1,0,0:0:0:0:
180,124,95279,1,0,0:0:0:0:
192,116,95297,1,0,0:0:0:0:
204,108,95315,1,0,0:0:0:0:
216,104,95332,1,0,0:0:0:0:
228,100,95350,1,0,0:0:0:0:
412,100,95368,5,0,0:0:0:0:
424,108,95386,1,0,0:0:0:0:
432,120,95404,1,0,0:0:0:0:
440,132,95422,1,0,0:0:0:0:
448,144,95440,1,0,0:0:0:0:
452,156,95457,1,0,0:0:0:0:
456,168,95475,1,0,0:0:0:0:
460,180,95493,1,0,0:0:0:0:
460,192,95511,1,0,0:0:0:0:
460,204,95529,1,0,0:0:0:0:
456,216,95547,1,0,0:0:0:0:
452,228,95565,1,0,0:0:0:0:
444,236,95582,1,0,0:0:0:0:
436,244,95600,1,0,0:0:0:0:
424,252,95618,1,0,0:0:0:0:
412,260,95636,1,0,0:0:0:0:
240,296,95654,5,0,0:0:0:0:
228,296,95672,1,0,0:0:0:0:
216,292,95690,1,0,0:0:0:0:
204,288,95707,1,0,0:0:0:0:
192,280,95725,1,0,0:0:0:0:
180,272,95743,1,0,0:0:0:0:
172,264,95761,1,0,0:0:0:0:
164,252,95779,1,0,0:0:0:0:
156,240,95797,1,0,0:0:0:0:
152,228,95815,1,0,0:0:0:0:
148,216,95832,1,0,0:0:0:0:
144,204,95850,1,0,0:0:0:0:
140,192,95868,1,0,0:0:0:0:
136,180,95886,1,0,0:0:0:0:
132,168,95904,1,0,0:0:0:0:
128,156,95922,1,0,0:0:0:0:
124,144,95940,1,0,0:0:0:0:
120,132,95957,1,0,0:0:0:0:
120,120,95975,1,0,0:0:0:0:
120,132,95993,1,0,0:0:0:0:
120,144,96011,1,0,0:0:0:0:
120,156,96029,1,0,0:0:0:0:
120,168,96047,1,0,0:0:0:0:
120,180,96065,1,0,0:0:0:0:
316,288,96083,6,0,P|416:256|392:108,1,280.312510693074
140,248,96512,6,0,B|64:200|64:200|248:144,1,280.312510693074
408,84,96940,6,0,B|432:120|432:120|364:104|364:104|320:164,1,182.812506973744
196,288,97226,6,0,P|96:256|120:108,1,280.312510693074
288,256,97655,6,0,B|364:208|364:208|180:152,1,280.312510693074
408,84,98083,6,0,B|432:120|432:120|364:104|364:104|320:164,1,182.812506973744
56,216,98369,6,0,B|28:216|28:216|28:152|56:76|220:76,1,292.50001115799,4|0,0:0|0:0,0:0:0:0:
256,192,98369,12,0,98762,0:0:0:0:
256,192,98834,12,0,99334,0:0:0:0:
416,176,98941,5,0,0:0:0:0:
280,172,99084,2,0,L|384:172,1,97.50000371933
460,108,99369,1,0,0:0:0:0:
256,192,99405,12,0,100048,0:0:0:0:
72,156,99512,6,0,P|144:188|64:76,1,390.00001487732,4|8,0:0|0:0,0:0:0:0:
256,192,100119,12,0,100477,0:0:0:0:
216,104,100227,5,8,0:0:0:0:
48,148,100369,1,8,0:0:0:0:
184,188,100512,1,8,0:0:0:0:
396,292,100655,6,0,L|352:200,1,97.50000371933,2|0,0:0|0:0,0:0:0:0:
256,192,100655,12,0,101619,0:0:0:0:
276,300,100941,6,0,L|236:200,1,97.50000371933,2|0,0:0|0:0,0:0:0:0:
412,260,101227,2,0,L|364:156,1,97.50000371933,2|0,0:0|0:0,0:0:0:0:
288,272,101512,1,2,0:0:0:0:
256,252,101548,1,0,0:0:0:0:
232,220,101584,1,0,0:0:0:0:
216,180,101619,1,0,0:0:0:0:
228,144,101655,1,0,0:0:0:0:
256,192,101691,12,0,102048,0:0:0:0:
464,144,101798,5,8,0:0:0:0:
256,108,101941,1,8,0:0:0:0:
40,76,102084,1,8,0:0:0:0:
400,328,102227,6,0,P|464:312|356:252,1,292.50001115799,4|0,0:0|0:0,0:0:0:0:
256,192,102262,12,0,102619,0:0:0:0:
256,296,102727,5,0,0:0:0:0:
168,192,102798,1,0,0:0:0:0:
256,72,102869,1,0,0:0:0:0:
360,72,102940,6,4,P|408:92|384:164,1,140.156255346537
128,280,103369,6,4,P|100:268|144:200,1,140.156255346537
308,252,103798,6,4,L|400:144,1,140.156255346537
152,236,104226,6,4,L|88:112,1,140.156255346537
336,104,104655,5,8,0:0:0:0:
364,104,104655,1,8,0:0:0:0:
400,168,104798,1,8,0:0:0:0:
372,168,104798,1,8,0:0:0:0:
352,252,104940,1,8,0:0:0:0:
380,252,104940,1,8,0:0:0:0:
280,308,105083,1,8,0:0:0:0:
308,308,105083,2,4,B|168:308|168:308|220:308,1,188.906257206202
408,232,105655,6,4,B|456:180|456:180|408:232,1,140.156255346537
120,244,106083,6,4,B|96:240|72:196|72:196|96:240|120:244,1,140.156255346537
372,240,106512,6,4,B|384:164|384:164|320:152,1,140.156255346537
112,184,106940,5,8,0:0:0:0:
140,184,106940,1,8,0:0:0:0:
64,112,107083,1,8,0:0:0:0:
36,112,107083,1,8,0:0:0:0:
128,64,107226,1,8,0:0:0:0:
156,64,107226,1,8,0:0:0:0:
256,192,107369,12,0,109797,0:0:0:0:
276,64,107369,5,8,0:0:0:0:
248,64,107369,1,8,0:0:0:0:
348,192,107940,5,0,0:0:0:0:
292,192,108083,1,0,0:0:0:0:
84,120,108369,5,0,0:0:0:0:
176,124,108512,1,0,0:0:0:0:
392,144,108798,5,0,0:0:0:0:
296,144,108940,1,0,0:0:0:0:
296,288,109226,5,0,0:0:0:0:
360,252,109369,1,0,0:0:0:0:
360,180,109512,1,0,0:0:0:0:
296,144,109655,1,0,0:0:0:0:
444,256,109798,5,0,0:0:0:0:
332,252,109941,2,0,L|284:252,2,32.5
264,300,110227,1,8,0:0:0:0:
384,256,110369,5,0,0:0:0:0:
272,252,110512,2,0,L|224:252,2,32.5
204,300,110798,1,8,0:0:0:0:
320,252,110941,5,0,0:0:0:0:
208,248,111084,2,0,L|160:248,2,32.5
140,296,111370,1,8,0:0:0:0:
256,248,111512,5,0,0:0:0:0:
144,244,111655,2,0,L|96:244,2,32.5
76,292,111941,1,8,0:0:0:0:
180,292,112012,1,0,0:0:0:0:
268,296,112083,5,2,0:0:0:0:
84,224,112369,2,0,L|180:224,1,65
332,200,112798,2,8,L|416:200,2,65
184,176,113226,6,0,L|116:176,1,65,2|0,0:0|0:0,0:0:0:0:
240,124,113512,2,0,L|304:124,1,65,2|0,0:0|0:0,0:0:0:0:
408,76,113798,6,2,L|240:76,1,130
112,132,114369,5,2,0:0:0:0:
328,148,114655,2,0,L|408:148,1,65
168,216,115083,2,8,L|88:216,2,65
344,180,115512,6,2,L|408:180,3,65
344,180,116083,5,0,0:0:0:0:
169,168,116369,1,0,0:0:0:0:
104,168,116655,6,2,L|176:168,3,65
169,168,117226,5,0,0:0:0:0:
355,168,117512,1,0,0:0:0:0:
420,168,117798,6,2,L|340:168,3,65
355,168,118369,5,0,0:0:0:0:
152,176,118655,1,0,0:0:0:0:
152,176,118940,5,8,0:0:0:0:
316,172,119512,6,0,L|244:172,1,65,8|0,0:0|0:0,0:0:0:0:
376,120,119798,2,0,L|440:120,1,65,8|0,0:0|0:0,0:0:0:0:
264,252,120083,6,2,L|192:252,1,65
196,176,120369,2,2,L|280:176,1,65
368,168,120798,5,0,0:0:0:0:
72,120,120940,2,0,L|152:120,1,65,4|0,0:0|0:0,0:0:0:0:
452,124,121226,6,0,L|304:124,1,130,4|0,0:0|0:0,0:0:0:0:
48,188,121512,2,0,L|232:188,1,130
416,148,121798,1,8,0:0:0:0:
196,124,121940,2,0,L|56:124,2,130
436,128,122369,6,4,L|264:248,1,195
276,239,122583,2,4,P|204:192|100:236,1,195
108,225,122798,2,4,L|248:232,1,130,4|0,0:0|0:0,0:0:0:0:
460,204,123083,6,0,L|296:204,2,130
88,204,123512,6,4,P|160:172|148:64,1,195
152,68,123726,2,4,B|144:104|144:104|316:96,1,195
302,96,123940,2,4,L|392:152,1,65,4|2,0:0|0:0,0:0:0:0:
488,212,124083,6,2,L|428:176,1,65
68,208,124226,6,0,L|212:208,2,130
308,328,124655,6,4,B|368:296|368:296|240:264,1,195
244,265,124869,2,4,B|176:244|176:244|316:244,1,195
299,244,125083,2,4,L|364:244,1,65,4|2,0:0|0:0,0:0:0:0:
148,168,125226,6,2,L|216:168,1,65
380,116,125369,6,2,L|456:116,1,65
144,112,125512,6,2,L|224:112,1,65
404,176,125655,6,2,L|468:176,1,65
184,244,125798,6,0,L|52:244,1,130,8|0,0:0|0:0,0:0:0:0:
120,244,126012,1,0,0:0:0:0:
352,248,126083,6,0,L|488:248,1,130,8|0,0:0|0:0,0:0:0:0:
416,248,126298,1,0,0:0:0:0:
47,212,126369,6,0,L|112:212,2,65,8|0|0,0:0|0:0|0:0,0:0:0:0:
256,192,126655,6,0,L|120:192,1,130,8|0,0:0|0:0,0:0:0:0:
328,244,126940,6,0,L|460:244,1,130,8|0,0:0|0:0,0:0:0:0:
392,244,127154,1,0,0:0:0:0:
160,248,127225,6,0,L|24:248,1,130,8|0,0:0|0:0,0:0:0:0:
96,248,127440,1,0,0:0:0:0:
465,212,127511,6,0,L|400:212,2,65,8|0|0,0:0|0:0|0:0,0:0:0:0:
216,192,127798,5,8,0:0:0:0:
280,192,127869,1,8,0:0:0:0:
344,192,127940,1,8,0:0:0:0:
280,192,128012,1,8,0:0:0:0:
56,172,128083,6,6,L|212:172,3,130
56,172,128655,6,6,L|288:172,3,216.666666666667
56,172,129226,6,6,L|416:172,3,260
88,172,129798,5,0,0:0:0:0:
24,172,129869,1,0,0:0:0:0:
24,172,129940,1,0,0:0:0:0:
88,172,130012,1,0,0:0:0:0:
324,280,130083,5,0,0:0:0:0:
336,276,130101,1,0,0:0:0:0:
348,268,130119,1,0,0:0:0:0:
356,260,130137,1,0,0:0:0:0:
364,252,130155,1,0,0:0:0:0:
372,240,130173,1,0,0:0:0:0:
376,228,130190,1,0,0:0:0:0:
376,216,130208,1,0,0:0:0:0:
376,204,130226,1,0,0:0:0:0:
372,192,130244,1,0,0:0:0:0:
364,180,130262,1,0,0:0:0:0:
356,172,130280,1,0,0:0:0:0:
348,164,130298,1,0,0:0:0:0:
340,156,130315,1,0,0:0:0:0:
332,148,130333,1,0,0:0:0:0:
324,140,130351,1,0,0:0:0:0:
64,200,130368,6,0,P|192:304|516:84,1,568.75,4|2,0:0|0:0,0:0:0:0:
68,120,130369,6,0,L|148:120,2,65,2|0|0,0:0|0:0|0:0,0:0:0:0:
412,120,130655,1,0,0:0:0:0:
128,116,130798,1,0,0:0:0:0:
208,96,130940,5,8,0:0:0:0:
428,80,131083,2,0,L|280:80,2,130
112,228,131512,6,0,P|64:172|80:104,1,130,2|0,0:0|0:0,0:0:0:0:
388,200,131798,2,0,P|308:232|256:228,1,130,2|0,0:0|0:0,0:0:0:0:
0,84,132083,6,4,L|520:84,1,520
332,172,132653,6,0,P|212:268|56:32,1,487.5
332,172,132654,2,0,L|176:172,1,130,2|0,0:0|0:0,0:0:0:0:
456,100,132939,2,0,L|316:100,1,130
32,136,133225,1,8,0:0:0:0:
320,248,133368,6,0,L|456:248,2,130
80,160,133796,6,0,L|224:160,1,130,2|0,0:0|0:0,0:0:0:0:
464,100,134082,2,0,L|320:100,1,130,2|0,0:0|0:0,0:0:0:0:
43,57,134368,6,2,L|120:56,1,65
304,116,134511,6,2,L|228:120,1,65
32,132,134654,6,2,L|104:128,1,65
236,48,134796,6,2,L|312:48,1,65
64,188,134938,6,0,P|80:304|256:20,1,975,8|0,0:0|0:0,0:0:0:0:
64,188,134939,2,8,L|204:188,1,130,8|0,0:0|0:0,0:0:0:0:
440,124,135224,2,8,L|296:124,1,130,8|0,0:0|0:0,0:0:0:0:
40,124,135510,6,2,L|40:60,1,65
200,132,135653,6,2,L|200:56,1,65
28,132,135796,6,2,L|48:64,1,65
216,132,135939,6,2,L|180:60,1,65
468,68,136080,6,0,B|49:109|49:109|271:17,1,650,8|0,0:0|0:0,0:0:0:0:
468,68,136081,2,0,L|320:68,1,130,8|0,0:0|0:0,0:0:0:0:
68,160,136366,2,0,L|220:160,1,130,8|0,0:0|0:0,0:0:0:0:
472,260,136652,6,2,L|472:324,1,65
312,252,136795,6,2,L|312:328,1,65
484,252,136938,6,2,L|464:320,1,65
296,252,137081,6,2,L|332:324,1,65
119,208,137222,6,0,P|265:171|260:21,1,325,8|4,0:0|0:0,0:0:0:0:
120,208,137223,2,0,L|14:119,1,130,8|0,0:0|0:0,0:0:0:0:
256,192,137437,1,0,0:0:0:0:
412,324,137508,1,0,0:0:0:0:
468,300,137580,1,0,0:0:0:0:
468,300,137651,1,0,0:0:0:0:
412,324,137723,1,0,0:0:0:0:
152,308,137794,6,0,L|16:308,1,130,2|0,0:0|0:0,0:0:0:0:
344,288,138080,2,0,L|484:288,1,130,2|0,0:0|0:0,0:0:0:0:
292,20,138365,1,4,0:0:0:0:
192,76,138508,1,4,0:0:0:0:
220,76,138508,1,4,0:0:0:0:
216,152,138651,1,4,0:0:0:0:
188,152,138651,1,4,0:0:0:0:
256,236,138794,1,4,0:0:0:0:
284,236,138794,1,4,0:0:0:0:
408,268,138937,5,0,0:0:0:0:
432,248,138973,1,0,0:0:0:0:
452,224,139008,1,0,0:0:0:0:
460,192,139044,1,0,0:0:0:0:
456,160,139080,1,0,0:0:0:0:
440,132,139115,1,0,0:0:0:0:
412,116,139151,1,0,0:0:0:0:
380,108,139187,1,0,0:0:0:0:
184,256,139223,5,0,0:0:0:0:
152,248,139258,1,0,0:0:0:0:
120,236,139294,1,0,0:0:0:0:
88,224,139330,1,0,0:0:0:0:
60,212,139365,1,0,0:0:0:0:
92,200,139401,1,0,0:0:0:0:
120,188,139437,1,0,0:0:0:0:
148,176,139473,1,0,0:0:0:0:
404,216,139508,5,0,0:0:0:0:
417,207,139525,1,0,0:0:0:0:
428,195,139543,1,0,0:0:0:0:
435,180,139561,1,0,0:0:0:0:
438,164,139579,1,0,0:0:0:0:
437,148,139597,1,0,0:0:0:0:
431,133,139615,1,0,0:0:0:0:
421,120,139632,1,0,0:0:0:0:
408,110,139650,1,0,0:0:0:0:
393,104,139668,1,0,0:0:0:0:
377,103,139686,1,0,0:0:0:0:
361,105,139704,1,0,0:0:0:0:
156,256,139722,5,0,0:0:0:0:
143,245,139739,1,0,0:0:0:0:
131,234,139757,1,0,0:0:0:0:
118,224,139775,1,0,0:0:0:0:
106,213,139793,1,0,0:0:0:0:
94,203,139811,1,0,0:0:0:0:
81,192,139829,1,0,0:0:0:0:
74,182,139846,1,0,0:0:0:0:
90,177,139864,1,0,0:0:0:0:
105,171,139882,1,0,0:0:0:0:
120,165,139900,1,0,0:0:0:0:
135,160,139918,1,0,0:0:0:0:
336,176,139936,5,0,0:0:0:0:
346,163,139953,1,0,0:0:0:0:
356,151,139971,1,0,0:0:0:0:
367,138,139989,1,0,0:0:0:0:
377,126,140007,1,0,0:0:0:0:
388,113,140025,1,0,0:0:0:0:
398,101,140043,1,0,0:0:0:0:
408,88,140060,1,0,0:0:0:0:
124,100,140079,5,0,0:0:0:0:
113,87,140096,1,0,0:0:0:0:
103,75,140114,1,0,0:0:0:0:
92,62,140132,1,0,0:0:0:0:
240,89,140150,5,0,0:0:0:0:
237,72,140167,1,0,0:0:0:0:
235,56,140185,1,0,0:0:0:0:
232,40,140203,1,0,0:0:0:0:
88,220,140222,5,0,0:0:0:0:
75,209,140239,1,0,0:0:0:0:
66,196,140257,1,0,0:0:0:0:
60,181,140275,1,0,0:0:0:0:
58,165,140293,1,0,0:0:0:0:
60,149,140311,1,0,0:0:0:0:
67,134,140329,1,0,0:0:0:0:
76,121,140346,1,0,0:0:0:0:
424,276,140365,5,0,0:0:0:0:
426,260,140382,1,0,0:0:0:0:
428,244,140400,1,0,0:0:0:0:
430,228,140418,1,0,0:0:0:0:
432,212,140436,1,0,0:0:0:0:
435,196,140454,1,0,0:0:0:0:
437,180,140472,1,0,0:0:0:0:
439,164,140489,1,0,0:0:0:0:
284,184,140508,5,0,0:0:0:0:
279,168,140525,1,0,0:0:0:0:
274,152,140543,1,0,0:0:0:0:
269,137,140561,1,0,0:0:0:0:
264,121,140579,1,0,0:0:0:0:
259,106,140597,1,0,0:0:0:0:
255,90,140615,1,0,0:0:0:0:
250,75,140632,1,0,0:0:0:0:
108,216,140650,5,0,0:0:0:0:
95,207,140667,1,0,0:0:0:0:
84,195,140685,1,0,0:0:0:0:
77,180,140703,1,0,0:0:0:0:
74,164,140721,1,0,0:0:0:0:
75,148,140739,1,0,0:0:0:0:
81,133,140757,1,0,0:0:0:0:
91,120,140774,1,0,0:0:0:0:
104,110,140792,1,0,0:0:0:0:
119,104,140810,1,0,0:0:0:0:
135,103,140828,1,0,0:0:0:0:
151,105,140846,1,0,0:0:0:0:
356,256,140864,5,0,0:0:0:0:
369,245,140881,1,0,0:0:0:0:
381,234,140899,1,0,0:0:0:0:
394,224,140917,1,0,0:0:0:0:
406,213,140935,1,0,0:0:0:0:
418,203,140953,1,0,0:0:0:0:
431,192,140971,1,0,0:0:0:0:
438,182,140988,1,0,0:0:0:0:
422,177,141006,1,0,0:0:0:0:
407,171,141024,1,0,0:0:0:0:
392,165,141042,1,0,0:0:0:0:
377,160,141060,1,0,0:0:0:0:
176,176,141078,5,0,0:0:0:0:
166,163,141095,1,0,0:0:0:0:
156,151,141113,1,0,0:0:0:0:
145,138,141131,1,0,0:0:0:0:
135,126,141149,1,0,0:0:0:0:
124,113,141167,1,0,0:0:0:0:
114,101,141185,1,0,0:0:0:0:
104,88,141202,1,0,0:0:0:0:
388,100,141221,5,0,0:0:0:0:
399,87,141238,1,0,0:0:0:0:
409,75,141256,1,0,0:0:0:0:
420,62,141274,1,0,0:0:0:0:
272,89,141292,5,0,0:0:0:0:
275,72,141309,1,0,0:0:0:0:
277,56,141327,1,0,0:0:0:0:
280,40,141345,1,0,0:0:0:0:
424,220,141364,5,0,0:0:0:0:
437,209,141381,1,0,0:0:0:0:
446,196,141399,1,0,0:0:0:0:
452,181,141417,1,0,0:0:0:0:
454,165,141435,1,0,0:0:0:0:
452,149,141453,1,0,0:0:0:0:
445,134,141471,1,0,0:0:0:0:
436,121,141488,1,0,0:0:0:0:
88,276,141507,5,0,0:0:0:0:
86,260,141524,1,0,0:0:0:0:
84,244,141542,1,0,0:0:0:0:
82,228,141560,1,0,0:0:0:0:
80,212,141578,1,0,0:0:0:0:
77,196,141596,1,0,0:0:0:0:
75,180,141614,1,0,0:0:0:0:
73,164,141631,1,0,0:0:0:0:
228,184,141650,5,0,0:0:0:0:
233,168,141667,1,0,0:0:0:0:
238,152,141685,1,0,0:0:0:0:
243,137,141703,1,0,0:0:0:0:
248,121,141721,1,0,0:0:0:0:
253,106,141739,1,0,0:0:0:0:
257,90,141757,1,0,0:0:0:0:
262,75,141774,1,0,0:0:0:0:
440,260,141793,5,0,0:0:0:0:
443,244,141810,1,0,0:0:0:0:
446,228,141828,1,0,0:0:0:0:
449,212,141846,1,0,0:0:0:0:
452,196,141864,1,0,0:0:0:0:
455,180,141882,1,0,0:0:0:0:
459,164,141900,1,0,0:0:0:0:
451,151,141917,1,0,0:0:0:0:
440,140,141935,1,0,0:0:0:0:
428,128,141953,1,0,0:0:0:0:
417,117,141971,1,0,0:0:0:0:
405,105,141989,1,0,0:0:0:0:
148,80,142008,5,0,0:0:0:0:
135,90,142025,1,0,0:0:0:0:
123,101,142043,1,0,0:0:0:0:
111,111,142061,1,0,0:0:0:0:
98,122,142079,1,0,0:0:0:0:
86,133,142097,1,0,0:0:0:0:
74,143,142115,1,0,0:0:0:0:
62,154,142132,1,0,0:0:0:0:
59,167,142150,1,0,0:0:0:0:
66,182,142168,1,0,0:0:0:0:
73,196,142186,1,0,0:0:0:0:
79,211,142204,1,0,0:0:0:0:
344,304,142222,5,0,0:0:0:0:
356,294,142239,1,0,0:0:0:0:
369,284,142257,1,0,0:0:0:0:
382,274,142275,1,0,0:0:0:0:
395,264,142293,1,0,0:0:0:0:
408,254,142311,1,0,0:0:0:0:
421,244,142329,1,0,0:0:0:0:
420,236,142346,1,0,0:0:0:0:
405,229,142364,1,0,0:0:0:0:
391,222,142382,1,0,0:0:0:0:
376,215,142400,1,0,0:0:0:0:
361,208,142418,1,0,0:0:0:0:
148,268,142436,5,0,0:0:0:0:
133,261,142453,1,0,0:0:0:0:
120,250,142471,1,0,0:0:0:0:
111,237,142489,1,0,0:0:0:0:
104,222,142507,1,0,0:0:0:0:
102,206,142525,1,0,0:0:0:0:
104,190,142543,1,0,0:0:0:0:
109,175,142560,1,0,0:0:0:0:
118,162,142578,1,0,0:0:0:0:
131,151,142596,1,0,0:0:0:0:
145,144,142614,1,0,0:0:0:0:
161,140,142632,1,0,0:0:0:0:
400,144,142650,5,0,0:0:0:0:
412,154,142667,1,0,0:0:0:0:
428,156,142685,1,0,0:0:0:0:
442,150,142703,1,0,0:0:0:0:
451,136,142721,1,0,0:0:0:0:
451,120,142739,1,0,0:0:0:0:
442,107,142757,1,0,0:0:0:0:
428,100,142774,1,0,0:0:0:0:
200,152,142793,5,0,0:0:0:0:
195,136,142810,1,0,0:0:0:0:
190,121,142828,1,0,0:0:0:0:
185,105,142846,1,0,0:0:0:0:
180,90,142864,1,0,0:0:0:0:
175,74,142882,1,0,0:0:0:0:
170,59,142900,1,0,0:0:0:0:
165,43,142917,1,0,0:0:0:0:
376,268,142936,5,0,0:0:0:0:
381,252,142953,1,0,0:0:0:0:
386,237,142971,1,0,0:0:0:0:
392,222,142989,1,0,0:0:0:0:
397,206,143007,1,0,0:0:0:0:
403,191,143025,1,0,0:0:0:0:
408,176,143043,1,0,0:0:0:0:
414,160,143060,1,0,0:0:0:0:
136,268,143079,5,0,0:0:0:0:
130,252,143096,1,0,0:0:0:0:
125,237,143114,1,0,0:0:0:0:
119,222,143132,1,0,0:0:0:0:
114,206,143150,1,0,0:0:0:0:
108,191,143168,1,0,0:0:0:0:
103,176,143186,1,0,0:0:0:0:
97,160,143203,1,0,0:0:0:0:
416,272,143222,5,0,0:0:0:0:
419,256,143239,1,0,0:0:0:0:
423,240,143257,1,0,0:0:0:0:
427,224,143275,1,0,0:0:0:0:
431,208,143293,1,0,0:0:0:0:
435,193,143311,1,0,0:0:0:0:
439,177,143329,1,0,0:0:0:0:
425,176,143346,1,0,0:0:0:0:
96,272,143365,5,0,0:0:0:0:
92,256,143382,1,0,0:0:0:0:
88,240,143400,1,0,0:0:0:0:
84,224,143418,1,0,0:0:0:0:
80,208,143436,1,0,0:0:0:0:
76,193,143454,1,0,0:0:0:0:
72,177,143472,1,0,0:0:0:0:
86,176,143489,1,0,0:0:0:0:
368,176,143508,6,2,L|440:176,1,65
220,132,143650,6,2,L|292:132,1,65
468,80,143793,6,2,L|396:80,1,65
160,76,143936,6,2,L|88:76,1,65
412,268,144079,5,0,0:0:0:0:
426,259,144096,1,0,0:0:0:0:
438,249,144114,1,0,0:0:0:0:
448,237,144132,1,0,0:0:0:0:
457,223,144150,1,0,0:0:0:0:
462,207,144168,1,0,0:0:0:0:
465,191,144186,1,0,0:0:0:0:
465,175,144203,1,0,0:0:0:0:
352,168,144222,5,0,0:0:0:0:
354,151,144239,1,0,0:0:0:0:
356,135,144257,1,0,0:0:0:0:
358,119,144275,1,0,0:0:0:0:
240,160,144293,5,0,0:0:0:0:
241,143,144310,1,0,0:0:0:0:
242,127,144328,1,0,0:0:0:0:
243,111,144346,1,0,0:0:0:0:
136,160,144365,5,0,0:0:0:0:
137,143,144382,1,0,0:0:0:0:
138,127,144400,1,0,0:0:0:0:
139,111,144418,1,0,0:0:0:0:
32,160,144436,5,0,0:0:0:0:
33,143,144453,1,0,0:0:0:0:
34,127,144471,1,0,0:0:0:0:
35,111,144489,1,0,0:0:0:0:
128,168,144508,5,0,0:0:0:0:
143,174,144525,1,0,0:0:0:0:
157,181,144543,1,0,0:0:0:0:
156,167,144561,1,0,0:0:0:0:
152,151,144579,1,0,0:0:0:0:
149,135,144597,1,0,0:0:0:0:
145,119,144615,1,0,0:0:0:0:
142,104,144632,1,0,0:0:0:0:
248,168,144650,5,0,0:0:0:0:
246,151,144667,1,0,0:0:0:0:
244,135,144685,1,0,0:0:0:0:
242,119,144703,1,0,0:0:0:0:
360,160,144721,5,0,0:0:0:0:
359,143,144738,1,0,0:0:0:0:
358,127,144756,1,0,0:0:0:0:
357,111,144774,1,0,0:0:0:0:
464,160,144793,5,0,0:0:0:0:
463,143,144810,1,0,0:0:0:0:
462,127,144828,1,0,0:0:0:0:
461,111,144846,1,0,0:0:0:0:
360,160,144864,5,0,0:0:0:0:
359,143,144881,1,0,0:0:0:0:
358,127,144899,1,0,0:0:0:0:
357,111,144917,1,0,0:0:0:0:
100,116,144936,5,0,0:0:0:0:
86,125,144953,1,0,0:0:0:0:
74,135,144971,1,0,0:0:0:0:
64,147,144989,1,0,0:0:0:0:
55,161,145007,1,0,0:0:0:0:
50,177,145025,1,0,0:0:0:0:
47,193,145043,1,0,0:0:0:0:
47,209,145060,1,0,0:0:0:0:
160,216,145079,5,0,0:0:0:0:
158,233,145096,1,0,0:0:0:0:
156,249,145114,1,0,0:0:0:0:
154,265,145132,1,0,0:0:0:0:
272,224,145150,5,0,0:0:0:0:
271,241,145167,1,0,0:0:0:0:
270,257,145185,1,0,0:0:0:0:
269,273,145203,1,0,0:0:0:0:
376,224,145222,5,0,0:0:0:0:
375,241,145239,1,0,0:0:0:0:
374,257,145257,1,0,0:0:0:0:
373,273,145275,1,0,0:0:0:0:
480,224,145293,5,0,0:0:0:0:
479,241,145310,1,0,0:0:0:0:
478,257,145328,1,0,0:0:0:0:
477,273,145346,1,0,0:0:0:0:
384,216,145365,5,0,0:0:0:0:
369,210,145382,1,0,0:0:0:0:
355,203,145400,1,0,0:0:0:0:
356,217,145418,1,0,0:0:0:0:
360,233,145436,1,0,0:0:0:0:
363,249,145454,1,0,0:0:0:0:
367,265,145472,1,0,0:0:0:0:
370,280,145489,1,0,0:0:0:0:
264,216,145507,5,0,0:0:0:0:
266,233,145524,1,0,0:0:0:0:
268,249,145542,1,0,0:0:0:0:
270,265,145560,1,0,0:0:0:0:
152,224,145578,5,0,0:0:0:0:
153,241,145595,1,0,0:0:0:0:
154,257,145613,1,0,0:0:0:0:
155,273,145631,1,0,0:0:0:0:
48,224,145650,5,0,0:0:0:0:
49,241,145667,1,0,0:0:0:0:
50,257,145685,1,0,0:0:0:0:
51,273,145703,1,0,0:0:0:0:
152,224,145721,5,0,0:0:0:0:
153,241,145738,1,0,0:0:0:0:
154,257,145756,1,0,0:0:0:0:
155,273,145774,1,0,0:0:0:0:
356,224,145793,5,0,0:0:0:0:
359,208,145810,1,0,0:0:0:0:
362,192,145828,1,0,0:0:0:0:
366,176,145846,1,0,0:0:0:0:
472,176,145865,5,0,0:0:0:0:
476,160,145882,1,0,0:0:0:0:
480,144,145900,1,0,0:0:0:0:
484,128,145918,1,0,0:0:0:0:
344,156,145936,5,0,0:0:0:0:
348,140,145953,1,0,0:0:0:0:
352,124,145971,1,0,0:0:0:0:
356,108,145989,1,0,0:0:0:0:
228,148,146008,5,0,0:0:0:0:
232,132,146025,1,0,0:0:0:0:
237,116,146043,1,0,0:0:0:0:
242,101,146061,1,0,0:0:0:0:
80,156,146079,5,0,0:0:0:0:
41,93,146150,5,0,0:0:0:0:
110,58,146222,5,0,0:0:0:0:
196,50,146293,5,0,0:0:0:0:
302,144,146365,6,6,L|432:144,1,130
367,143,146436,1,6,0:0:0:0:
350,116,146651,2,6,L|220:116,1,130
224,98,146865,1,6,0:0:0:0:
231,88,146937,6,6,L|448:88,1,216.666666666667
360,164,147223,2,6,L|144:164,1,216.666666666667
204,84,147508,6,6,L|464:84,1,260
333,84,147579,1,6,0:0:0:0:
340,168,147794,2,6,L|80:168,1,260
62,142,148007,1,0,0:0:0:0:
45,94,148079,1,0,0:0:0:0:
74,50,148150,1,0,0:0:0:0:
125,35,148222,1,0,0:0:0:0:
177,45,148293,1,0,0:0:0:0:
440,263,148365,5,0,0:0:0:0:
448,259,148383,1,0,0:0:0:0:
456,255,148400,1,0,0:0:0:0:
460,247,148418,1,0,0:0:0:0:
464,239,148436,1,0,0:0:0:0:
468,231,148454,1,0,0:0:0:0:
472,223,148472,1,0,0:0:0:0:
476,215,148490,1,0,0:0:0:0:
480,207,148508,1,0,0:0:0:0:
480,199,148525,1,0,0:0:0:0:
480,191,148543,1,0,0:0:0:0:
476,183,148561,1,0,0:0:0:0:
472,179,148579,1,0,0:0:0:0:
464,175,148597,1,0,0:0:0:0:
456,171,148615,1,0,0:0:0:0:
448,167,148633,1,0,0:0:0:0:
206,92,148651,6,4,L|76:92,1,130
440,152,148936,2,0,L|308:152,1,130,8|0,0:0|0:0,0:0:0:0:
64,200,149222,1,0,0:0:0:0:
308,252,149365,2,0,L|442:252,2,130,8|0|0,0:0|0:0|0:0,0:0:0:0:
28,184,149794,6,0,L|172:184,1,130,2|0,0:0|0:0,0:0:0:0:
376,156,150079,2,0,L|244:156,1,130,2|0,0:0|0:0,0:0:0:0:
0,84,150365,6,4,L|520:84,1,520
288,84,150936,5,0,0:0:0:0:
88,168,151222,2,0,L|232:168,1,130,2|0,0:0|0:0,0:0:0:0:
448,268,151651,2,0,L|296:268,2,130,8|0|0,0:0|0:0|0:0,0:0:0:0:
8,232,152079,6,2,L|160:232,3,130
380,240,152651,6,2,L|424:184,1,65
264,236,152794,6,2,L|232:180,1,65
448,228,152936,6,2,L|400:180,1,65
240,224,153079,6,2,L|292:176,1,65
484,180,153222,6,0,L|336:180,1,130,8|0,0:0|0:0,0:0:0:0:
144,184,153508,2,0,L|8:184,1,130,8|0,0:0|0:0,0:0:0:0:
248,164,153794,6,2,L|196:112,1,65
68,156,153936,6,2,L|132:120,1,65
256,144,154079,6,2,L|188:168,1,65
52,132,154222,6,2,L|120:140,1,65
328,160,154365,6,0,P|392:160|448:116,1,130,8|0,0:0|0:0,0:0:0:0:
168,180,154651,2,0,P|112:164|88:96,1,130,8|0,0:0|0:0,0:0:0:0:
363,131,154936,6,2,L|435:132,1,65
264,136,155079,6,2,L|196:136,1,65
428,132,155222,6,2,L|360:132,1,65
200,136,155365,6,2,L|276:136,1,65
116,168,155508,6,0,P|72:140|88:68,1,130,8|0,0:0|0:0,0:0:0:0:
128,56,155722,1,0,0:0:0:0:
360,156,155794,6,2,L|424:156,1,65
228,120,155936,2,2,L|296:120,1,65
452,76,156079,2,8,L|312:76,3,130
112,76,156651,5,4,0:0:0:0:
140,76,156651,1,4,0:0:0:0:
168,76,156794,1,4,0:0:0:0:
140,76,156794,1,4,0:0:0:0:
112,76,156936,1,4,0:0:0:0:
84,76,156936,1,4,0:0:0:0:
56,76,157079,1,4,0:0:0:0:
84,76,157079,1,4,0:0:0:0:
112,76,157222,5,0,0:0:0:0:
82,89,157257,1,0,0:0:0:0:
64,116,157293,1,0,0:0:0:0:
60,147,157329,1,0,0:0:0:0:
73,177,157364,1,0,0:0:0:0:
99,197,157400,1,0,0:0:0:0:
131,201,157436,1,0,0:0:0:0:
161,189,157472,1,0,0:0:0:0:
392,272,157508,5,0,0:0:0:0:
424,271,157543,1,0,0:0:0:0:
452,256,157579,1,0,0:0:0:0:
470,229,157615,1,0,0:0:0:0:
474,197,157650,1,0,0:0:0:0:
462,167,157686,1,0,0:0:0:0:
438,146,157722,1,0,0:0:0:0:
407,138,157758,1,0,0:0:0:0:
132,148,157792,6,0,B|40:288|204:344|432:364|464:240|460:64|251:19|251:19|120:36|40:72|49:164|224:208|456:160,1,1300,2|0,0:0|0:0,0:0:0:0:
132,288,157793,5,2,0:0:0:0:
118,278,157810,1,0,0:0:0:0:
105,268,157828,1,0,0:0:0:0:
92,259,157846,1,0,0:0:0:0:
94,247,157864,1,0,0:0:0:0:
103,234,157882,1,0,0:0:0:0:
113,221,157900,1,0,0:0:0:0:
123,208,157917,1,0,0:0:0:0:
132,194,157935,1,0,0:0:0:0:
142,181,157953,1,0,0:0:0:0:
151,168,157971,1,0,0:0:0:0:
161,155,157989,1,0,0:0:0:0:
362,231,158007,5,6,0:0:0:0:
375,221,158024,1,0,0:0:0:0:
388,212,158042,1,0,0:0:0:0:
402,203,158060,1,0,0:0:0:0:
415,194,158078,1,0,0:0:0:0:
429,185,158096,1,0,0:0:0:0:
431,176,158114,1,0,0:0:0:0:
416,168,158131,1,0,0:0:0:0:
402,160,158149,1,0,0:0:0:0:
388,152,158167,1,0,0:0:0:0:
374,144,158185,1,0,0:0:0:0:
360,136,158203,1,0,0:0:0:0:
89,138,158221,5,0,0:0:0:0:
78,125,158238,1,0,0:0:0:0:
68,112,158256,1,0,0:0:0:0:
58,99,158274,1,0,0:0:0:0:
48,86,158292,1,0,0:0:0:0:
38,74,158310,1,0,0:0:0:0:
52,72,158328,1,0,0:0:0:0:
69,72,158345,1,0,0:0:0:0:
196,75,158364,5,0,0:0:0:0:
210,68,158381,1,0,0:0:0:0:
225,61,158399,1,0,0:0:0:0:
240,54,158417,1,0,0:0:0:0:
393,90,158435,5,0,0:0:0:0:
403,77,158452,1,0,0:0:0:0:
414,65,158470,1,0,0:0:0:0:
425,53,158488,1,0,0:0:0:0:
159,291,158507,5,0,0:0:0:0:
144,284,158524,1,0,0:0:0:0:
131,274,158542,1,0,0:0:0:0:
124,260,158560,1,0,0:0:0:0:
121,244,158578,1,0,0:0:0:0:
123,228,158596,1,0,0:0:0:0:
131,214,158614,1,0,0:0:0:0:
143,203,158631,1,0,0:0:0:0:
307,268,158650,5,0,0:0:0:0:
316,254,158667,1,0,0:0:0:0:
325,241,158685,1,0,0:0:0:0:
334,227,158703,1,0,0:0:0:0:
343,214,158721,1,0,0:0:0:0:
353,201,158739,1,0,0:0:0:0:
362,187,158757,1,0,0:0:0:0:
371,174,158774,1,0,0:0:0:0:
380,160,158792,1,0,0:0:0:0:
389,147,158810,1,0,0:0:0:0:
383,147,158828,1,0,0:0:0:0:
368,154,158846,1,0,0:0:0:0:
353,161,158864,1,0,0:0:0:0:
339,168,158882,1,0,0:0:0:0:
324,175,158899,1,0,0:0:0:0:
309,182,158917,1,0,0:0:0:0:
87,214,158934,6,0,B|268:152|268:152|140:288|412:360|412:360|460:228|456:52|328:180|-8:240|70:128|70:128|148:28|244:24|344:104,1,1300,2|0,0:0|0:0,0:0:0:0:
87,227,158935,5,0,0:0:0:0:
76,214,158952,1,0,0:0:0:0:
69,199,158970,1,0,0:0:0:0:
66,183,158988,1,0,0:0:0:0:
67,167,159006,1,0,0:0:0:0:
71,152,159024,1,0,0:0:0:0:
80,138,159042,1,0,0:0:0:0:
91,126,159059,1,0,0:0:0:0:
105,118,159077,1,0,0:0:0:0:
120,113,159095,1,0,0:0:0:0:
136,111,159113,1,0,0:0:0:0:
152,114,159131,1,0,0:0:0:0:
350,266,159150,5,0,0:0:0:0:
366,265,159167,1,0,0:0:0:0:
382,261,159185,1,0,0:0:0:0:
397,255,159203,1,0,0:0:0:0:
410,247,159221,1,0,0:0:0:0:
422,236,159239,1,0,0:0:0:0:
432,223,159257,1,0,0:0:0:0:
440,209,159274,1,0,0:0:0:0:
445,193,159292,1,0,0:0:0:0:
448,177,159310,1,0,0:0:0:0:
447,161,159328,1,0,0:0:0:0:
444,145,159346,1,0,0:0:0:0:
177,71,159364,5,0,0:0:0:0:
161,74,159381,1,0,0:0:0:0:
145,80,159399,1,0,0:0:0:0:
132,88,159417,1,0,0:0:0:0:
120,99,159435,1,0,0:0:0:0:
111,113,159453,1,0,0:0:0:0:
104,127,159471,1,0,0:0:0:0:
100,143,159488,1,0,0:0:0:0:
99,159,159506,1,0,0:0:0:0:
101,175,159524,1,0,0:0:0:0:
106,191,159542,1,0,0:0:0:0:
114,205,159560,1,0,0:0:0:0:
125,217,159578,1,0,0:0:0:0:
137,227,159596,1,0,0:0:0:0:
152,235,159613,1,0,0:0:0:0:
167,240,159631,1,0,0:0:0:0:
367,271,159650,5,0,0:0:0:0:
370,255,159667,1,0,0:0:0:0:
373,239,159685,1,0,0:0:0:0:
376,223,159703,1,0,0:0:0:0:
379,207,159721,1,0,0:0:0:0:
382,191,159739,1,0,0:0:0:0:
385,175,159757,1,0,0:0:0:0:
388,159,159774,1,0,0:0:0:0:
199,252,159793,5,0,0:0:0:0:
202,236,159810,1,0,0:0:0:0:
206,220,159828,1,0,0:0:0:0:
210,204,159846,1,0,0:0:0:0:
214,188,159864,1,0,0:0:0:0:
218,173,159882,1,0,0:0:0:0:
222,157,159900,1,0,0:0:0:0:
226,141,159917,1,0,0:0:0:0:
65,216,159935,5,0,0:0:0:0:
70,200,159952,1,0,0:0:0:0:
75,185,159970,1,0,0:0:0:0:
80,169,159988,1,0,0:0:0:0:
85,154,160006,1,0,0:0:0:0:
90,138,160024,1,0,0:0:0:0:
95,123,160042,1,0,0:0:0:0:
100,107,160059,1,0,0:0:0:0:
428,288,160076,6,0,B|232:264|232:264|460:64|460:64|251:19|251:19|148:152|148:152|48:44|48:44|48:204|48:204|156:244|156:244,1,1300,2|0,0:0|0:0,0:0:0:0:
428,320,160078,5,0,0:0:0:0:
428,303,160095,1,0,0:0:0:0:
428,287,160113,1,0,0:0:0:0:
428,271,160131,1,0,0:0:0:0:
428,255,160149,1,0,0:0:0:0:
428,238,160167,1,0,0:0:0:0:
428,222,160185,1,0,0:0:0:0:
428,206,160202,1,0,0:0:0:0:
428,190,160220,1,0,0:0:0:0:
428,173,160238,1,0,0:0:0:0:
428,157,160256,1,0,0:0:0:0:
428,141,160274,1,0,0:0:0:0:
100,312,160293,5,0,0:0:0:0:
99,295,160310,1,0,0:0:0:0:
99,279,160328,1,0,0:0:0:0:
99,263,160346,1,0,0:0:0:0:
99,247,160364,1,0,0:0:0:0:
99,230,160382,1,0,0:0:0:0:
99,214,160400,1,0,0:0:0:0:
99,198,160417,1,0,0:0:0:0:
99,182,160435,1,0,0:0:0:0:
99,165,160453,1,0,0:0:0:0:
99,149,160471,1,0,0:0:0:0:
99,133,160489,1,0,0:0:0:0:
425,315,160507,5,0,0:0:0:0:
426,298,160524,1,0,0:0:0:0:
428,282,160542,1,0,0:0:0:0:
429,266,160560,1,0,0:0:0:0:
431,250,160578,1,0,0:0:0:0:
433,234,160596,1,0,0:0:0:0:
434,217,160614,1,0,0:0:0:0:
436,201,160631,1,0,0:0:0:0:
438,185,160649,1,0,0:0:0:0:
439,169,160667,1,0,0:0:0:0:
441,153,160685,1,0,0:0:0:0:
443,137,160703,1,0,0:0:0:0:
113,311,160721,5,0,0:0:0:0:
107,295,160738,1,0,0:0:0:0:
102,280,160756,1,0,0:0:0:0:
97,264,160774,1,0,0:0:0:0:
92,249,160792,1,0,0:0:0:0:
87,234,160810,1,0,0:0:0:0:
81,218,160828,1,0,0:0:0:0:
76,203,160845,1,0,0:0:0:0:
71,187,160863,1,0,0:0:0:0:
66,172,160881,1,0,0:0:0:0:
61,157,160899,1,0,0:0:0:0:
55,141,160917,1,0,0:0:0:0:
391,315,160935,5,0,0:0:0:0:
396,299,160952,1,0,0:0:0:0:
402,284,160970,1,0,0:0:0:0:
408,269,160988,1,0,0:0:0:0:
413,254,161006,1,0,0:0:0:0:
419,239,161024,1,0,0:0:0:0:
425,223,161042,1,0,0:0:0:0:
431,208,161059,1,0,0:0:0:0:
254,312,161078,5,0,0:0:0:0:
248,296,161095,1,0,0:0:0:0:
243,281,161113,1,0,0:0:0:0:
238,265,161131,1,0,0:0:0:0:
233,250,161149,1,0,0:0:0:0:
228,234,161167,1,0,0:0:0:0:
222,219,161185,1,0,0:0:0:0:
217,204,161202,1,0,0:0:0:0:
371,210,161218,6,0,B|232:232|232:232|140:288|140:288|412:360|488:216|436:20|328:180|72:240|48:80|48:80|232:28|232:28|344:104,1,1300,2|0,0:0|0:0,0:0:0:0:
371,197,161221,5,0,0:0:0:0:
452,132,161364,5,0,0:0:0:0:
348,122,161507,5,0,0:0:0:0:
243,120,161650,5,0,0:0:0:0:
56,232,161793,6,2,L|132:232,1,65
280,200,161935,6,2,L|344:200,1,65
96,156,162078,6,2,L|176:156,1,65
372,140,162221,6,2,L|460:140,1,65
456,144,162364,6,0,L|316:144,1,130,8|0,0:0|0:0,0:0:0:0:
40,160,162650,6,0,L|116:160,2,65,8|0|0,0:0|0:0|0:0,0:0:0:0:
364,176,162935,6,0,L|436:176,2,65,8|0|0,0:0|0:0|0:0,0:0:0:0:
84,248,163221,6,0,P|40:180|64:144,1,130,8|0,0:0|0:0,0:0:0:0:
236,48,163507,6,0,L|376:48,1,130,8|0,0:0|0:0,0:0:0:0:
190,146,163793,6,0,L|112:144,1,65,8|0,0:0|0:0,0:0:0:0:
224,96,163935,1,0,0:0:0:0:
380,256,164078,5,8,0:0:0:0:
424,200,164150,1,0,0:0:0:0:
420,132,164221,1,0,0:0:0:0:
124,264,164364,5,8,0:0:0:0:
96,220,164435,1,8,0:0:0:0:
112,168,164507,1,8,0:0:0:0:
160,148,164578,1,8,0:0:0:0:
152,240,164650,6,6,L|308:240,3,130
232,156,165221,6,6,L|8:156,3,216.666666666667
328,92,165793,6,6,L|64:92,3,260
32,92,166364,1,0,0:0:0:0:
68,92,166435,1,0,0:0:0:0:
112,92,166507,1,0,0:0:0:0:
148,92,166578,1,0,0:0:0:0:
332,216,166650,5,0,0:0:0:0:
344,221,166668,1,0,0:0:0:0:
356,223,166685,1,0,0:0:0:0:
369,223,166703,1,0,0:0:0:0:
382,223,166721,1,0,0:0:0:0:
395,220,166739,1,0,0:0:0:0:
405,213,166757,1,0,0:0:0:0:
416,204,166775,1,0,0:0:0:0:
426,194,166793,1,0,0:0:0:0:
434,185,166810,1,0,0:0:0:0:
439,172,166828,1,0,0:0:0:0:
439,160,166846,1,0,0:0:0:0:
435,147,166864,1,0,0:0:0:0:
428,135,166882,1,0,0:0:0:0:
419,124,166900,1,0,0:0:0:0:
410,113,166918,1,0,0:0:0:0:
400,104,166940,6,0,P|212:72|24:156,1,390
256,192,166940,12,0,167761,0:0:0:0:
204,236,168078,5,4,0:0:0:0:
204,204,168078,1,4,0:0:0:0:
204,204,168078,1,4,0:0:0:0:
204,204,168078,1,4,0:0:0:0:
204,204,168078,1,4,0:0:0:0:
336,196,168221,5,4,0:0:0:0:
336,164,168221,1,4,0:0:0:0:
336,164,168221,1,4,0:0:0:0:
336,164,168221,1,4,0:0:0:0:
336,164,168221,1,4,0:0:0:0:
104,168,168364,5,4,0:0:0:0:
104,136,168364,1,4,0:0:0:0:
104,136,168364,1,4,0:0:0:0:
104,136,168364,1,4,0:0:0:0:
104,136,168364,1,4,0:0:0:0:
436,120,168507,5,4,0:0:0:0:
256,192,168507,12,0,168793,0:0:0:0:
256,192,168507,12,0,169079,0:0:0:0:
256,192,168507,12,0,169364,0:0:0:0:
256,192,168507,12,0,169935,0:0:0:0:
256,192,168507,12,0,169649,0:0:0:0:
436,88,168507,5,4,0:0:0:0:
436,88,168507,1,4,0:0:0:0:
436,88,168507,1,4,0:0:0:0:
436,88,168507,1,4,0:0:0:0:
